#TITLE:RISING FIRE HAWK;
#SUBTITLE:("CHAOS" Special);
#ARTIST:L.E.D.-G;
#TITLETRANSLIT:;
#SUBTITLETRANSLIT:;
#ARTISTTRANSLIT:;
#GENRE:KONAMI originals;
#CREDIT:;
#BANNER:RISING FIRE HAWK (CHAOS Special).png;
#BACKGROUND:RISING FIRE HAWK (CHAOS Special)-bg.png;
#LYRICSPATH:;
#CDTITLE:;
#MUSIC:RISING FIRE HAWK (CHAOS Special).ogg;
#OFFSET:0.000000;
#SAMPLESTART:15.287000;
#SAMPLELENGTH:15.000000;
#SELECTABLE:YES;
#BPMS:0.000000=157.000000
;
#STOPS:36.000000=0.860000,
51.500000=0.191000,
83.750000=0.287000,
178.500000=0.573000,
195.000000=2.675000,
283.500000=0.382000
;
#BGCHANGES:;
#KEYSOUNDS:;
#ATTACKS:;

//---------------dance-single - ----------------
#NOTES:
     dance-single:
     :
     Challenge:
     17:
     0.860497,1.025436,0.611694,0.008496,0.964267,709.000000,637.000000,72.000000,1.000000,0.000000,0.000000,0.860497,1.025436,0.611694,0.008496,0.964267,709.000000,637.000000,72.000000,1.000000,0.000000,0.000000:
// measure 0
0000
0000
0000
0000
,  // measure 1
0000
0000
0000
0000
,  // measure 2
0000
0000
0000
0000
,  // measure 3
0000
0000
0000
0000
,  // measure 4
0000
0000
0000
0000
,  // measure 5
0000
0000
0000
0000
0000
0000
0000
0000
0000
0000
0000
0000
0000
0000
0001
0100
,  // measure 6
0010
0000
0010
0000
0010
0000
0010
0000
0010
0000
0010
0000
0001
0000
1000
0100
,  // measure 7
0010
0000
0010
0000
0010
0000
0010
0000
0010
0000
0010
0000
0010
0000
1000
0001
,  // measure 8
0100
0000
0100
0000
0100
0000
0001
1000
0100
0000
0100
0000
0100
0000
1000
0001
,  // measure 9
1001
0000
0000
0010
0000
1000
0100
0010
0000
0001
0000
1000
0000
0000
0000
0001
,  // measure 10
0000
0100
0001
0100
0000
0010
1000
1010
0000
1000
0000
0001
0010
0100
1000
0000
,  // measure 11
0000
0001
0000
1000
0100
0010
0001
1000
0000
0001
0000
0100
0000
0000
0000
0010
,  // measure 12
0000
1000
0001
0100
0000
0001
1000
0001
0000
1000
0000
0010
0100
0010
0100
1001
,  // measure 13
0000
0010
0000
0001
1000
0001
0000
1000
0000
0100
0000
0010
0000
0001
0000
0100
,  // measure 14
0010
0110
0000
0010
0100
0110
0000
0001
0000
0100
0010
0100
0010
0100
0000
0001
,  // measure 15
0000
1000
0000
0100
0010
0001
0000
0011
0000
0011
0000
0011
0000
0101
0000
1000
,  // measure 16
0001
0000
1000
0100
0000
1000
0010
1000
0100
0010
0001
0010
0000
0001
0010
0100
,  // measure 17
1000
0100
0010
0001
0000
1000
0000
0010
0000
1000
0000
0001
0010
0001
0000
1000
,  // measure 18
0100
1000
0000
0001
0010
0011
0000
0100
0000
0010
0000
1000
0100
0010
0000
0100
,  // measure 19
0010
0001
0000
1000
0000
0010
0000
0100
0000
0110
0000
0010
0000
1000
0000
0001
,  // measure 20
0000
0010
0000
1000
0100
0010
0001
1000
0000
0010
0100
0010
0100
0000
0000
1001
,  // measure 21
0100
0010
1000
0100
0010
0100
0010
0001
,  // measure 22
0100
0001
0101
0000
1000
0010
0100
0000
0001
0100
0001
0100
0010
0000
1000
0000
,  // measure 23
0001
0000
0100
0010
0100
0001
0100
0000
0110
0000
0101
0000
0000
1010
0000
0000
,  // measure 24
0101
0000
1000
0000
0000
1100
0000
0000
0011
0000
1000
0000
0100
0010
0000
1000
,  // measure 25
0001
0000
1000
0000
0100
0000
0010
0000
0001
0000
1000
0000
0010
0100
0001
0000
,  // measure 26
1000
0010
0100
0000
0001
0000
0010
0000
1000
0000
0010
0000
0001
0000
0100
0000
,  // measure 27
0001
1000
0010
1000
0010
0100
0001
0100
,  // measure 28
0001
1000
0001
1000
0001
0110
0110
1001
,  // measure 29
0000
0010
0010
1000
1000
0001
0001
0100
,  // measure 30
0100
0000
0001
0010
0001
0000
1000
0100
1000
0000
0001
0010
0001
0000
1000
0100
,  // measure 31
1000
0000
0001
0100
0001
0100
0010
1000
0010
1000
0001
0010
0100
0010
0001
0100
,  // measure 32
0010
1000
0001
0000
0100
0000
0010
0000
0100
0000
0001
0000
1000
0000
0010
0000
,  // measure 33
1000
0000
1001
0000
0001
0000
1000
0000
0001
0100
0001
0000
1000
0000
0010
0000
,  // measure 34
0100
0010
0110
0000
0010
0000
1000
0000
0100
0010
0001
0000
0101
0000
1001
0000
,  // measure 35
0101
0000
0100
0000
0010
0000
1000
0000
0001
0010
0001
0000
0100
0010
0000
1000
,  // measure 36
0100
0010
0001
0000
1000
0100
0000
0010
0001
0000
0110
0000
0110
0000
1001
0000
,  // measure 37
0001
0100
0001
0000
1000
0000
0100
0010
0001
0010
0100
0000
0001
0000
1000
0010
,  // measure 38
0100
0010
1000
0000
0001
0000
1000
0010
0100
0010
1000
0000
0001
0000
1000
0000
,  // measure 39
0100
0000
0011
0000
1000
0100
0000
0010
0001
0010
0001
0000
1000
0010
0000
0100
,  // measure 40
0001
0010
0001
0000
1000
0100
0000
0010
0001
0000
0100
0000
1000
0100
0000
0001
,  // measure 41
0010
0000
1000
0000
0001
0000
1000
0000
0010
0100
0010
0000
0100
0000
0001
0000
,  // measure 42
1000
0100
0010
0000
0100
0000
0001
0000
1000
0001
0001
0000
1000
0000
1100
0000
,  // measure 43
1001
0000
1000
0000
0001
0000
0100
0000
0010
0100
0001
0000
1000
0000
0100
0000
,  // measure 44
0010
0001
0010
0000
0001
0100
0000
0010
1000
0000
1001
0000
0001
0000
0001
0000
,  // measure 45
1000
0000
0001
0100
0010
0000
0010
0000
0100
0000
0001
0100
0010
0000
0010
0000
,  // measure 46
0100
0000
0001
1000
0100
0000
0100
0000
0010
0000
0001
0000
1000
0000
0100
1000
,  // measure 47
0000
0001
0010
0000
0001
0000
1000
0100
0000
0010
0001
0100
0001
0000
1000
0001
,  // measure 48
0000
0000
0000
0000
0000
0000
0000
0000
0000
0000
0000
0000
1000
0000
0000
0000
0000
0000
0000
0000
0000
0000
0000
0000
0010
0000
0000
0000
0000
0000
0000
0000
0000
0000
0000
0000
0000
0000
0000
0000
0000
0000
0000
0000
0000
0000
0000
0000
1000
0000
0000
0000
0000
0000
0000
0000
0000
0000
0000
0000
0000
0000
0000
0000
0000
0000
0000
0000
0000
0000
0000
0000
1000
0000
0000
0000
0000
0000
0000
0000
0000
0000
0000
0000
0001
0000
0000
0000
0000
0000
0000
0000
0000
0000
0000
0000
0000
0000
0000
0000
0000
0000
0000
0000
0000
0000
0000
0000
1000
0000
0000
0000
0000
0000
0000
0000
0000
0000
0000
0000
0100
0000
0000
0000
0000
0000
0000
0000
0000
0000
0000
0000
0000
0000
0000
0000
0000
0000
0000
0000
0000
0000
0000
0000
0020
0030
0000
0000
0000
0000
0000
0000
0000
0000
0000
0000
0000
0000
0000
0000
0000
0000
0000
0000
0000
0000
0000
0000
0000
0000
0000
0000
0000
0000
0000
0000
0000
0000
0000
0000
0000
0000
0000
0000
0000
0000
0000
0000
0000
0000
0000
0000
,  // measure 49
1000
0000
0000
0100
0000
0000
0010
0000
0000
0000
0000
0000
0000
0000
0000
0000
,  // measure 50
0001
0000
0000
0010
0000
0000
1000
0000
0000
0000
0000
0000
0000
0000
0000
0000
,  // measure 51
0100
0000
0000
1000
0001
0000
1000
0100
1000
0000
0010
0000
1000
0100
0010
0001
,  // measure 52
1000
0000
0000
1000
0001
0000
0010
0000
1000
0000
0010
0000
0001
0100
0010
0000
,  // measure 53
1000
0000
0010
1000
0000
1000
0001
0000
1000
0000
0001
0010
0000
0001
0100
0000
,  // measure 54
0010
0000
1000
0100
0000
0010
0001
1000
0001
0000
0000
1001
0000
0000
0011
0000
,  // measure 55
0001
0000
1000
0100
0000
0010
0001
0000
1000
0000
0100
0000
0010
0000
0001
0000
,  // measure 56
0100
0000
0010
0100
0000
0001
1000
0000
0001
0000
0010
0000
0100
0000
1000
0000
,  // measure 57
0001
0000
0100
1000
0000
0100
0001
0000
1000
0000
0010
0000
0001
0000
0010
0000
,  // measure 58
1000
0000
0001
0010
0000
1000
0010
0000
0001
0000
0010
0000
1000
0000
0100
0000
,  // measure 59
1000
0000
0001
0000
1000
0000
0001
0000
1000
0000
0010
0000
1000
0100
0010
0001
,  // measure 60
1001
0000
0001
0000
0100
0000
1000
0000
0100
0000
0001
0000
0010
0100
1000
0100
,  // measure 61
0010
0000
0001
0100
0000
0001
0101
0000
1010
0000
0010
1000
0000
0010
1010
0000
,  // measure 62
0101
0000
0100
0010
0000
1000
1010
0000
0101
0000
0010
0100
0000
0100
0110
0000
,  // measure 63
1001
0000
0000
0000
0010
0010
0100
0100
0110
0000
1010
0000
0101
0000
1100
0000
,  // measure 64
0000
0000
0000
0000
0000
0000
0011
0000
0000
0000
0000
0000
1000
0000
0000
0100
0000
0000
0010
0000
0000
0001
0000
0000
1000
0000
0000
0000
0000
0000
0010
0000
0000
0000
0000
0000
1000
0000
0010
0000
1000
0000
0010
0000
0000
1000
0000
0000
,  // measure 65
0001
0000
1000
0100
0010
0100
1000
0000
0001
0000
0101
0000
0001
0010
0100
0010
,  // measure 66
0001
0000
0000
0000
0000
0000
1000
0000
0000
0100
0000
0000
0001
0000
0000
0100
0000
0000
1000
0000
0000
0000
0000
0000
0001
0000
0000
0000
0000
0000
0110
0000
0000
0000
0000
0000
0001
0000
0010
0000
0100
0000
1000
0000
0000
0000
0000
0000
,  // measure 67
0011
0000
0011
0000
1100
0000
1100
0000
0110
0000
0110
0000
0001
0010
0100
1000
,  // measure 68
1100
0000
1100
0000
0011
0000
0011
0000
0110
0000
0110
0000
1000
0100
0010
0001
,  // measure 69
0011
0000
0100
0010
0000
1000
1010
0000
0011
0000
0100
0010
0000
0100
0110
0000
,  // measure 70
1001
0000
1000
0100
0000
0010
0001
0000
0110
0000
0001
0100
0000
0010
0110
0000
,  // measure 71
1001
0000
0000
0000
;
