#TITLE:REMINISCENCE;
#SUBTITLE:;
#ARTIST:jun with Alison;
#TITLETRANSLIT:;
#SUBTITLETRANSLIT:;
#ARTISTTRANSLIT:;
#GENRE:;
#CREDIT:Toxsa Dalton;
#BANNER:REMINISCENCE (jun with Alison).png;
#BACKGROUND:REMINISCENCE (jun with Alison)-bg.png;
#LYRICSPATH:;
#CDTITLE:;
#MUSIC:REMINISCENCE (jun with Alison).ogg;
#OFFSET:1.027001;
#SAMPLESTART:44.411598;
#SAMPLELENGTH:15.438595;
#LASTBEATHINT:0.076953;
#SELECTABLE:YES;
#BPMS:0.000000=171.000000
;
#STOPS:
;
#BGCHANGES:;
#KEYSOUNDS:;
#ATTACKS:;

//---------------dance-single - ----------------
#NOTES:
     dance-single:
     :
     Hard:
     11:
     0.604463,0.650914,0.488837,0.168288,0.028048,528.000000,467.000000,61.000000,21.000000,0.000000,0.000000,0.604463,0.650914,0.488837,0.168288,0.028048,528.000000,467.000000,61.000000,21.000000,0.000000,0.000000:
0000
0000
0000
0000
,
0000
0000
0000
0000
,
0000
0000
0000
0000
,
0000
0000
0000
0000
,
0000
0000
0000
0000
,
0010
1000
0001
0000
1000
0100
0010
0000
,
0001
1000
0100
0000
0001
0010
0100
0000
,
1000
0100
0010
0000
0100
0010
0001
0000
,
1000
0001
1000
0001
0100
0010
1000
0000
,
0002
0100
0000
0103
0001
1000
0100
0020
,
0000
0001
0000
0031
0100
0010
1000
0001
,
2000
0100
0000
3100
0010
0001
1000
0020
,
0000
0100
0000
0130
0010
1000
0001
1000
,
0002
0010
0000
0013
0001
1000
0100
1000
,
0020
0100
0000
0130
0010
1000
0001
1000
,
0001
0100
0010
0000
1000
0010
0100
0000
,
0001
1000
0100
1000
0001
0000
1001
0000
,
0001
0100
0010
0000
0001
1000
0100
0010
,
0001
1000
0010
0000
0010
1000
0100
0010
,
0001
0100
0010
0000
0001
1000
0100
1000
,
0001
0000
0001
1000
0100
0000
1001
0000
,
1000
0001
0100
0000
0001
0010
0100
0010
,
0001
1000
0100
0000
1000
0100
0010
0100
,
1000
0010
0010
0000
1000
0100
0010
0001
,
1000
0001
1000
0000
0110
0000
1001
0000
,
0001
0000
0000
0010
0000
0000
0001
0000
1000
0000
0100
0000
0010
0000
0000
0000
,
1000
0000
0000
0010
0000
0000
1000
0000
0001
0000
0100
0000
0010
0000
0000
0000
,
1000
0010
0100
0001
1000
0001
0100
0010
,
1000
0000
0000
0001
0000
0000
0100
0000
0110
0000
0000
0000
1001
0000
0000
0000
,
0010
0000
0001
0000
0010
0001
0000
0000
1000
0000
0010
0000
1000
0010
0000
0000
,
1000
0000
0001
0000
1000
0001
0000
0000
1000
0000
0100
0000
0010
0000
0000
0000
,
0001
0100
0010
0100
0001
1000
0100
0010
,
0001
0000
0000
1001
0000
1000
0010
0100
,
0020
0000
1030
0010
0100
0100
0110
0000
,
0002
0000
1003
0001
0100
0100
0110
0000
,
2000
0000
3010
0100
0001
0001
1001
0000
,
0110
0000
1000
1001
1001
0000
1100
0000
,
0012
0000
0103
0010
0100
0001
1001
0000
,
2010
0000
3001
0100
0010
0100
0110
0000
,
1001
0000
0001
0100
0000
0010
1000
0000
,
1001
0000
1000
0100
0010
0001
0100
0010
,
1010
0000
0010
0100
0100
0001
1000
0000
,
0110
0000
1000
0010
0010
0100
0001
0000
,
1100
0000
0001
0100
0010
0010
0100
0000
,
1001
0000
1000
0100
1100
0000
0101
0000
,
1001
0000
0001
0100
0010
0100
0001
0000
,
1001
0000
1000
0100
0010
0100
1000
0000
,
1001
0000
0010
0100
0010
0100
0001
0000
,
1000
0001
1000
0100
0010
0001
0100
0010
,
2000
0000
3001
0000
,
0002
0100
2003
0100
,
3001
0000
1000
1001
,
0001
0000
0100
0010
,
1100
0010
0001
1001
,
1000
0000
0101
0000
,
1000
0001
0110
0001
,
1010
0000
0001
1000
,
0110
1000
0001
1000
,
1100
0000
0010
0001
,
0200
0000
0000
0000
0310
1000
0001
0000
,
1000
0001
0100
0000
0010
1000
0010
0100
,
0001
0100
0010
0000
1000
0010
0100
0010
,
1000
0001
0100
0001
1000
0000
0001
0100
,
0101
0000
1100
0000
0100
0010
0100
0001
,
0100
0001
1000
0100
0010
0001
0010
0001
,
0100
0001
1000
0010
0100
0010
1000
0010
,
0001
0100
0010
1000
2002
0000
3003
0000
,
1000
0100
0010
0001
1001
0000
1000
0100
,
1000
0001
0100
0000
0101
0000
0001
0010
,
0100
0010
0001
0000
1010
0000
0001
0100
,
0010
1000
0100
0000
1100
0000
0010
0001
,
0101
0000
1100
0000
0011
0000
1000
0010
,
1000
0001
1001
0000
0011
0000
0001
1000
,
0010
1000
1001
0000
1100
0000
0010
0001
,
0100
0010
1000
0000
1001
0000
1000
0100
,
0010
0000
0001
0000
0100
0000
0010
0000
1010
0000
0000
1010
0000
0000
1010
0000
,
0000
2002
3003
0000
0010
1000
0100
0010
,
0001
0100
0010
0100
0001
0010
0100
1000
,
0001
1000
0100
0001
1000
0010
0001
1000
,
0001
0000
1001
0000
1010
0000
0001
0100
,
1000
0100
0001
0000
1001
0000
1000
0100
,
0001
0100
1000
0000
0110
0000
0001
0010
,
0100
1000
0010
0000
1000
0100
0010
0001
,
0100
0010
1000
0001
2002
0000
0000
0000
,
0000
0000
0000
0000
,
0000
0000
3003
0000
;

//---------------dance-single - ----------------
#NOTES:
     dance-single:
     :
     Medium:
     8:
     0.431596,0.513880,0.424727,0.232398,0.000000,377.000000,324.000000,53.000000,29.000000,0.000000,0.000000,0.431596,0.513880,0.424727,0.232398,0.000000,377.000000,324.000000,53.000000,29.000000,0.000000,0.000000:
0000
0000
0000
0000
,
0000
0000
0000
0000
,
0000
0000
0000
0000
,
0000
0000
0000
0000
,
0000
0000
0000
0000
,
0010
1001
1000
0110
,
0100
1001
0001
0110
,
1000
1100
0001
0101
,
0010
0100
0001
1001
,
2000
0010
0100
3010
,
0002
0100
0010
0103
,
2000
3100
0002
0103
,
0020
0130
0110
1001
,
2000
0100
0010
3001
,
0002
0100
0010
1003
,
0001
0101
1000
1100
,
0010
0110
1001
0000
,
0001
1000
0001
0000
0100
0000
0110
0000
,
1000
0001
1000
0000
0010
0000
0110
0000
,
0001
0010
0001
0000
1000
0100
1000
0000
,
0010
0100
0010
0000
1000
0000
1001
0000
,
0001
0100
0001
0000
1000
0000
1001
0000
,
1000
0010
1000
0000
1000
0000
1001
0000
,
0001
0100
0001
0000
1000
0100
1000
0000
,
0001
0010
0001
0000
1000
0000
1100
0000
,
0010
0101
1001
0000
,
0100
1010
1001
0000
,
0011
0001
1100
1000
,
0010
0110
1001
0000
,
1000
0001
1000
0000
1001
0000
0000
0000
,
0001
1000
0001
0000
1001
0000
0000
0000
,
0110
0010
1001
1000
,
1001
0000
0220
0330
,
0010
0000
0001
0000
0100
0001
0100
0000
,
0010
0000
1000
0000
0100
1000
0100
0000
,
1000
0100
0010
0000
1000
0000
0001
0000
,
0100
0010
0100
0000
1001
0000
0000
0000
,
0001
0000
0100
0000
0010
1000
0010
0000
,
0100
0000
1000
0000
0001
0100
0001
0000
,
1000
0010
1000
0000
0001
0000
0010
0000
,
1000
0001
1000
0000
1001
0000
0000
0000
,
0010
0000
0100
0000
0001
0100
0001
0000
,
1000
0000
0010
0000
1000
0001
1000
0000
,
0010
0100
0010
0000
0001
1000
0001
0000
,
1000
0100
1000
0000
1001
0000
0000
0000
,
0001
0000
0011
0000
0001
0100
0001
0000
,
1000
0000
1100
0000
1000
0001
1000
0000
,
0001
0100
0001
0000
1000
0100
0010
0000
,
0100
0010
1001
0000
,
0002
0000
0103
0000
,
2000
0000
3100
0000
,
0002
0000
0103
0000
,
2000
0000
3010
0000
,
0020
0000
0130
0000
,
2000
0000
3100
0000
,
0002
0000
0103
0000
,
0002
0000
0013
0000
,
2000
0000
3100
0000
,
0020
0000
0130
0000
,
2002
3003
0010
1000
,
0010
1000
0010
0000
1000
0000
0100
0000
,
0010
0001
0100
0010
,
1000
0001
1000
0000
0010
0000
0100
0000
,
0001
1000
0010
1000
,
0100
1000
0100
0000
1000
0000
0100
0000
,
0001
0010
0001
0100
,
0010
1000
0010
0000
0100
0000
0010
0000
,
1001
0000
2000
0100
,
0001
3001
0002
0010
,
1000
1003
0020
0130
,
0200
0310
1100
0110
,
0011
0000
0002
0103
,
0001
0100
0001
0000
2000
0000
3100
0000
,
1000
0100
1000
0000
0001
0100
0001
0000
,
1000
0010
1000
0000
0010
0000
0110
0000
,
1001
0000
0000
0000
0110
0000
0000
0110
,
0000
0000
1000
0001
,
1000
0100
1000
0000
0001
0000
1000
0000
,
0001
0100
0001
0000
1000
0100
1000
0000
,
0110
0000
1001
0000
0001
0010
0001
0000
,
1000
0100
1000
0000
0001
0100
0001
0000
,
1000
0100
1000
0000
0010
0100
0010
0100
,
0010
0100
0010
0000
1100
0000
0010
0000
,
0101
0010
2002
0000
,
0000
0000
0000
0000
,
0000
0000
3003
0000
;

//---------------dance-single - ----------------
#NOTES:
     dance-single:
     :
     Easy:
     5:
     0.249570,0.342586,0.128220,0.224384,0.000000,218.000000,202.000000,16.000000,28.000000,0.000000,0.000000,0.249570,0.342586,0.128220,0.224384,0.000000,218.000000,202.000000,16.000000,28.000000,0.000000,0.000000:
// measure 0
0000
0000
0000
0000
,  // measure 1
0000
0000
0000
0000
,  // measure 2
0000
0000
0000
0000
,  // measure 3
0000
0000
0000
0000
,  // measure 4
0000
0000
0000
0000
,  // measure 5
0010
0001
1000
0000
,  // measure 6
0100
1000
0001
0000
,  // measure 7
1000
0100
0001
0000
,  // measure 8
0010
0100
0001
0000
,  // measure 9
2000
0000
3100
0000
,  // measure 10
0002
0000
0013
0000
,  // measure 11
2000
3000
0002
0003
,  // measure 12
0010
0000
1001
0000
,  // measure 13
2000
0000
3010
0000
,  // measure 14
0002
0000
0103
0000
,  // measure 15
0002
0003
2000
3000
,  // measure 16
0010
0000
1001
0000
,  // measure 17
0001
1000
0100
0000
,  // measure 18
1000
0001
0010
0000
,  // measure 19
0001
0010
1000
0000
,  // measure 20
1000
0010
0001
0000
,  // measure 21
0001
0100
1000
0000
,  // measure 22
1000
0100
0001
0000
,  // measure 23
0001
0100
1000
0100
,  // measure 24
0001
0010
1000
0000
,  // measure 25
0010
0100
1001
0000
,  // measure 26
0100
0010
1001
0000
,  // measure 27
0010
0001
0100
1000
,  // measure 28
0010
0000
1001
0000
,  // measure 29
1000
0001
1001
0000
,  // measure 30
0001
1000
1001
0000
,  // measure 31
0010
1000
0100
1000
,  // measure 32
0010
0000
1001
0000
,  // measure 33
0010
0001
0100
0000
,  // measure 34
0010
1000
0100
0000
,  // measure 35
1000
0010
1000
0001
,  // measure 36
0100
0000
1001
0000
,  // measure 37
0001
0100
0010
0000
,  // measure 38
0100
1000
0001
0000
,  // measure 39
1000
0010
0001
0010
,  // measure 40
1000
0000
1001
0000
,  // measure 41
0010
0100
0001
0000
,  // measure 42
1000
0010
1000
0000
,  // measure 43
0010
0100
0001
1000
,  // measure 44
0100
0010
1001
0000
,  // measure 45
0001
0010
0001
0000
,  // measure 46
1000
0100
1000
0000
,  // measure 47
0001
0100
1000
0100
,  // measure 48
0010
0000
1001
0000
,  // measure 49
0002
0000
0003
0000
,  // measure 50
2000
0000
3000
0000
,  // measure 51
0002
0000
0003
0000
,  // measure 52
2000
0000
3000
0000
,  // measure 53
0020
0000
0030
0000
,  // measure 54
0200
0000
0300
0000
,  // measure 55
0020
0000
0030
0000
,  // measure 56
0200
0000
0300
0000
,  // measure 57
2000
0000
3000
0000
,  // measure 58
0200
0000
0300
0000
,  // measure 59
0000
0000
0010
1000
,  // measure 60
0010
0000
1000
0100
,  // measure 61
0010
0000
0001
0100
,  // measure 62
0001
0000
0010
0100
,  // measure 63
1000
0000
0010
1000
,  // measure 64
0100
0000
1000
0100
,  // measure 65
0010
0000
0001
0010
,  // measure 66
0100
0000
1000
0000
,  // measure 67
1001
0000
2000
0000
,  // measure 68
3001
0000
0002
0000
,  // measure 69
1003
0000
0020
0030
,  // measure 70
0200
0300
1000
0010
,  // measure 71
0001
0000
0002
0000
,  // measure 72
0103
0000
2000
0000
,  // measure 73
3100
0000
0001
0100
,  // measure 74
1000
0010
0100
0000
,  // measure 75
1001
0000
0220
0000
,  // measure 76
0330
0000
1000
0001
,  // measure 77
1000
0000
0001
1000
,  // measure 78
0001
0000
1000
0100
,  // measure 79
0010
0000
0001
0010
,  // measure 80
1000
0000
0001
0100
,  // measure 81
1000
0000
0010
0100
,  // measure 82
0010
0100
1000
0010
,  // measure 83
0001
0000
2002
0000
,  // measure 84
0000
0000
0000
0000
,  // measure 85
0000
0000
3003
0000
;

//---------------dance-single - ----------------
#NOTES:
     dance-single:
     :
     Beginner:
     3:
     0.124785,0.205552,0.032055,0.168288,0.000000,109.000000,105.000000,4.000000,21.000000,0.000000,0.000000,0.124785,0.205552,0.032055,0.168288,0.000000,109.000000,105.000000,4.000000,21.000000,0.000000,0.000000:
// measure 0
0000
0000
0000
0000
,  // measure 1
0000
0000
0000
0000
,  // measure 2
0000
0000
0000
0000
,  // measure 3
0000
0000
0000
0000
,  // measure 4
0000
0000
0000
0000
,  // measure 5
0010
0000
0000
0000
,  // measure 6
0100
0000
0000
0000
,  // measure 7
1000
0000
0000
0000
,  // measure 8
0001
0000
0000
0000
,  // measure 9
1000
0000
1000
0000
,  // measure 10
0001
0000
0001
0000
,  // measure 11
1000
0000
0001
0000
,  // measure 12
1000
0000
0000
0000
,  // measure 13
0010
0000
0010
0000
,  // measure 14
0100
0000
0100
0000
,  // measure 15
0010
0000
0100
0000
,  // measure 16
0010
0000
0000
0000
,  // measure 17
0001
0000
1000
0000
,  // measure 18
1000
0000
0001
0000
,  // measure 19
1000
0000
0001
0000
,  // measure 20
1000
0000
0000
0000
,  // measure 21
0100
0000
0100
0000
,  // measure 22
0010
0000
0010
0000
,  // measure 23
0100
0000
0100
0000
,  // measure 24
0100
0000
0000
0000
,  // measure 25
0020
0000
0030
0000
,  // measure 26
0200
0000
0300
0000
,  // measure 27
0010
0000
0100
0000
,  // measure 28
0020
0000
0030
0000
,  // measure 29
2000
0000
3000
0000
,  // measure 30
0002
0000
0003
0000
,  // measure 31
0010
0000
0100
0000
,  // measure 32
0010
0000
0000
0000
,  // measure 33
0010
0000
0010
0000
,  // measure 34
0010
0000
0000
0000
,  // measure 35
1000
0000
1000
0000
,  // measure 36
1000
0000
0000
0000
,  // measure 37
0100
0000
0100
0000
,  // measure 38
0100
0000
0000
0000
,  // measure 39
0001
0000
0001
0000
,  // measure 40
0001
0000
0000
0000
,  // measure 41
0020
0030
0000
0000
,  // measure 42
0200
0300
0000
0000
,  // measure 43
0001
0000
0001
0000
,  // measure 44
0001
0000
0000
0000
,  // measure 45
0200
0300
0000
0000
,  // measure 46
0020
0030
0000
0000
,  // measure 47
1000
0000
1000
0000
,  // measure 48
1000
0000
0000
0000
,  // measure 49
0002
0000
0003
0000
,  // measure 50
0000
0000
0000
0000
,  // measure 51
2000
0000
3000
0000
,  // measure 52
0000
0000
0000
0000
,  // measure 53
0020
0000
0030
0000
,  // measure 54
0000
0000
0000
0000
,  // measure 55
0200
0000
0300
0000
,  // measure 56
0000
0000
0000
0000
,  // measure 57
2002
0000
3003
0000
,  // measure 58
0000
0000
0000
0000
,  // measure 59
0000
0000
0010
0000
,  // measure 60
0000
0000
1000
0000
,  // measure 61
0000
0000
0100
0000
,  // measure 62
0000
0000
0001
0000
,  // measure 63
0000
0000
0010
0000
,  // measure 64
0010
0000
0100
0000
,  // measure 65
0100
0000
0001
0000
,  // measure 66
0001
0000
1000
0000
,  // measure 67
0000
0000
2000
0000
,  // measure 68
3000
0000
0002
0000
,  // measure 69
0003
0000
0020
0000
,  // measure 70
0030
0000
0200
0000
,  // measure 71
0300
0000
0001
0000
,  // measure 72
0001
0000
1000
0000
,  // measure 73
1000
0000
0010
0000
,  // measure 74
0010
0000
0010
0000
,  // measure 75
0000
0000
1001
0000
,  // measure 76
0000
0000
1000
0000
,  // measure 77
1000
0000
0001
0000
,  // measure 78
0001
0000
1000
0000
,  // measure 79
0000
0000
0010
0000
,  // measure 80
0010
0000
0100
0000
,  // measure 81
0100
0000
0010
0000
,  // measure 82
0100
0000
1001
0000
,  // measure 83
0000
0000
2002
0000
,  // measure 84
0000
0000
0000
0000
,  // measure 85
0000
0000
3003
0000
;
