#TITLE:Quaint Echo;
#SUBTITLE:;
#ARTIST:KLing(Aoi+Yunosuke);
#TITLETRANSLIT:;
#SUBTITLETRANSLIT:;
#ARTISTTRANSLIT:;
#GENRE:;
#CREDIT:;
#BANNER:Quaint Echo.png;
#BACKGROUND:Quaint Echo-bg.png;
#LYRICSPATH:;
#CDTITLE:;
#MUSIC:Quaint Echo.ogg;
#OFFSET:1.240000;
#SAMPLESTART:78.519997;
#SAMPLELENGTH:12.000000;
#LASTBEATHINT:0.780000;
#SELECTABLE:YES;
#DISPLAYBPM:97.000000:195.000000;
#BPMS:0.000000=195.000000
,164.000000=97.500000
,172.000000=195.000000
,188.000000=97.500000
,196.000000=195.000000
,336.000000=390.000000
,344.000000=195.000000
;
#STOPS:
;
#BGCHANGES:;
#KEYSOUNDS:;
#ATTACKS:;

//---------------dance-single - ----------------
#NOTES:
     dance-single:
     :
     Hard:
     17:
     0.891375,1.006686,0.383839,0.455251,0.767679,699.000000,656.000000,43.000000,51.000000,0.000000,0.000000,0.891375,1.006686,0.383839,0.455251,0.767679,699.000000,656.000000,43.000000,51.000000,0.000000,0.000000:
0000
0000
0000
0000
,
0000
0000
0000
0000
,
0000
0000
0000
0000
,
0000
0000
0000
0000
,
0000
0000
0000
0000
,
0000
0000
0000
0000
,
0000
0000
0000
0000
,
0000
0000
0000
0000
,
0000
0000
0000
0000
,
1000
0010
1000
0010
0100
0001
0100
0001
,
1000
0100
1000
0010
0100
0010
0100
0001
,
0010
0001
0010
0001
1000
0100
1000
0100
,
0010
0001
1000
0010
0100
0001
1000
0100
,
0010
0001
1000
0010
1000
0001
0010
0100
,
1000
0010
1000
0010
0100
0001
0100
0001
,
1000
0100
1000
0000
0010
0000
1000
0000
0001
0100
0001
0000
0100
0000
0010
0000
,
1000
0000
0010
0000
1000
0000
0001
0000
1000
0000
0001
0000
0100
0000
0000
0010
0000
0000
1000
0000
0000
0001
0000
0000
,
1001
0000
1000
1100
0000
0000
0010
0000
,
0101
0000
1000
1001
0000
0010
0110
0000
,
1001
0000
1000
1100
0000
0000
0110
0000
,
1001
0000
0000
1001
0000
0000
0100
0000
0220
0000
0000
0000
0330
0000
0000
0000
,
1010
0000
0000
0000
1000
0100
1000
0000
1010
0000
0000
0000
0010
1000
0010
0000
,
1010
0000
0000
0000
0001
1000
0001
0000
1001
0000
0000
0000
0001
1000
0100
0000
,
1000
0010
1000
0000
0001
0100
0001
0000
1000
0100
1000
0000
0001
0010
0001
0000
,
2000
3002
0203
0310
,
1000
0000
0001
0000
1000
0000
0100
1000
0100
0000
1000
0000
0001
0100
0001
0100
,
0010
1000
0001
0100
0220
0330
2002
3003
,
1000
0001
2002
3003
0020
0030
0100
0200
,
0302
0000
1000
0000
1003
0000
0000
0000
0020
0000
1000
0000
1030
0001
1000
0001
,
2000
0000
0010
0000
3010
0000
0000
0000
1001
0000
0000
0000
1000
0010
1000
0010
,
0100
0001
1000
0010
0220
0330
2002
3003
,
0001
0000
0100
0000
0020
0000
0000
0000
1030
0010
0100
0001
1000
0000
0010
0000
,
2020
0030
0002
3003
0202
0300
2000
3003
,
1000
0010
1000
0000
0001
0100
0001
0000
1000
0001
1000
0000
0010
0100
0010
0100
,
0010
0000
1000
0000
0001
0010
0001
0000
1000
0100
1000
0000
0010
0100
0010
0000
,
1000
0001
1000
0000
0001
0010
0001
0000
1000
0010
1000
0000
0001
0100
0001
0100
,
0020
0100
0130
0000
0002
1000
1003
0000
,
0020
0000
1000
0000
1030
0000
0001
0000
1000
0001
1000
0000
0010
1000
0010
0000
,
0100
0001
0100
0000
1000
0001
1000
0000
0001
0010
0001
0000
1000
0100
1000
0100
,
1000
0000
0010
0000
0100
0000
0001
0000
1000
0001
1000
0010
1000
0000
0001
0000
,
0200
0010
0010
0320
1000
1000
1030
0000
,
1000
0001
1000
0010
2000
0000
3001
0010
0100
0010
0001
0000
1000
0001
0100
0001
,
1000
0000
0010
1000
0000
0010
1000
0000
0001
0010
0001
0000
1000
0010
2000
0000
,
3001
0100
0001
0100
0010
1000
0010
1000
,
0001
0010
0100
1000
0010
0100
0001
1000
,
0001
0010
0100
1000
0010
0100
0010
0100
,
0001
1000
0010
0100
0001
1000
0100
1000
,
0020
0000
1030
0010
1000
0100
1000
0010
0100
0001
0100
0010
0100
0001
1000
0010
,
0200
0000
0000
0000
0302
0000
0000
0000
2003
0000
0000
0000
3001
0010
0100
1000
,
0020
0000
0130
0001
1000
0001
1000
0100
,
0010
0001
1000
0001
1000
0010
0100
0001
,
1000
0100
1000
0100
0010
0001
0010
0001
,
1000
0010
0100
0001
1000
0001
0100
0000
,
0001
0010
0001
0100
0000
0010
1000
0010
1000
0100
0000
1000
,
0010
0100
0001
1000
0000
0001
0010
0001
0100
0001
0000
1000
,
0001
1000
0010
1000
0000
0001
1000
0001
0010
0001
0000
1000
,
0100
0010
0001
0100
0000
0001
0100
0000
1000
0001
1000
0001
,
1000
0001
1000
0001
1000
0000
0010
0000
0100
0001
0100
0001
0100
0000
0010
0000
,
1000
0010
1000
0010
1000
0000
0100
0000
0001
0100
0001
0100
0001
0000
1000
0000
,
0001
0100
0010
1000
0001
1000
0001
1000
,
0020
2030
3200
0302
,
1003
0100
0000
0100
1000
0000
0001
0100
0000
0100
0000
0100
0010
0000
1000
0000
,
0001
0100
0000
0100
0010
0000
1000
0001
0000
0001
0000
0001
0100
0000
0010
0000
,
1000
0000
0100
1000
0000
0100
1000
0000
0001
0000
1000
0001
0000
1000
0001
0000
,
0100
0000
0001
0100
0000
0001
0100
0000
0010
0000
1000
0010
1000
0000
0010
0000
,
1000
0001
0000
1000
0010
0000
1000
0100
0000
1000
0000
0001
1000
0000
0010
0000
,
0100
0001
0000
0010
0001
0000
0100
0001
0000
1000
0000
0001
1000
0000
0010
0000
,
1000
0000
0001
1000
0000
0001
1000
0000
0010
0000
0100
0010
0000
0100
0010
0000
,
1000
0001
1000
0000
0001
1000
0001
0000
1001
0000
0000
1100
0000
0000
1000
0000
,
0001
0100
0000
0100
0001
0000
1000
0010
0000
0010
0000
0010
1000
0000
0001
0000
,
1000
0100
0000
0100
1000
0000
0001
0100
0000
0100
0000
0100
0010
0100
0010
0100
,
0010
0000
1000
0001
1000
0000
0001
1000
0001
0000
1000
0100
1000
0000
0001
0100
,
0010
0000
1000
0000
0001
0000
0100
0000
0010
1000
0010
1000
0001
0100
0001
0100
,
0010
0000
0000
1010
0000
0000
1001
0000
0001
0000
0000
0101
0000
0000
1001
0000
,
1000
0000
0000
1010
0000
0000
0110
0000
0100
0000
0000
1001
0000
0000
1010
0000
,
1000
0010
0100
0001
1000
0100
0010
0001
,
1000
0010
1000
0010
0100
0001
0100
0001
1000
0001
1000
0001
0100
0010
0100
0010
,
1000
0000
0001
1001
0000
0000
0020
0000
,
1030
0000
0001
0101
0000
1000
1100
0000
,
0110
0000
0001
0101
0000
0000
1010
0000
,
0100
0000
0000
1000
0000
0000
0001
0000
0200
0000
0000
0000
0300
0000
0000
0000
,
1001
0000
0001
0100
0110
0000
1000
0001
,
0100
0000
0001
0000
0100
0000
0001
0000
1000
0010
1000
0000
0010
1000
0010
0000
,
0100
0001
0100
0000
0010
1000
0010
0000
0100
0001
0100
0001
0100
0001
0100
0002
,
2000
0000
0000
0000
,
0000
0000
0000
3003
,
0220
0330
0001
2002
0000
0000
3003
0000
;

//---------------dance-double - ----------------
#NOTES:
     dance-double:
     :
     Hard:
     17:
     0.814862,0.963783,0.241015,0.249942,0.607002,639.000000,612.000000,27.000000,28.000000,0.000000,0.000000,0.814862,0.963783,0.241015,0.249942,0.607002,639.000000,612.000000,27.000000,28.000000,0.000000,0.000000:
// measure 0
00000000
00000000
00000000
00000000
,  // measure 1
00000000
00000000
00000000
00000000
,  // measure 2
00000000
00000000
00000000
00000000
,  // measure 3
00000000
00000000
00000000
00000000
,  // measure 4
00000000
00000000
00000000
00000000
,  // measure 5
00000000
00000000
00000000
00000000
,  // measure 6
00000000
00000000
00000000
00000000
,  // measure 7
00000000
00000000
00000000
00000000
,  // measure 8
00000000
00000000
00000000
00000000
,  // measure 9
10000000
00010000
10000000
00010000
10000000
01000000
00100000
00010000
,  // measure 10
01000000
00010000
01000000
00010000
00100000
00001000
00010000
00000100
,  // measure 11
00001000
00000010
00001000
00000010
00001000
00000100
00000010
00000001
,  // measure 12
00001000
00000100
00001000
00000100
00010000
00001000
00100000
00010000
,  // measure 13
10000000
01000000
00100000
00010000
01000000
00010000
00100000
00001000
,  // measure 14
00010000
00001000
00010000
00001000
00010000
00000100
00001000
00000010
,  // measure 15
00001000
00000001
00001000
00000001
00001000
00000100
00010000
00001000
,  // measure 16
01000000
00010000
01000000
00010000
10000000
01000000
00100000
00010000
,  // measure 17
10010000
00000000
00000000
00011000
00000000
00000000
00002000
00000000
,  // measure 18
00003001
00000000
00000000
00001001
00000000
00001000
00001100
00000000
,  // measure 19
00001001
00000000
00000000
00011000
00000000
00000000
20000000
00000000
,  // measure 20
30010000
00000000
00000000
10010000
00000000
00000000
10010000
00000000
20000000
00000000
00000000
00000000
00000000
00000000
00000000
00000000
,  // measure 21
30100000
00000000
10000000
01000000
00110000
00000000
00100000
00001000
,  // measure 22
00011000
00000000
00010000
00000100
00001100
00000000
00001000
00000010
,  // measure 23
00001000
00000010
00001000
00000000
00000001
00000100
00000001
00000000
00001000
00000100
00001000
00000000
00000100
00010000
00001000
00000000
,  // measure 24
00020000
00032000
02003000
03100000
,  // measure 25
10000000
00000000
00010000
00000000
01000000
00000000
00010000
10000000
00010000
00000000
01000000
00000000
00001000
01000000
00001000
01000000
,  // measure 26
00001000
00010000
00000100
00001000
00000010
00000000
00002010
00000000
,  // measure 27
00003001
00000000
00002100
00000000
00003100
00010000
00001000
00001000
,  // measure 28
00200000
00010000
00310000
00000000
20000000
01000000
31000000
00000000
,  // measure 29
20010000
00000000
00000000
00000000
30100000
00000000
01000000
00100000
01000000
00000000
00010000
00000000
10000000
00100000
10000000
00100000
,  // measure 30
01000000
00010000
00100000
00000000
00002000
00000000
00023000
00000000
,  // measure 31
00030100
00000000
00001000
00000001
00001000
00000000
00000010
00000000
00001000
00000100
00001000
00000100
00001000
00000000
00000001
00000000
,  // measure 32
00000200
00000320
00020030
00032000
,  // measure 33
00103000
00000000
00010000
00000000
10000000
00100000
10000000
00000000
00010000
00000000
00100000
00000000
00001000
00010000
00001000
00000000
,  // measure 34
00010000
00000000
00000100
00000000
00001000
00000010
00001000
00000000
00000001
00000000
00000100
00000000
00000010
00000000
00001000
00000000
,  // measure 35
00000100
00000000
00010000
00000000
00001000
00010000
00001000
00000000
00100000
00000000
00010000
00000000
01000000
00010000
01000000
00000000
,  // measure 36
00100000
00000000
10000000
00000000
00100000
10000000
00100000
00000000
01000000
00000000
00010000
00000000
00100000
00000000
00001000
00000000
,  // measure 37
00010000
00000000
00000100
00000000
00010000
00000100
00010000
00000000
00000100
00000000
00001000
00000000
00000010
00001000
00000010
00000000
,  // measure 38
00001000
00000000
00000001
00000000
00000100
00000001
00000100
00000000
00000010
00001000
00000010
00000000
00000100
00001000
00000100
00000000
,  // measure 39
00010000
00000000
00001000
00000000
00100000
00000000
00010000
00000000
01000000
00100000
01000000
00100000
01000000
00000000
00010000
00000000
,  // measure 40
20000000
00000000
30100000
00000000
01000000
00010000
00100000
00001000
,  // measure 41
00020000
00000000
00000000
00000000
00030100
00001000
00000010
00000100
00000002
00000000
00000003
00001000
00000010
00001000
00000100
00010000
,  // measure 42
00001000
00000000
00000000
00100000
00000000
00000000
00010000
00000000
20000000
00000000
00000000
30100000
01000000
00000000
00010000
00000000
,  // measure 43
00100000
00001000
00010000
00000100
00001000
00000001
00001000
00000100
,  // measure 44
00010000
00001000
00100000
00010000
10000000
01000000
00100000
00010000
,  // measure 45
00100000
00001000
00010000
00000100
00001000
00000010
00000100
00000001
,  // measure 46
00001000
00000100
00010000
00001000
01000000
00010000
10000000
00100000
,  // measure 47
02000000
00000000
00000000
03010000
10000000
00000000
10000000
00100000
00000000
00100000
00000000
01000000
00010000
00000000
00100000
00001000
,  // measure 48
00010000
00000000
00000000
00000100
00000000
00000000
00001000
00000000
00000001
00000100
00000010
00001000
00000100
00000000
00010000
00000000
,  // measure 49
00001000
00100000
00010000
00100000
00001000
00100000
00010000
01000000
,  // measure 50
00100000
10000000
00100000
10000000
00010000
01000000
00010000
00100000
,  // measure 51
00001000
00010000
00000100
00001000
00000001
00001000
00000100
00000010
,  // measure 52
00000001
00001000
00000100
00010000
00001000
00100000
00010000
00000000
,  // measure 53
10000000
00100000
10000000
00100000
00000000
01000000
00010000
00100000
00010000
01000000
00000000
00010000
,  // measure 54
00100000
00001000
00100000
00010000
00000000
00100000
00001000
00010000
00001000
00010000
00000000
00000100
,  // measure 55
00001000
00000010
00001000
00000100
00000000
00001000
00000100
00000010
00000001
00000100
00000000
00000010
,  // measure 56
00001000
00000100
00001000
00000010
00000000
00001000
00000100
00000000
00010000
00001000
00010000
00001000
,  // measure 57
00010000
00000000
00001000
00010000
00001000
00000000
00100000
00000000
00010000
00000000
10000000
00010000
10000000
00000000
00100000
00000000
,  // measure 58
01000000
00000000
00010000
00100000
00010000
00000000
00100000
00000000
00001000
00000000
00010000
00000100
00010000
00000000
00000100
00000000
,  // measure 59
00001000
00000010
00001000
00000000
00000001
00000100
00000001
00000000
00001000
00000100
00001000
00000000
00000100
00010000
00000100
00000000
,  // measure 60
00010000
00001000
01000000
00100000
10000000
01000000
00010000
00000000
,  // measure 61
00100000
00001000
00000000
00001000
00010000
00000000
00010000
00000100
00000000
00001000
00000000
00000010
00001000
00000000
00000001
00000000
,  // measure 62
00001000
00000100
00000000
00000100
00010000
00000000
00010000
00001000
00000000
00001000
00000000
00001000
00010000
00000000
00001000
00000000
,  // measure 63
00100000
00000000
00010000
01000000
00000000
00000000
00100000
00000000
00010000
00000000
10000000
01000000
00000000
00000000
00100000
00000000
,  // measure 64
00001000
00000000
00010000
00001000
00000000
00000000
00010000
00000000
00000100
00000000
00001000
00000010
00000000
00000000
00000100
00000000
,  // measure 65
00000001
00000100
00000000
00000100
00000001
00000000
00001000
00000010
00000000
00000010
00000000
00000010
00001000
00000000
00000100
00000000
,  // measure 66
00010000
00001000
00000000
00001000
00010000
00000000
00001000
00100000
00000000
00100000
00000000
00100000
00010000
00000000
01000000
00000000
,  // measure 67
00100000
00000000
00000000
10000000
00000000
00000000
00010000
00000000
01000000
00000000
00000000
00001000
00000000
00000000
00010000
00000000
,  // measure 68
00000100
00000000
00001000
00000000
00000001
00000000
00001000
00000000
00000010
00000000
00000000
00001001
00000000
00000000
00000100
00000000
,  // measure 69
00001000
00000100
00000000
00000100
00001000
00000000
00000001
00000100
00000000
00000100
00000000
00000100
00000001
00000000
00001000
00000000
,  // measure 70
00000100
00010000
00000000
00010000
00000100
00000000
00010000
00001000
00000000
00001000
00000000
00001000
00010000
00000000
00001000
00000000
,  // measure 71
00100000
00000000
00010000
00000000
10000000
00100000
10000000
00100000
10000000
00000000
00010000
00000000
00100000
00001000
00100000
00001000
,  // measure 72
00100000
00000000
00001000
00000000
00010000
00000000
00000100
00000000
00001000
00000010
00001000
00000010
00001000
00000000
00000001
00000000
,  // measure 73
00001001
00000000
00000000
00001100
00000000
00000000
00000100
00000000
00010000
00000000
00000000
00011000
00000000
00000000
00001000
00000000
,  // measure 74
00100000
00000000
00000000
00110000
00000000
00000000
01000000
00000000
00100000
00000000
00000000
10010000
00000000
00000000
10000000
00000000
,  // measure 75
00010000
01000000
00010000
00100000
00001000
00010000
00000100
00001000
,  // measure 76
00000001
00001000
00000001
00001000
00000010
00001000
00000010
00001000
00000001
00000100
00000010
00001000
00000100
00000000
00000000
00000000
,  // measure 77
00011000
00000000
00100000
00010000
00000000
00000000
20000000
00000000
,  // measure 78
31000000
00000000
00100000
00001000
00000000
00000000
00020000
00000000
,  // measure 79
00030010
00000000
00001000
00001001
00000000
00000000
00000110
00000000
,  // measure 80
00001001
00000000
00000000
00001001
00000000
00000000
00000020
00000000
00000200
00000000
00000000
00000000
00000330
00000000
00000000
00000000
,  // measure 81
00000001
00000100
00000010
00000000
00010000
00001000
00100000
00000000
,  // measure 82
00010000
10000000
00010000
00100000
00001000
00010000
00000010
00010000
,  // measure 83
00001000
00000010
00001000
00000010
00000100
00000001
00000100
00000001
00001000
00000100
00001000
00000100
00010000
00001000
00010000
00002000
,  // measure 84
00020000
00000000
00000000
00000000
,  // measure 85
00000000
00000000
00033000
00000000
,  // measure 86
01100000
00000000
00000000
10010000
00000000
00000000
00000000
00000000
;

//---------------dance-double - ----------------
#NOTES:
     dance-double:
     :
     Medium:
     12:
     0.521563,0.616821,0.223162,0.357060,0.035706,409.000000,384.000000,25.000000,40.000000,0.000000,0.000000,0.521563,0.616821,0.223162,0.357060,0.035706,409.000000,384.000000,25.000000,40.000000,0.000000,0.000000:
00000000
00000000
00000000
00000000
,
00000000
00000000
00000000
00000000
,
00000000
00000000
00000000
00000000
,
00000000
00000000
00000000
00000000
,
00000000
00000000
00000000
00000000
,
00000000
00000000
00000000
00000000
,
00000000
00000000
00000000
00000000
,
00000000
00000000
00000000
00000000
,
00000000
00000000
00000000
00000000
,
01000000
00000000
00100000
00000000
10000000
00010000
10000000
00000000
,
00010000
00000000
00100000
00000000
00001000
00010000
00001000
00000000
,
00010000
00000000
00000010
00000000
00001000
00000100
00000010
00000000
,
00000001
00000000
00000100
00000000
00000010
00001000
00000100
00000000
,
00010000
00000000
00001000
00000000
00100000
00010000
01000000
00000000
,
00100000
00000000
10000000
00000000
00010000
00100000
00001000
00000000
,
00010000
00000100
00001000
00000000
00000010
00001000
00000001
00000000
,
00001000
00000100
00010000
00000000
00001000
01000000
00010000
00000000
,
01000000
00000000
00000000
01100000
00000000
00000000
00000000
00000000
,
00001000
00000000
00000000
00011000
00000000
00000000
00000000
00000000
,
00000010
00000000
00000000
00000110
00000000
00000000
00000000
00000000
,
00001000
00000000
00000000
00001100
00000000
00000000
00001100
00000000
00000000
00000000
00000000
00000000
00000000
00000000
00000000
00000000
,
00010000
00000000
00001000
00100000
00010000
00000000
01000000
00100000
,
10000000
00000000
00010000
00100000
00001000
00000000
00010000
00000100
,
00001000
00000010
00001000
00000010
00000100
00000001
00000100
00000001
,
00002000
00003200
00020300
00031000
,
00100000
00000000
00010000
00000000
10000000
00010000
10000000
00010000
,
00100000
00000000
00001000
00000000
00010000
00000010
00010000
00000010
,
00001000
00000010
00001000
00000001
,
00001000
00000100
00001000
00000100
00010000
00001000
00010000
00001000
,
00100000
00000000
00010000
00000000
01000000
00100000
01000000
00100000
,
01000000
00000000
00010000
00000000
00100000
00010000
00100000
00010000
,
00100000
00001000
00010000
00000010
,
00001000
00000001
00001000
00000000
00000001
00001000
00000001
00000000
,
00002000
00000000
00003200
00000000
00010300
00001000
00010000
00001000
,
00200000
00000000
00320000
00000000
10030000
01000000
00100000
00010000
,
02000000
00000000
03002000
00000000
00013000
00001000
00010000
00001000
,
00020000
00000000
00030020
00000000
00001030
00000100
00000010
00000001
,
00002000
00000000
00003200
00000000
00010300
00001000
00100000
00001000
,
00010000
00000000
00002000
00000000
01003000
00010000
10000000
00010000
,
01000000
00000000
00010000
00000000
00100000
00001000
00100000
00000000
,
00002000
00000000
00020000
00033000
,
00011000
00000010
00001000
00000100
,
00000001
00000000
00000000
00000001
00000000
00000000
00000001
00000000
00001000
00000000
00000000
00000000
00000100
00000000
00000000
00000000
,
00010000
00000000
00001000
00000000
00100000
00010000
01000000
00010000
,
10000000
00000000
00010000
00000000
00100000
00001000
00100000
00001000
,
00010000
00000000
00000100
00000000
00001000
00000010
00001000
00000010
,
00000100
00000001
00000100
00000001
00001000
00000100
00010000
00000000
,
00002000
00000000
00100000
00000000
00103000
00000000
00010000
00000000
02000000
00000000
00000000
00010000
00000000
00000000
13000000
00000000
,
01000000
00110000
00001010
00000101
,
00002000
00000000
00003100
00000000
00010000
00001000
00010000
00001000
,
00200000
00000000
00310000
00000000
10000000
01000000
00100000
00010000
,
00100000
00002000
00023000
00030010
,
00001000
00000001
00001000
00000100
,
00020000
00030000
00001000
01000000
,
00200000
00300000
10000000
00010000
,
00200000
00300000
00001000
00010000
,
00000020
00000030
00001000
00000100
,
00001000
00000001
00001000
00000000
00001000
00000100
00010000
00000000
,
00001000
01000000
00010000
00000000
10000000
01000000
00100000
00010000
,
01000000
00000000
01000000
00001000
00010000
00000000
00000100
00001000
,
00000001
00001000
00000001
00001000
00000100
00010000
00001000
00000000
,
00010000
00000000
00001000
00000000
00100000
00010000
00100000
00000000
,
00100000
00010000
01000000
00000000
00100000
10000000
01000000
00000000
,
00100000
00110000
02020000
03030000
,
00001000
00011000
00020200
00030300
,
00001000
00000010
00000100
00000000
00000001
00001000
00000001
00000000
,
00001000
00000100
00010000
00000000
00001000
00010000
00001000
00000000
,
00022000
00033000
00220000
00330000
,
00100000
00000000
01000000
00000000
00100000
00000000
00000000
00000000
00010000
00000000
00000000
00010000
00000000
00000000
00010000
00000000
,
01000000
00000000
10010000
00000000
00100000
00001000
00010000
00000000
,
00001000
00000000
00010000
00000000
00000100
00001000
00000010
00000000
,
00000200
00000302
00002003
00003020
,
00001030
00000100
00001000
00000000
00000100
00010000
00000100
00000000
,
00010000
00000000
00000000
00010000
00000000
00000000
00001000
00000000
01000000
00000000
00000000
01000000
00000000
00000000
00010000
00000000
,
10000000
00000000
00000000
10000000
00000000
00000000
00010000
00000000
00100000
00000000
00000000
00100000
00000000
00000000
00001000
00000000
,
00010000
00000000
00000010
00000000
00001000
00000100
00000010
00000001
,
00001000
00000100
00010000
00001000
00100000
00010000
01000000
00100000
,
10000000
00000000
00000000
10100000
00000000
00000000
01010000
00000000
,
00001000
00000000
00000000
00011000
00000000
00000000
00001010
00000000
,
00000100
00000000
00000000
00001001
00000000
00000000
00001100
00000000
,
00000100
00000000
00000000
00011000
00000000
00000000
00001000
00000000
,
00100000
00010000
01000000
00000000
00100000
10000000
00100000
00000000
,
01000000
00010000
01000000
00000000
00001000
00000000
00010000
00000000
,
00000100
00001000
00000010
00001000
00000001
00001000
00000100
00020000
,
00002000
00000000
00000000
00000000
,
00000000
00000000
00033000
00000000
,
00011000
00000000
00000000
00011000
00000000
00000000
00000000
00000000
;

//---------------dance-single - ----------------
#NOTES:
     dance-single:
     :
     Medium:
     12:
     0.568745,0.655372,0.357060,0.294574,0.031243,446.000000,406.000000,40.000000,33.000000,0.000000,0.000000,0.568745,0.655372,0.357060,0.294574,0.031243,446.000000,406.000000,40.000000,33.000000,0.000000,0.000000:
0000
0000
0000
0000
,
0000
0000
0000
0000
,
0000
0000
0000
0000
,
0000
0000
0000
0000
,
0000
0000
0000
0000
,
0000
0000
0000
0000
,
0000
0000
0000
0000
,
0000
0000
0000
0000
,
0000
0000
0000
0000
,
1000
0000
0100
0000
0010
0001
0010
0000
,
0001
0000
0010
0000
0100
1000
0100
0000
,
0010
0000
0001
0000
0100
0010
0100
0000
,
0010
0000
1000
0000
0001
0100
0001
0000
,
1000
0010
1000
0010
1000
0010
1000
0000
,
0001
0100
0001
0100
0001
0100
0001
0000
,
1000
0010
1000
0000
0001
0100
0001
0000
,
1000
0100
1000
0100
1000
0100
1000
0000
,
0001
0000
0000
0110
0000
0000
0000
0000
,
1000
0000
0000
1001
0000
0000
0000
0000
,
0010
0000
0000
0110
0000
0000
0000
0000
,
1000
0000
0000
1100
0000
0000
1100
0000
0000
0000
0000
0000
0000
0000
0000
0000
,
0001
0000
1000
0010
0100
0000
0100
0010
,
1000
0000
0001
0010
0100
0000
1000
0010
,
1000
0010
1000
0010
0100
0001
0100
0001
,
2000
3200
0302
1003
,
0010
0000
0001
0000
1000
0001
1000
0001
,
0010
0000
1000
0000
0001
0010
0001
0010
,
0100
1000
0010
0001
,
1000
0100
1000
0100
0010
0001
0010
0001
,
1000
0000
0001
0000
0100
0010
0100
0010
,
0100
0000
0001
0000
0010
0001
0010
0001
,
0010
0000
1001
0000
0100
0010
0100
0010
,
1000
0001
0100
0000
0001
1000
0001
0000
,
2000
0000
3200
0000
0301
1000
0001
1000
,
0020
0000
0032
0000
1003
0100
0010
0001
,
0200
0000
2300
0000
3001
1000
0001
1000
,
0002
0000
0023
0000
1030
0100
0010
0001
,
2000
0000
3200
0000
0301
1000
0010
1000
,
0002
0000
2003
0000
3001
1000
0010
1000
,
0001
0000
1000
0000
0010
1000
0010
0000
,
2000
0000
0002
3003
,
1001
0010
1000
0100
,
0001
0000
0000
0001
0000
0000
0001
0000
1000
0000
0000
0000
0100
0000
0000
0000
,
0001
0000
1000
0000
0010
0001
0100
0001
,
1000
0000
0001
0000
0010
1000
0010
1000
,
0001
0000
0100
0000
1000
0010
1000
0010
,
0100
0001
0100
0001
1000
0100
0010
0001
,
2000
0000
0010
0000
3010
0000
0001
0000
0200
0000
0000
0001
0000
0000
0310
0000
,
0100
1010
0110
0101
,
2000
0000
3100
0000
0001
1000
0001
1000
,
0020
0000
1030
0000
0001
0010
0100
1000
,
0100
0002
2003
3100
,
0001
1000
0001
0100
,
2002
3003
0010
0101
,
0220
0330
1000
0101
,
2020
3030
1001
0101
,
0220
0330
1001
0110
,
1000
0001
1000
0000
1000
0100
0010
0000
,
0100
0010
0001
0000
1000
0100
0010
0001
,
0100
0000
0010
0001
1000
0000
0100
0010
,
0001
1000
0001
1000
0100
0010
0001
0000
,
1000
0100
1000
0000
0001
0100
0001
0000
,
1000
0010
1000
0010
0100
0001
0100
0000
,
0001
0010
0001
0000
1000
0100
1000
0000
,
0010
0100
0010
0100
0001
1000
0001
0000
,
1000
0010
1000
0000
0001
0100
0001
0000
,
1000
0010
0100
0010
1000
0010
0100
0000
,
0001
0010
0001
0000
1000
0100
1000
0000
,
0010
0100
0010
0100
0001
1000
0001
0000
,
1000
0000
0100
0000
0001
0010
0100
1000
,
0001
0000
0100
0000
0010
1000
0100
0010
,
0001
0100
1010
0101
,
0001
0100
0010
1000
0010
0100
0001
0000
,
1001
0000
0000
1001
0000
0000
0000
0000
0110
0000
0000
0110
0000
0000
0000
0000
,
1010
0000
0000
1010
0000
0000
0000
0000
0011
0000
0000
0011
0000
0000
0000
0000
,
0001
0000
0010
0000
1000
0100
0010
0001
,
1000
0100
0010
0001
0010
0100
1000
0010
,
1000
0000
0000
1010
0000
0000
0101
0000
,
1000
0000
0000
1001
0000
0000
1010
0000
,
0100
0000
0000
1001
0000
0000
1100
0000
,
0100
0000
0000
1001
0000
0000
1000
0000
,
0010
1000
0100
0000
0010
0001
1000
0000
,
0100
0010
0001
0000
1000
0100
0010
0000
,
0001
1000
0010
1000
0001
1000
0100
0000
,
2002
0000
0000
0000
,
0000
0000
3003
0000
,
1001
0000
0000
1001
0000
0000
0000
0000
;

//---------------dance-double - ----------------
#NOTES:
     dance-double:
     :
     Easy:
     9:
     0.438674,0.578270,0.285648,0.294574,0.000000,344.000000,312.000000,32.000000,33.000000,0.000000,0.000000,0.438674,0.578270,0.285648,0.294574,0.000000,344.000000,312.000000,32.000000,33.000000,0.000000,0.000000:
00000000
00000000
00000000
00000000
,
00000000
00000000
00000000
00000000
,
00000000
00000000
00000000
00000000
,
00000000
00000000
00000000
00000000
,
00000000
00000000
00000000
00000000
,
00000000
00000000
00000000
00000000
,
00000000
00000000
00000000
00000000
,
00000000
00000000
00000000
00000000
,
00000000
00000000
00000000
00000000
,
00100000
00001000
00010000
00000010
,
00001000
00000001
00000100
00000010
,
00010000
00001000
00100000
00010000
,
10000000
00010000
10000000
00000000
00010000
10000000
00010000
00000000
,
10000000
00010000
00100000
00001000
,
00010000
00000010
00001000
00000001
,
00001000
00000100
00001000
00000000
00000100
00010000
00000100
00000000
,
00020000
00032000
00203000
00310000
,
01000000
00000000
00000000
10010000
00000000
00000000
00000000
00000000
,
00100000
00000000
00000000
00110000
00000000
00000000
00000000
00000000
,
00010000
00000000
00000000
00011000
00000000
00000000
00000000
00000000
,
00001000
00000000
00000000
00001100
00000000
00000000
00000000
00000000
,
00000001
00001000
00000100
00010000
,
00001000
01000000
00010000
10000000
,
00100000
01000000
00100000
00000000
01000000
00100000
01000000
00000000
,
00020000
00000000
00000000
10030000
,
00100000
01000000
00001000
00010000
,
00000010
00000000
00000100
00000000
00000001
00001000
00000001
00000000
,
00000100
00000010
00010000
00001000
,
01000000
00000000
00100000
00000000
10000000
00010000
10000000
00000000
,
00100000
01000000
00001000
00010000
,
00000010
00001000
00000100
00000001
,
00000010
00001000
00000100
00010000
,
00002000
00000000
00103000
00010000
,
01000000
10010000
00100000
00001000
,
00010000
00000100
00001001
00000010
,
00001000
00000100
00010000
00011000
,
00100000
00010000
01000000
10010000
,
00100000
00000000
00001000
00000000
00010000
00000100
00010000
00000000
,
00000100
00001000
00000010
00001001
,
00000010
00001000
00000010
00000000
00000100
00000001
00000100
00000000
,
00000010
00001000
00000100
00000000
00010000
00000000
00001000
00000000
,
00200000
00320000
02030000
03200000
,
20300000
00000000
30020000
00230000
,
00301000
00010000
00000010
00001000
,
00000001
00000100
00000001
00000100
00000001
00000100
00000001
00000000
,
00000010
00001000
00000100
00010000
,
00001000
00010000
00001000
00010000
00001000
00010000
00001000
00000000
,
00200000
00320000
00030200
00002300
,
00003020
00000230
00000302
00002003
,
00003100
00000000
00010000
00000000
00001000
00000000
00100000
00010000
,
01000000
00100000
10000000
01000000
,
00010000
00100000
00001000
00010000
,
00000100
00001000
00000100
00001000
00000100
00001000
00000100
00000000
,
00000002
00000003
00002000
00003000
,
00020000
00030000
20000000
30000000
,
00100000
01010000
00100000
01010000
,
00001000
00011000
00010000
00011000
,
00000100
00000000
00001000
00000010
00000100
00000000
00000001
00000100
,
00000010
00000000
00001000
00000100
00010000
00000000
00001000
00100000
,
00010000
01010000
10100000
01010000
,
00200000
00000000
00000000
01300000
,
00001000
00000000
00010000
00000000
00000100
00001000
00000100
00000000
,
00010000
00000000
00001000
00000000
00100000
00010000
00100000
00000000
,
00001000
00010000
00000010
00001000
,
00000001
00000100
00000010
00001000
,
00000100
00000000
00010000
00000000
00001000
00010000
00001000
00000000
,
00100000
00000000
00010000
00000000
01000000
00100000
01000000
00000000
,
00010000
00100000
01000000
10000000
,
01100000
10010000
01100000
10010000
,
00100000
00001000
00010000
00000010
,
00001000
00000000
00000001
00000000
00000100
00000001
00000100
00000000
,
00002000
00003020
00020030
00031000
,
00200000
00320000
02030000
03100000
,
10000000
00000000
00000000
00100000
01000000
00000000
00000000
00001000
,
00010000
00000000
00000000
00000010
00000100
00000000
00001001
00000000
,
00000010
00001000
00000100
00000000
00000100
00010000
00001000
00000000
,
00001000
00100000
00010000
00000000
00010000
01000000
00100000
00000000
,
10010000
00000000
00000000
01100000
00000000
00000000
00000000
00000000
,
00110000
00000000
00000000
00101000
00000000
00000000
00000000
00000000
,
00011000
00000000
00000000
00010010
00000000
00000000
00000000
00000000
,
00000110
00000000
00000000
00001001
00000000
00000000
00000000
00000000
,
00000001
00000100
00001000
00010000
,
01000000
10000000
00100000
00010000
,
00001000
00000010
00000001
00000100
,
00022000
00000000
00000000
00000000
,
00000000
00000000
00033000
00000000
,
00011000
00000000
00000000
00011000
00000000
00000000
00000000
00000000
;

//---------------dance-single - ----------------
#NOTES:
     dance-single:
     :
     Easy:
     9:
     0.428472,0.539718,0.321354,0.437398,0.000000,336.000000,300.000000,36.000000,49.000000,0.000000,0.000000,0.428472,0.539718,0.321354,0.437398,0.000000,336.000000,300.000000,36.000000,49.000000,0.000000,0.000000:
0000
0000
0000
0000
,
0000
0000
0000
0000
,
0000
0000
0000
0000
,
0000
0000
0000
0000
,
0000
0000
0000
0000
,
0000
0000
0000
0000
,
0000
0000
0000
0000
,
0000
0000
0000
0000
,
0000
0000
0000
0000
,
1000
0100
0001
0010
,
0001
0100
1000
0010
,
0001
0100
0001
0010
,
1000
0001
1000
0000
0001
1000
0001
0000
,
1000
0100
0010
0001
,
1000
0010
0100
0001
,
1000
0100
1000
0000
0100
0001
0100
0000
,
0002
2003
3020
0130
,
1001
0000
0000
1001
0000
0000
0000
0000
,
0110
0000
0000
1001
0000
0000
0000
0000
,
1001
0000
0000
0110
0000
0000
0000
0000
,
0011
0000
0000
1100
0000
0000
0000
0000
,
1000
0001
1000
0000
0001
1000
0001
0000
,
0100
0010
0100
0000
0010
0100
0010
0000
,
2000
3200
0320
0230
,
0302
0000
0000
1003
,
0020
0000
1030
0000
0001
0100
0001
0000
,
1000
0100
1000
0000
0001
0000
0100
0000
,
0010
0000
0100
0000
0001
1000
0001
0000
,
1000
0001
1000
0000
0010
0000
0100
0000
,
0001
0000
1000
0000
0100
1000
0100
0000
,
1000
0000
0001
0000
0100
0001
0100
0000
,
0020
0030
0200
0300
,
0002
0000
0000
1003
,
0001
0100
1000
0100
,
0001
0000
0100
0000
1000
0000
0010
1000
,
0010
1000
0010
0001
,
0010
0000
1000
0000
0010
0000
0100
0010
,
0100
0001
0100
0010
,
1000
0000
0010
0000
0100
0000
0001
1000
,
0001
1000
0101
1000
,
0220
0000
0000
0330
,
2000
3002
0203
0320
,
2030
0000
3002
0023
,
0130
0001
0010
1000
,
0001
0100
0001
0100
0001
0100
0001
0000
,
0010
1000
0100
0001
,
1000
0001
1000
0001
1000
0001
1000
0000
,
0020
0032
0203
2300
,
3020
0230
0302
2003
,
3100
0000
0001
0000
0100
0000
0010
1000
,
0100
0010
0001
0100
,
0001
1000
0100
0010
,
0001
1000
0001
1000
0001
1000
0001
0000
,
2002
3003
2200
3300
,
0022
0033
2200
3300
,
0010
0101
0010
0101
,
1000
1001
0001
1001
,
0100
0000
1000
0010
0100
0000
0001
0100
,
0010
0000
1000
0100
0010
0000
0100
0010
,
0001
0100
1010
0101
,
0020
0000
0000
0130
,
0001
0000
1000
0000
0001
0000
0100
0010
,
0100
0000
0001
0000
1000
0000
0001
0100
,
0002
0003
2000
3000
,
0020
0000
0030
0200
0000
0000
0300
0000
,
0001
0100
1000
0010
,
0001
0100
0001
0010
,
2000
3000
0002
0003
,
0100
0010
0110
1001
,
0001
0100
0001
0000
1000
0000
0010
0000
,
1000
0010
1000
0000
0010
0000
0100
0000
,
0001
0100
0001
0000
1000
0001
1000
0000
,
0020
0230
0302
1003
,
0010
0000
1001
0000
,
1100
0000
0011
0000
,
0001
0100
1000
0010
,
0001
0100
0010
1000
,
0101
0000
0000
0101
0000
0000
0000
0000
,
1100
0000
0000
1100
0000
0000
0000
0000
,
0110
0000
0000
1001
0000
0000
0000
0000
,
1001
0000
0000
0110
0000
0000
0000
0000
,
1000
0010
0100
0001
,
1000
0001
1000
0000
0001
1000
0001
0000
,
0100
0010
1000
0001
,
2002
0000
0000
0000
,
0000
0000
3003
0000
,
1001
0000
0000
1001
0000
0000
0000
0000
;

//---------------dance-single - ----------------
#NOTES:
     dance-single:
     :
     Beginner:
     6:
     0.253768,0.385513,0.205309,0.133897,0.000000,199.000000,176.000000,23.000000,15.000000,0.000000,0.000000,0.253768,0.385513,0.205309,0.133897,0.000000,199.000000,176.000000,23.000000,15.000000,0.000000,0.000000:
0000
0000
0000
0000
,
0000
0000
0000
0000
,
0000
0000
0000
0000
,
0000
0000
0000
0000
,
0000
0000
0000
0000
,
0000
0000
0000
0000
,
0000
0000
0000
0000
,
0000
0000
0000
0000
,
0000
0000
0000
0000
,
0010
0000
1000
0000
,
0100
0000
0001
0000
,
0010
0000
0001
0000
,
0100
0000
1000
0000
,
0001
1000
0001
0000
,
1000
0001
1000
0000
,
0010
0000
0100
0000
,
0020
0000
0030
0000
,
0001
0000
0000
0000
,
1000
0000
0000
0000
,
0010
0000
0000
0000
,
0100
0000
0000
0000
,
1001
0000
0110
0000
,
1001
0000
0110
0000
,
1000
0100
0010
0001
,
0200
0000
0000
0300
,
0001
0000
1000
0000
,
0010
0000
0100
0000
,
0001
0000
1000
0000
,
0010
0010
0010
0010
,
0010
0000
1000
0000
,
0001
0000
0100
0000
,
0010
0000
1001
0000
,
0010
0010
0020
0030
,
1000
0001
1000
0000
,
0001
1000
0001
0000
,
0100
0010
0100
0000
,
0010
0100
0010
0000
,
1000
0100
1000
0000
,
0001
0100
0001
0000
,
1000
0100
1000
0000
,
0002
0000
2003
0000
,
3010
0100
0010
0100
,
0010
0000
0100
0000
,
0001
0000
0001
0000
,
0001
0000
0001
0000
,
1000
0000
1000
0000
,
1000
1000
1000
0000
,
0020
0030
0200
0300
,
0001
0001
1000
1000
,
0000
0010
0010
0100
,
0000
0100
0100
0010
,
0000
1000
0000
0001
,
0000
1000
0001
1000
,
0001
0000
0000
0000
,
1000
0000
0000
0000
,
0110
0000
0000
0000
,
1001
0000
1001
0000
,
1000
0100
0010
0001
,
1000
0100
0010
0001
,
1000
1000
0001
0001
,
2002
0000
0000
3003
,
0010
0000
0010
0000
,
0100
0000
0100
0000
,
0001
1000
0001
0000
,
1000
0001
1000
0000
,
0010
0000
0110
0000
,
0100
0000
0110
0000
,
0001
0000
1000
0000
,
0001
1000
0001
0000
,
1000
0000
1001
0000
,
0001
0000
1001
0000
,
0010
0100
0010
0000
,
0100
0010
0100
0000
,
0002
0003
2000
3000
,
0020
0030
0200
0300
,
0001
0100
0001
0000
,
1000
0100
1000
0000
,
1001
0000
0000
0000
,
0110
0000
0000
0000
,
1001
0000
0000
0000
,
0110
0000
0110
0000
,
0001
0000
1001
0000
,
1000
0000
1001
0000
,
0001
1000
0001
0000
,
2002
0000
0000
0000
,
3003
0000
0000
0000
,
1001
0000
0000
1001
0000
0000
0000
0000
;
