#TITLE:Poseidon;
#SUBTITLE:("VOLTAGE" Special);
#ARTIST:NAOKI underground;
#TITLETRANSLIT:;
#SUBTITLETRANSLIT:;
#ARTISTTRANSLIT:;
#GENRE:;
#CREDIT:;
#BANNER:Poseidon (VOLTAGE Special).png;
#BACKGROUND:Poseidon (VOLTAGE Special)-bg.png;
#LYRICSPATH:;
#CDTITLE:;
#MUSIC:Poseidon (VOLTAGE Special).ogg;
#OFFSET:0.000000;
#SAMPLESTART:1.610000;
#SAMPLELENGTH:15.000000;
#SELECTABLE:YES;
#DISPLAYBPM:75.000000:300.000000;
#BPMS:0.000000=150.000000
,100.000000=300.000000
,164.000000=75.000000
,180.000000=150.000000
,212.000000=300.000000
;
#STOPS:100.000000=1.600000,
180.000000=1.600000
;
#BGCHANGES:;
#KEYSOUNDS:;
#ATTACKS:;

//---------------dance-single - ----------------
#NOTES:
     dance-single:
     :
     Challenge:
     14:
     0.629597,1.034368,0.429969,0.302933,0.400653,451.000000,407.000000,44.000000,31.000000,0.000000,0.000000,0.629597,1.034368,0.429969,0.302933,0.400653,451.000000,407.000000,44.000000,31.000000,0.000000,0.000000:
// measure 0
0000
0000
0000
0000
,  // measure 1
0000
0000
0000
0000
,  // measure 2
0000
0000
0000
0000
,  // measure 3
0020
1000
1000
1000
,  // measure 4
1000
1000
1000
1030
,  // measure 5
0001
0100
0001
0000
1000
0010
1000
0000
,  // measure 6
0001
0010
0001
0000
1000
0100
1000
0000
,  // measure 7
0010
0001
0100
0000
0010
1000
0100
0000
,  // measure 8
0001
0100
1000
0100
0001
0100
1000
0000
,  // measure 9
1001
0000
0000
0001
0000
0000
0100
0010
0100
0000
0000
0001
0000
0000
1000
0000
,  // measure 10
0001
0000
0000
0001
0000
0000
1000
0010
1000
0000
0000
0001
0000
0000
0000
0000
,  // measure 11
0100
0000
0000
0100
0000
0000
1000
0010
1000
0000
0000
1000
0000
0000
0001
0000
,  // measure 12
0100
0000
0000
0100
0000
0000
0010
1000
0010
0000
0000
0010
0000
0000
0000
0000
,  // measure 13
1000
0000
0000
1000
0000
0000
0001
0100
0001
0000
0000
0001
0000
0000
1000
0000
,  // measure 14
0010
0000
0000
0010
0000
1000
0010
1000
0000
0010
0000
0000
0000
0000
0000
0000
,  // measure 15
0100
0000
0000
0100
0000
0000
0001
0100
0001
0000
0000
0001
0000
0000
0100
0000
,  // measure 16
0010
0000
0000
0010
0000
0000
1000
0010
1000
0000
0000
0010
0000
0000
0100
0000
,  // measure 17
0001
0000
0000
1001
0000
0000
0001
1000
0001
0000
0000
1001
0000
0000
0100
0000
,  // measure 18
0010
0000
0000
0110
0000
0000
0010
1000
0010
0000
0000
0110
0000
0000
0000
0000
,  // measure 19
0100
0000
0000
0101
0000
0000
0100
0010
0100
0000
0000
0101
0000
0000
0100
0000
,  // measure 20
0010
0000
0000
1010
0000
0000
0010
1000
0010
0000
0000
1001
0000
0000
0100
0000
,  // measure 21
0101
0000
0000
0101
0000
0000
0101
0000
0000
0000
0000
0000
0000
0000
1000
0000
,  // measure 22
1100
0000
0000
1100
0000
0000
1000
0000
1001
0000
0000
0000
0000
0000
0000
0000
,  // measure 23
0011
0000
0000
0011
0000
0000
0001
0000
0101
0000
0000
0101
0000
0000
0100
0000
,  // measure 24
0110
0000
0000
0110
0000
0000
0010
0000
1010
0000
0000
1010
0000
0000
1000
0000
,  // measure 25
0000
0002
0000
0000
0000
0000
0000
0000
0000
0000
0000
0000
0103
0000
0000
0000
0000
0000
0001
0000
0000
0000
0000
0000
0000
0000
0000
0000
0000
0000
1000
0000
0000
0000
0000
0000
0001
0000
0000
0000
0000
0000
0100
0000
0000
0000
0000
0000
,  // measure 26
0001
0000
1000
0001
0000
1000
0010
0000
,  // measure 27
2000
0000
3001
0100
0000
0001
0100
0010
,  // measure 28
0200
0000
0301
1000
0000
0001
0010
0000
,  // measure 29
0002
0000
1003
0001
0000
1000
0100
1000
,  // measure 30
0020
0000
0130
0001
0000
1000
0001
0000
,  // measure 31
1001
0000
0000
1100
0000
0000
0101
0000
,  // measure 32
1000
0010
0100
0000
0001
0100
1000
0100
,  // measure 33
0001
0000
1000
0001
0000
1000
0010
0100
,  // measure 34
0020
0000
1030
0100
0000
1000
0001
0000
,  // measure 35
2000
0000
3001
0100
0000
0010
0100
0010
,  // measure 36
0200
0000
0301
1000
0000
0001
0010
0000
,  // measure 37
0002
0000
1003
0100
0000
1000
0001
1000
,  // measure 38
0002
0000
0103
0010
0000
1000
0001
0000
,  // measure 39
1001
0000
0000
1001
0000
0000
1100
0000
,  // measure 40
0001
0010
0001
0000
1000
0100
1000
0100
,  // measure 41
1000
0010
0001
0010
1000
0100
0001
0100
,  // measure 42
1000
0010
0001
0000
1000
0100
0001
0000
1000
0010
0001
0010
1000
0100
0010
0001
,  // measure 43
0200
0001
1000
0301
0020
1000
0001
1030
,  // measure 44
0100
0000
0001
0000
1000
0000
0001
0000
0010
0000
0001
0000
1000
0000
0001
0000
1000
0000
0100
0000
0010
0000
0001
0000
1000
0010
1000
0010
0001
0100
0001
0100
,  // measure 45
0002
0000
0000
1003
0000
0000
0010
1000
0020
0000
0000
0100
0000
0000
0130
0000
,  // measure 46
0002
0000
0000
0010
0000
0000
0013
0001
0020
0000
0000
1000
0000
0000
1030
0000
,  // measure 47
0002
0000
0000
0100
0000
0000
0103
0010
0200
0000
0000
0001
0000
0000
0301
0000
,  // measure 48
2001
0000
0000
0001
0000
0000
0100
0000
0200
0000
0000
0000
3300
0000
0101
0000
,  // measure 49
1002
0000
0000
0103
0000
0000
0100
0100
0002
0000
0000
1000
0000
0000
0103
0000
,  // measure 50
0020
0000
0000
1030
0000
0000
0001
0001
0200
0000
0000
0010
0000
0000
0301
0000
,  // measure 51
1000
0000
0000
1000
0000
0000
0010
0010
0200
0000
0000
0001
0000
0000
0010
0000
,  // measure 52
0302
0000
0000
1000
0000
0000
0010
0000
0020
0000
0000
0000
0033
0000
0000
0000
,  // measure 53
2000
0000
3010
0100
0000
0000
0001
1000
,  // measure 54
0100
0000
0001
0010
1000
0000
0001
0100
,  // measure 55
1000
0000
0001
0010
0000
0000
1000
0100
,  // measure 56
0001
0000
1000
0010
0001
0000
1000
0000
,  // measure 57
0010
0000
0100
0001
0000
1000
0001
0100
,  // measure 58
0001
0000
1000
0010
1000
0000
0101
0000
,  // measure 59
1001
0000
0000
1100
0000
0000
0011
0000
,  // measure 60
1000
0100
0001
0000
1000
0010
0100
0010
,  // measure 61
1000
0000
0001
0100
0010
0000
1000
0001
,  // measure 62
1000
1000
1000
0001
0100
0010
0100
0000
,  // measure 63
0001
0000
1000
0010
0100
0000
0001
1000
,  // measure 64
1000
1000
0010
1000
0010
0100
0010
0000
,  // measure 65
1100
0000
0000
0011
0000
0000
0100
0010
,  // measure 66
0110
0000
0000
0101
0000
0000
1000
0000
,  // measure 67
0101
0000
0000
1001
0000
0000
1010
0000
,  // measure 68
0001
0010
0100
1000
0001
0100
0010
1000
,  // measure 69
2002
0000
0000
0000
,  // measure 70
0000
0000
0000
0000
,  // measure 71
0000
0000
0000
0000
,  // measure 72
0000
0000
0000
0000
,  // measure 73
3003
0000
0000
0000
;

//---------------dance-double - ----------------
#NOTES:
     dance-double:
     :
     Challenge:
     15:
     0.577945,1.141372,0.439741,0.195440,0.293161,414.000000,369.000000,45.000000,20.000000,0.000000,0.000000,0.577945,1.141372,0.439741,0.195440,0.293161,414.000000,369.000000,45.000000,20.000000,0.000000,0.000000:
00000000
00000000
00000000
00000000
,
00000000
00000000
00000000
00000000
,
00000000
00000000
00000000
00000000
,
00000000
00000000
00000000
00000000
,
00000000
00000000
00000000
00000000
,
10000000
00010000
00001000
00000001
,
00000001
00001000
00010000
10000000
,
10000000
00100000
00001000
00000010
,
00000001
00000100
00010000
01000000
,
10010000
00000000
00000000
00000000
00000000
00000000
00100000
01000000
00100000
00000000
00000000
00000000
00000000
00000000
00000000
00000000
,
00011000
00000000
00000000
00000000
00000000
00000000
00001000
00010000
00001000
00000000
00000000
00000000
00000000
00000000
00000000
00000000
,
00001001
00000000
00000000
00000000
00000000
00000000
00001000
00000001
00001000
00000000
00000000
00000000
00000000
00000000
00000000
00000000
,
00011000
00000000
00000000
00000000
00000000
00000000
00001000
00010000
00001000
00000000
00000000
00000000
00000000
00000000
00000000
00000000
,
10010000
00000000
00000000
00000000
00000000
00000000
10000000
01000000
00100000
00000000
00000000
00000000
00000000
00000000
00000000
00000000
,
00011000
00000000
00000000
00000000
00000000
00000000
00001000
00000100
00000010
00000000
00000000
00000000
00000000
00000000
00000000
00000000
,
00000001
00000000
00000000
00000001
00000000
00000000
00001000
00000100
00000010
00000000
00000000
00000010
00000000
00000000
00010000
00000100
,
00001000
00000000
00000000
00001000
00000000
00000000
00000100
00010000
00001000
00000000
00000000
00001000
00000000
00000000
00100000
00000000
,
00010000
00000000
00000000
00010000
00000000
00000000
01000000
00000000
00100000
00000000
00000000
00100000
00000000
00000000
10000000
00000000
,
00010000
00000000
00000000
00010000
00000000
00000000
00100000
00000000
00001000
00000000
00000000
00001000
00000000
00000000
00010000
00000000
,
00000010
00000000
00000000
00000010
00000000
00000000
00001000
00000000
00000001
00000000
00000000
00000001
00000000
00000000
00001000
00000000
,
00000100
00000000
00000000
00000100
00000000
00000000
00010000
00000000
00001000
00000000
00000000
00001000
00000000
00000000
01000000
00000000
,
01001000
00000000
00000000
01010000
00000000
00000000
01001000
00000000
00000000
00000000
00000000
00000000
00000000
00000000
00010000
00000000
,
00010010
00000000
00000000
00001010
00000000
00000000
00010010
00000000
00010010
00000000
00000000
00000000
00000000
00000000
00000010
00000000
,
00001001
00000000
00000000
00001100
00000000
00000000
00000000
00000000
00011000
00000000
00000000
01001000
00000000
00000000
00000000
00000000
,
10010000
00000000
00000000
00110000
00000000
00000000
00000000
00000000
00001100
00000000
00000000
00001010
00000000
00000001
00001000
00000100
,
00000000
00020000
00000000
00000000
00000000
00000000
00000000
00000000
00000000
00000000
00000000
00000000
00000000
00000000
00000000
00000000
00000000
00000000
00031000
00000000
00000000
00000000
00000000
00000000
00000000
00000000
00000000
00000000
00000000
00000000
00001000
00000000
00000000
00000000
00000000
00000000
01000000
00000000
00000000
00000000
00000000
00000000
00010000
00000000
00000000
00000000
00000000
00000000
,
10000000
00000000
10000000
00010000
00000000
00010000
00100000
00010000
,
01000000
00000000
01000000
00001000
00000000
00001000
00010000
00001000
,
01000000
00000000
01000000
00001000
00000000
00001000
00010000
00000000
,
00000010
00000000
00010000
00001000
00000000
00010000
00000100
00001000
,
00000001
00000000
00001000
00000100
00000000
00010000
00001000
00000000
,
01001000
00000000
00000000
00011000
00000000
00000000
10000000
00000000
,
10010000
00000000
00100000
10000000
01000000
10000000
00010000
00000000
,
10010000
00000000
10000000
00010000
00000000
01000000
00001000
00100000
,
00001000
00000000
00010000
00000010
00000000
00010000
00000100
00010000
,
00000010
00000000
00001000
00000001
00000000
00001000
00000100
00001000
,
00000010
00000000
00010000
00000100
00000000
00000000
00010000
00000000
,
00001000
00000000
01000000
00001000
00000000
00010000
00001000
00000000
,
00100000
00000000
00001000
01000000
00000000
00010000
01000000
00000000
,
00010000
00000000
10000000
01000000
00000000
10000000
00100000
00000000
,
10010000
00000000
11000000
00000000
00010000
00100000
01000000
10000000
,
00200000
20300000
30200000
00320000
00032000
00003020
00000032
00000203
,
00020300
02030000
23000000
30200000
00302000
02003000
23000000
30200000
,
00310000
00100000
10000000
00100000
00010000
00100000
10000000
00000000
00001000
00100000
01000000
00100000
00001000
00100000
01000000
00000000
,
00010000
00000000
00000100
00000000
00000010
00000000
00000100
00000000
00010000
00000000
00000100
00000000
00000010
00000000
00000000
00000000
00001000
00000000
00000100
00000000
00000001
00000000
00000100
00000000
00001000
00000000
00000001
00000010
00000100
00001000
00000010
00000100
,
00000000
20000000
00000000
00000000
00000000
00000000
00000000
00000000
00000000
30010000
00000000
00000000
00000000
00000000
00000000
00000000
00000000
00000000
00100000
00000000
00000000
00001000
00000000
00000000
00100000
00000000
00000000
00000000
00000000
00000000
00000000
00000000
00000000
00000000
00000000
00000000
00000010
00000000
00000000
00000000
00000000
00000000
00000000
00000000
00000000
00000000
00000000
00000000
,
00010000
00000001
00000100
01000000
,
00100000
00000000
00000000
00100000
00000000
00000000
10000000
01000000
00010000
00000000
00000000
00000000
10000000
00000000
00000000
00000000
,
00001000
00010000
00000001
00000100
,
00001001
00000000
00000000
00001001
00000000
00000000
00001000
00000010
00000001
00000000
00000000
00001000
00000000
00000000
00000100
00000000
,
00010000
00001000
10000000
00010000
,
01000000
00000000
00000000
01000000
00000000
00000000
00010000
01000000
10000000
00000000
00000000
00010000
00000000
00000000
00110000
00000000
,
00110000
00000000
00000000
00010010
00000000
00000000
00110000
00000000
00110000
00000000
10000000
01000000
00100000
00010000
01000000
00000000
,
10000000
00100000
10000000
00010000
10000000
00100000
10000000
01000000
,
00100000
00010000
00100000
00001000
00100000
00010000
01000000
00001000
,
00010000
00000010
00010000
00000100
00010000
00001000
00010000
00000010
,
00001000
00000001
00001000
00000100
00000010
00000001
00001000
00000100
,
00010000
00000000
00000000
00010100
00000000
00000000
00100000
00001000
,
00001000
00000000
00000000
00101000
00000000
00000000
01000000
00000000
,
10010000
00000000
00000000
00110000
00000000
00000000
01001000
00000000
,
00011000
00000000
10010000
00000000
,
00100000
00000000
10000000
10000000
00010000
01000000
01000000
01000000
,
00100000
00000000
10000000
01000000
00000000
00001000
00010000
00000000
,
00000010
00000000
00001000
00001000
00001000
00000001
00000010
00000010
,
00000001
00000000
00001000
00000100
00000000
00010000
00001000
00000000
,
00100000
00000000
00010000
01000000
10000000
01000000
00010000
00000000
,
00100000
00000000
10000000
00010000
00000000
00100000
00001000
00000000
,
00010100
00000000
00000000
00001001
00000000
00000000
00010100
00000000
,
00101000
00000000
00010000
00100000
01000000
10000000
01000000
00200000
,
00020000
00000000
00000000
00000000
,
00000000
00000000
00000000
00000000
,
00000000
00000000
00000000
00000000
,
00000000
00000000
00000000
00000000
,
00330000
00000000
00000000
00000000
;
