#TITLE:Pop'n Xmas 2004 ~天使ノウタゴエ~;
#SUBTITLE:;
#ARTIST:スノーベリーキッズ;
#TITLETRANSLIT:Pop'n Xmas 2004 -denshi no utagoe-;
#SUBTITLETRANSLIT:;
#ARTISTTRANSLIT:Snowberry Kids;
#GENRE:;
#CREDIT:;
#BANNER:Pop'n Xmas 2004 -denshi no utagoe-.png;
#BACKGROUND:Pop'n Xmas 2004 -denshi no utagoe--bg.png;
#LYRICSPATH:;
#CDTITLE:;
#MUSIC:Pop'n Xmas 2004 -denshi no utagoe-.ogg;
#OFFSET:0.096000;
#SAMPLESTART:10.460164;
#SAMPLELENGTH:12.000000;
#SELECTABLE:YES;
#DISPLAYBPM:76.000000:100.000000;
#BPMS:0.000000=90.000000
,82.000000=88.000000
,84.000000=94.000000
,88.000000=100.000000
,206.000000=96.000000
,207.000000=86.000000
,208.000000=76.000000
,209.000000=100.000000
;
#STOPS:
;
#BGCHANGES:0.000=Pop'n Xmas 2004 -denshi no utagoe-.avi=1.000=0=0=0=StretchNoLoop====,
99999=-nosongbg-=1.000=0=0=0 // don't automatically add -songbackground-
;
#KEYSOUNDS:;
#ATTACKS:;

//---------------dance-single - ----------------
#NOTES:
     dance-single:
     :
     Hard:
     8:
     0.251981,0.334459,0.291607,0.376956,0.042674,248.000000,207.000000,41.000000,53.000000,0.000000,0.000000,0.251981,0.334459,0.291607,0.376956,0.042674,248.000000,207.000000,41.000000,53.000000,0.000000,0.000000:
0000
0000
0000
0000
,
0000
0000
0000
0000
,
0000
0000
0000
0000
,
0000
0000
0000
0000
,
0002
0000
0003
0100
0010
0000
2000
0000
,
0010
0000
3010
0000
2000
0000
0000
3001
,
0100
0020
1000
1030
,
0002
0100
0103
2000
,
0010
3010
0002
0010
,
0013
2000
0010
3010
,
0002
0103
0101
2001
,
0000
0010
3010
0000
1002
0000
0000
0100
,
0103
2000
0010
3010
,
0002
1003
1001
0102
,
0000
1000
1003
0000
2010
0000
0000
0001
,
3001
0210
0001
0301
,
2001
0100
3010
0002
,
0000
0100
0103
0000
2001
0000
0001
0000
,
3001
2002
0000
3003
,
0002
0203
2300
3020
,
0000
0130
0001
0000
2000
0000
0000
0000
,
0000
3000
0000
0000
,
0000
0000
0000
0000
,
0002
0000
0000
0000
1003
0000
0000
1000
0020
0000
0000
0000
0030
0000
0100
0000
,
0110
0000
0101
0000
2002
0000
3003
0010
,
2020
0000
3030
0100
0202
0000
0303
0001
,
2002
0000
0000
0000
3003
0000
0000
0010
,
1000
0100
1000
0100
0020
0000
0031
0000
,
0100
0010
0100
0010
2000
0000
3001
0000
,
0010
0001
0100
0001
0020
0000
1030
0000
,
0100
1000
0010
1000
0200
0000
0301
0100
,
0001
1001
0000
1000
1020
0000
0130
0001
,
2000
3002
0023
0000
,
0030
0000
0000
0000
,
1000
0001
0101
0000
0001
1000
1100
0000
,
0010
1000
0002
0000
0103
0100
0100
0000
,
0001
0000
1000
0000
0001
0000
0000
0001
1000
0000
0010
0000
1000
0000
0000
0000
,
0001
0010
0100
1000
0001
0000
1001
0000
,
0010
1000
1001
0000
0010
0001
1001
0000
,
0010
0100
0020
0000
1030
1000
1000
0000
,
0001
0000
0100
0000
0001
0000
0000
0001
1000
0000
0010
0000
1000
0000
0001
0000
,
1000
0100
0010
0001
1001
0000
0110
0000
,
0001
0000
0000
0011
0000
0000
1001
0000
0000
0000
0000
0000
0000
0000
0000
0000
,
1000
0000
0000
1010
0000
0000
1001
0000
0000
0000
0000
0000
0000
0000
0000
0000
,
0020
0000
0000
0200
,
0330
0000
0000
1001
0000
0000
0011
0000
0000
1000
0000
0100
,
0010
0000
0001
1000
0000
0000
0101
0000
0000
1100
0000
0000
,
0101
0000
0000
0001
0000
0010
0100
0000
1000
0001
0000
0000
,
0011
0000
0000
1010
0000
0000
1001
0000
0000
0001
0000
0100
,
0010
0000
0100
0001
0000
0000
1001
0000
0000
0010
0000
0010
,
1000
0101
1100
2002
,
0000
3003
0002
0023
,
0230
1300
0000
0000
;

//---------------dance-single - ----------------
#NOTES:
     dance-single:
     :
     Medium:
     5:
     0.184922,0.260135,0.149360,0.284495,0.007112,182.000000,161.000000,21.000000,40.000000,0.000000,0.000000,0.184922,0.260135,0.149360,0.284495,0.007112,182.000000,161.000000,21.000000,40.000000,0.000000,0.000000:
0000
0000
0000
0000
,
0000
0000
0000
0000
,
0000
0000
0000
0000
,
0000
0000
0000
0000
,
0002
0000
0103
2000
,
0000
3100
0002
0000
,
0013
2000
0000
3010
,
0002
0100
0103
2000
,
0100
3100
0002
0010
,
0013
2000
0010
3010
,
0002
0100
0100
0200
,
0303
1001
2000
0010
,
3010
2020
0000
3030
,
2000
0001
3001
2002
,
3003
1001
0002
0010
,
0013
2002
0000
3003
,
0020
0000
0130
0002
,
0000
0100
0103
0000
2002
0000
0000
0000
,
3003
0220
0000
0330
,
0001
0010
0100
2000
,
0000
3001
2002
0000
,
0000
3003
0000
0000
,
0000
0000
0000
0000
,
0110
1000
0101
0000
,
0110
0000
0001
0000
1010
0000
0000
0001
,
1001
0000
0000
1000
1001
0000
0000
0001
,
2002
0000
0000
3003
,
0020
0000
0032
0000
0103
0010
0100
0000
,
0020
0000
2030
0000
3010
0100
0010
0000
,
1000
0001
1000
0001
1000
0000
0000
0000
,
0001
1000
0001
1000
0001
0000
0000
0000
,
0100
0010
0000
0010
0100
0000
0001
0000
,
0010
1000
2002
3003
,
0000
0000
0000
0000
,
0010
0010
0010
0000
0010
0010
0010
0000
,
0001
0100
1000
0000
,
0100
0100
0100
0000
0100
0100
0100
0000
,
1000
0100
0001
0000
,
1000
1000
1000
0000
0001
0001
0001
0000
,
0100
0010
0110
0000
,
0001
0001
0001
0000
1000
1000
1000
0000
,
0010
0100
0110
0000
,
0001
0000
0000
0001
0000
0000
1001
0000
0000
0000
0000
0000
0000
0000
0000
0000
,
1000
0000
0000
1000
0000
0000
1001
0000
0000
0000
0000
0000
0000
0000
0000
0000
,
0020
0000
0000
0200
,
0000
0330
0001
0010
,
0100
1000
0001
1000
,
0001
0100
0010
1000
,
0001
0001
1000
0010
,
0100
0001
0001
1000
,
0010
0001
0100
2002
,
0000
3003
0001
0100
,
1000
0010
0000
0000
;

//---------------dance-single - ----------------
#NOTES:
     dance-single:
     :
     Easy:
     3:
     0.125991,0.204392,0.099573,0.327169,0.007112,124.000000,110.000000,14.000000,46.000000,0.000000,0.000000,0.125991,0.204392,0.099573,0.327169,0.007112,124.000000,110.000000,14.000000,46.000000,0.000000,0.000000:
0000
0000
0000
0000
,
0000
0000
0000
0000
,
0000
0000
0000
0000
,
0000
0000
0000
0000
,
0002
0000
0003
2000
,
0000
3000
0002
0000
,
0003
2000
0000
3000
,
0020
0000
0030
0200
,
0000
0300
0020
0000
,
0030
0200
0000
0300
,
0002
0003
0001
2000
,
3000
1000
0002
0003
,
0001
2000
0000
3000
,
0020
0030
0010
0200
,
0300
0100
0020
0030
,
0010
0200
0000
0300
,
0002
0003
0100
2000
,
3000
0100
0002
0000
,
0000
2000
0000
3003
,
0010
0001
0100
2000
,
0000
0001
0002
0000
,
0000
3003
0000
0000
,
0000
0000
0000
0000
,
0001
0100
1001
0000
,
1000
0100
1001
0000
,
0110
0000
1001
0000
,
0220
0000
0330
0000
,
0001
1000
0020
0030
,
1000
0001
0020
0030
,
0100
0010
0100
0000
0100
0000
0000
0000
,
0010
0100
0010
0000
0010
0000
0000
0000
,
2002
3003
0220
0330
,
0101
1100
2002
3003
,
0000
0000
0000
0000
,
0002
0003
2000
3000
,
0001
0100
1000
0000
,
2000
3000
0002
0003
,
1000
0100
0001
0000
,
0020
0030
2002
3003
,
0001
0100
1000
0000
,
0020
0030
2002
3003
,
1000
0100
0001
0000
,
0001
0000
0000
0001
0000
0000
0001
0000
0000
0000
0000
0000
0000
0000
0000
0000
,
1000
0000
0000
1000
0000
0000
1000
0000
0000
0000
0000
0000
0000
0000
0000
0000
,
2002
0000
0000
3003
,
0000
0010
0010
0010
,
0001
0100
1000
0000
,
0010
0010
1000
0100
,
0001
0000
0010
0010
,
0001
0100
1000
0100
,
0001
0010
1000
2002
,
0000
0000
0000
0000
,
0000
3003
0000
0000
;

//---------------dance-single - ----------------
#NOTES:
     dance-single:
     :
     Beginner:
     1:
     0.092461,0.130068,0.007112,0.149360,0.000000,91.000000,90.000000,1.000000,21.000000,0.000000,0.000000,0.092461,0.130068,0.007112,0.149360,0.000000,91.000000,90.000000,1.000000,21.000000,0.000000,0.000000:
0000
0000
0000
0000
,
0000
0000
0000
0000
,
0000
0000
0000
0000
,
0000
0000
0000
0000
,
0002
0000
0003
0002
,
0003
0000
2000
0000
,
3000
2000
3000
0000
,
0020
0000
0030
0020
,
0030
0000
0200
0000
,
0300
0200
0300
0000
,
0001
0000
0001
0001
,
0000
1000
1000
0000
,
1000
2000
3000
0000
,
0010
0000
0010
0010
,
0000
0100
0100
0000
,
0100
0200
0300
0000
,
0001
0000
1000
1000
,
0000
0001
0002
0003
,
0000
2000
3000
0000
,
0010
0010
0010
0020
,
0030
0000
2000
0000
,
0000
3000
0000
0000
,
0000
0000
0000
0000
,
0001
0001
0001
0000
,
1000
1000
1000
0000
,
0010
0000
0001
0000
,
0200
0000
0300
0000
,
0001
0001
0001
0000
,
1000
1000
1000
0000
,
0002
0003
0001
0000
,
2000
3000
1000
0000
,
0010
0000
0010
0000
,
0010
0010
0010
0000
,
0000
0000
0000
0000
,
0000
0001
0000
0001
,
0000
0001
0001
0000
,
0000
1000
0000
1000
,
0000
1000
1000
0000
,
0000
0010
0000
0010
,
0000
0010
0010
0000
,
0000
0100
0000
0100
,
0000
0100
0100
0000
,
0002
0000
0003
0000
,
2000
0000
3000
0000
,
2002
0000
0000
3003
,
0000
0000
0010
0000
,
0000
0100
0000
0000
,
0010
0000
0000
0100
,
0000
0000
1000
0000
,
0000
0001
0000
0000
,
1000
1000
1000
1000
,
0000
0000
0001
0001
,
0001
0001
0000
0000
;

//---------------dance-double - ----------------
#NOTES:
     dance-double:
     :
     Hard:
     8:
     0.242837,0.315878,0.206259,0.362731,0.042674,239.000000,210.000000,29.000000,51.000000,0.000000,0.000000,0.242837,0.315878,0.206259,0.362731,0.042674,239.000000,210.000000,29.000000,51.000000,0.000000,0.000000:
00000000
00000000
00000000
00000000
,
00000000
00000000
00000000
00000000
,
00000000
00000000
00000000
00000000
,
00000000
00000000
00000000
00000000
,
00020000
00000000
00000000
01000000
01030000
00000000
20000000
00000000
,
00100000
00000000
30100000
00000000
02000000
00000000
00000000
00001000
,
03001000
00020000
00000100
00030100
,
00002000
00000010
00003010
00000002
,
00001000
00001003
00000200
00010000
,
00010300
00002000
01000000
01003000
,
00020000
10000000
00130000
00210000
,
00000000
00001000
00301000
00000000
00020000
00000000
00000000
00001000
,
00031000
00000200
00020300
00032000
,
02003000
00100000
03100000
20000000
,
00000000
00010000
30010000
00000000
00200000
00000000
00000000
00001000
,
00301000
00020000
00001000
00030100
,
00002000
00000010
00003010
00000200
,
00000000
00000001
00000301
00000000
00002000
00000000
00000100
00000000
,
00003010
00002002
00000000
00003003
,
00000002
00000100
00001003
00000200
,
00000000
00010000
00010300
00000000
00022000
00000000
00000000
00000000
,
00000000
00033000
00000000
00000000
,
00000000
00000000
00000000
00000000
,
01010000
00000000
00000000
00000000
10010000
00000000
00000000
00010000
20000000
00000000
00000000
00000000
30000000
00000000
00100000
00000000
,
01100000
00000000
10010000
00000000
00220000
00000000
00330000
00100000
,
00002000
00000000
00003000
00010000
00000200
00000000
00000300
00001000
,
00000002
00000000
00000100
00000000
00000100
00000100
00000103
00000001
,
00001000
00000100
00000010
00000001
00002000
00000000
00003100
00000000
,
00010000
00001000
00100000
00010000
02000000
00000000
03010000
10000000
,
00010000
00010000
00100000
00001000
00020000
00000000
00000000
00030100
,
00001000
00000001
00001000
00000100
00020000
00000000
00031000
00010000
,
00000010
00002000
00000000
00003001
00001001
00000000
00001100
00000000
,
00000200
00020300
00002000
00033000
,
00000000
00000000
00000000
00000000
,
00010000
00010000
00011000
00000000
00001000
00001000
00101000
00000000
,
00100000
00000000
00010000
00000000
01000000
00000000
00000000
01000000
00200000
00000000
00000000
00000000
10300000
00000000
00000000
00000000
,
00010000
00010000
10010000
00000000
00010000
00100000
00001000
00000000
,
00001000
00010000
00000100
00001000
00000001
00001000
00001001
00000000
,
00000010
00000010
00001010
00000000
00001000
00001000
00001001
00000000
,
00000001
00000000
00000100
00000000
00001000
00000000
00000000
00001000
00000001
00000000
00000100
00000000
00000010
00000000
00000000
00000000
,
00000010
00001000
00000200
00000000
00010300
00001000
00200000
00000000
,
00310000
01000000
10000000
01000000
00010000
00000000
00110000
00000000
,
01010000
00000000
00000000
10010000
00000000
00000000
01010000
00000000
00000000
00000000
00000000
00000000
00000000
00000000
00000000
00000000
,
00011000
00000000
00000000
00010100
00000000
00000000
00011000
00000000
00000000
00000000
00000000
00000000
00000000
00000000
00000000
00000000
,
00020000
00000000
00000000
00000020
,
00030000
00000000
00000000
00001030
00000000
00000000
00000001
00000000
00000000
00000011
00000000
00000001
,
00000100
00000000
00000100
00000010
00000000
00000000
00001000
00000000
00000000
00000100
00000000
00000000
,
00001100
00000000
00000000
00000100
00000000
00000100
00010000
00000000
00010000
00001000
00000000
00000000
,
00100000
00000000
00000000
00010000
00000000
00000000
01010000
00000000
00000000
01000000
00000000
00100000
,
10000000
00000000
10000000
01000000
00000000
00000000
00100000
00000000
00000000
00010000
00000000
00010000
,
00100000
00110000
00101000
00022000
,
00000000
00033000
00000200
00020300
,
00032000
00103000
00000000
00000000
;

//---------------dance-double - ----------------
#NOTES:
     dance-double:
     :
     Medium:
     5:
     0.169681,0.241554,0.113798,0.284495,0.007112,167.000000,151.000000,16.000000,40.000000,0.000000,0.000000,0.169681,0.241554,0.113798,0.284495,0.007112,167.000000,151.000000,16.000000,40.000000,0.000000,0.000000:
00000000
00000000
00000000
00000000
,
00000000
00000000
00000000
00000000
,
00000000
00000000
00000000
00000000
,
00000000
00000000
00000000
00000000
,
00200000
00000000
01300000
00002000
,
00000000
00003000
00020000
00000000
,
00030100
00002000
00000000
00003000
,
00000002
00000000
00000103
00002000
,
00000000
00003010
00020000
00000000
,
00031000
00200000
00010000
00310000
,
02000000
03100000
01100000
20020000
,
30030000
10000000
00020000
00100000
,
00130000
00002000
00010000
00013000
,
00020000
00000100
00030100
00002200
,
00003300
00001000
00000002
00001000
,
00001003
00000020
00000000
00000030
,
00000002
00000000
00000103
00002000
,
00000000
00013000
00200000
00000000
,
00000000
20000000
00000000
30300000
,
10000000
01000000
00100000
00020000
,
00000000
01030000
02000000
00000000
,
00000000
03000000
00000000
00000000
,
00000000
00000000
00000000
00000000
,
10010000
01100000
10010000
00000000
,
01010000
10100000
01010000
00000000
,
00200000
00000000
00302000
00000000
,
00023000
00000000
00000000
00000000
00030000
00000000
00000000
00010000
,
00002000
00000000
00023000
00000000
00030020
00000000
00000030
00001000
,
00000002
00000000
00002003
00000000
00003200
00000000
00000300
00001000
,
00000100
00000000
00010000
00000000
00011000
00000000
00000000
00001000
,
00100000
00000000
00010000
00000000
01010000
00000000
00000000
00100000
,
10000000
00100000
00000000
01000000
00010000
00000000
00100000
00000000
,
00001000
00010000
00022000
00033000
,
00000000
00000000
00000000
00000000
,
00010000
00010000
00010000
00000000
00001000
00001000
00001000
00000000
,
00010000
00001000
00011000
00000000
,
00001000
00000000
00100000
00000000
00010000
01000000
00010000
00000000
,
10000000
00100000
01000000
00001000
,
00010000
00010000
00010000
00000000
00001000
00001000
00001000
00000000
,
00010000
00001000
00011000
00000000
,
00010000
00000000
00000100
00000000
00001000
00000100
00001000
00000000
,
00000010
00000100
00000010
00000000
00002002
00000000
00003003
00000000
,
00000001
00000000
00000000
00000001
00000000
00000000
00000001
00000000
00000000
00000000
00000000
00000000
00000000
00000000
00000000
00000000
,
00001000
00000000
00000000
00001000
00000000
00000000
00001000
00000000
00000000
00000000
00000000
00000000
00000000
00000000
00000000
00000000
,
00000200
00000000
00000000
00000300
,
00000000
00010000
00001000
00001000
,
01000000
00010000
10000000
00010000
,
00100000
00100000
00001000
00010000
,
00000010
00001000
00000001
00000001
,
00000100
00000010
00001000
00000100
,
00010000
00000100
00010000
00022000
,
00000000
00033000
00100000
00010000
,
01000000
10000000
00000000
00000000
;

//---------------dance-double - ----------------
#NOTES:
     dance-double:
     :
     Easy:
     3:
     0.127007,0.185811,0.064011,0.099573,0.000000,125.000000,116.000000,9.000000,14.000000,0.000000,0.000000,0.127007,0.185811,0.064011,0.099573,0.000000,125.000000,116.000000,9.000000,14.000000,0.000000,0.000000:
// measure 0
00000000
00000000
00000000
00000000
,  // measure 1
00000000
00000000
00000000
00000000
,  // measure 2
00000000
00000000
00000000
00000000
,  // measure 3
00000000
00000000
00000000
00000000
,  // measure 4
00100000
00000000
00000000
00010000
,  // measure 5
00000000
00000000
00001000
00000000
,  // measure 6
00000000
00000010
00000000
00000000
,  // measure 7
00000100
00000000
00000000
00001000
,  // measure 8
00000000
00000000
00010000
00000000
,  // measure 9
00000000
00100000
00000000
00000000
,  // measure 10
01000000
00000000
00000000
00010000
,  // measure 11
00000000
00000000
00001000
00000000
,  // measure 12
00000000
00000100
00000000
00000000
,  // measure 13
00000010
00000000
00000000
00001000
,  // measure 14
00000000
00000000
00010000
00000000
,  // measure 15
00000000
01000000
00000000
00000000
,  // measure 16
00200000
00000000
10300000
00020000
,  // measure 17
00000000
00130000
00002000
00000000
,  // measure 18
00000000
00020000
00000000
00033000
,  // measure 19
00010000
00010000
00010000
00020000
,  // measure 20
00000000
00000100
00000200
00000000
,  // measure 21
00000000
00030300
00000000
00000000
,  // measure 22
00000000
00000000
00000000
00000000
,  // measure 23
00001000
00000100
00000010
00000000
,  // measure 24
00000001
00000100
00001000
00000000
,  // measure 25
00011000
00000000
00101000
00000000
,  // measure 26
00022000
00000000
00033000
00000000
,  // measure 27
00001000
00100000
00010000
00000000
,  // measure 28
10000000
00010000
01000000
00000000
,  // measure 29
01000000
00010000
00001000
00000000
,  // measure 30
00010000
00001000
00000010
00000000
,  // measure 31
00002000
00003000
00000001
00000100
,  // measure 32
00000010
00001000
00002002
00003003
,  // measure 33
00000000
00000000
00000000
00000000
,  // measure 34
00000010
00000010
00001000
00001000
,  // measure 35
00010000
00001000
00100000
00000000
,  // measure 36
00010000
01000000
10000000
01000000
,  // measure 37
00010000
01000000
00010000
10010000
,  // measure 38
01000000
01000000
00001000
00001000
,  // measure 39
01000000
00010000
00001000
00000000
,  // measure 40
00010000
00000100
00001000
00000001
,  // measure 41
00001000
00000010
00001001
00000000
,  // measure 42
00000100
00000000
00000000
00001001
00000000
00000000
00000000
00000000
,  // measure 43
00000010
00000000
00000000
00001001
00000000
00000000
00000000
00000000
,  // measure 44
00002000
00000000
00000000
00003000
,  // measure 45
00000000
00000100
00010000
00010000
,  // measure 46
00001000
01000000
00010000
10000000
,  // measure 47
00010000
00010000
00100000
00001000
,  // measure 48
00010000
00001000
00010000
00000010
,  // measure 49
00000010
00000100
00000001
00001000
,  // measure 50
00000100
00000100
00010000
00022000
,  // measure 51
00000000
00033000
00100000
00100000
,  // measure 52
00100000
00100000
00000000
00000000
;
