#TITLE:Pluto The First;
#SUBTITLE:("GROOVE RADAR" Special);
#ARTIST:WHITE WALL;
#TITLETRANSLIT:;
#SUBTITLETRANSLIT:;
#ARTISTTRANSLIT:;
#GENRE:;
#CREDIT:;
#BANNER:Pluto The First (GROOVE RADAR Special).png;
#BACKGROUND:Pluto The First (GROOVE RADAR Special)-bg.png;
#LYRICSPATH:;
#CDTITLE:;
#MUSIC:Pluto The First (GROOVE RADAR Special).ogg;
#OFFSET:0.000000;
#SAMPLESTART:22.940001;
#SAMPLELENGTH:15.000000;
#SELECTABLE:YES;
#DISPLAYBPM:50.000000:440.000000;
#BPMS:0.000000=115.015999
,12.000000=115.003998
,43.000000=114.893997
,55.000000=50.000000
,63.000000=200.054993
,103.500000=204.544998
,104.500000=200.000000
,105.500000=440.097992
,125.500000=440.181000
,190.500000=440.457001
,220.500000=110.008003
,236.500000=230.031998
,268.500000=439.023987
,280.500000=439.739014
,295.500000=439.850006
,321.500000=439.023987
,337.500000=440.312988
,362.500000=220.136993
;
#STOPS:43.000000=0.520000,
103.500000=0.153000,
104.000000=0.153000,
104.500000=0.153000,
125.500000=0.273000,
190.500000=0.413000,
280.500000=0.273000,
295.500000=0.267000,
308.500000=0.273000,
321.500000=0.140000,
323.500000=0.267000,
337.500000=0.273000
;
#BGCHANGES:;
#KEYSOUNDS:;
#ATTACKS:;

//---------------dance-single - ----------------
#NOTES:
     dance-single:
     :
     Challenge:
     17:
     0.840643,1.955449,0.824580,1.068206,1.264981,628.000000,540.000000,88.000000,114.000000,0.000000,0.000000,0.840643,1.955449,0.824580,1.068206,1.264981,628.000000,540.000000,88.000000,114.000000,0.000000,0.000000:
// measure 0
0000
0000
0000
0000
,  // measure 1
0000
0000
0000
0000
,  // measure 2
2100
0100
0100
3020
0100
0100
0230
0001
,  // measure 3
0001
0302
0010
0013
0020
0100
0100
0230
,  // measure 4
1000
1000
2300
0001
0001
3002
0010
0103
,  // measure 5
1020
1000
1030
0200
1000
1300
0201
0001
,  // measure 6
0301
0020
0001
0031
2100
0100
3100
0020
,  // measure 7
0100
0130
0002
0010
0013
0200
0010
1300
,  // measure 8
0001
0010
0100
0000
1002
0000
1003
0100
0010
0000
2001
0000
3010
0100
1000
0000
,  // measure 9
0012
0000
1003
0100
0010
0000
0021
0000
1030
0001
0100
0000
1002
0000
0013
1000
,  // measure 10
0100
0000
0000
0000
0000
0000
1002
0000
0000
0000
0000
0000
0013
0000
0000
1000
0000
0000
0010
0000
0000
0000
0000
0000
0110
0000
0000
0000
0000
0000
1001
0000
0000
1001
0000
0000
0000
1000
0000
0010
0000
0000
1000
0000
0000
0001
0000
0000
,  // measure 11
0000
0001
1000
0010
1000
0001
0000
0001
1000
0100
1000
0001
0000
1000
0100
0001
,  // measure 12
0100
1000
0000
0001
0100
1000
0100
0001
0000
0001
0010
1000
0010
0001
0000
0001
,  // measure 13
1000
0000
0001
0000
1000
0000
0100
0000
1000
0000
0001
0000
0100
0000
0001
0000
1000
0000
0010
0000
0001
0000
0010
0000
1000
0000
0000
0110
0000
0000
0101
0000
,  // measure 14
0000
0110
0000
0000
0011
0000
0000
0000
1001
0000
0000
1100
0000
0000
1010
0000
0000
1100
0000
0000
1001
0000
0000
0000
0011
0000
0001
0100
0001
0000
1001
0000
,  // measure 15
1000
0100
1000
0000
1001
0000
0000
0000
1010
0000
1000
0001
1000
0000
1001
0000
0001
0100
0001
0000
1001
0000
0000
0000
1000
0000
0000
0000
0100
0000
0000
0000
,  // measure 16
1000
0000
0100
0000
0010
0000
0001
0000
0010
0000
0001
0000
1000
0010
1000
0010
,  // measure 17
0100
0001
0100
0001
1000
0000
0100
0000
0010
0000
0001
0000
1000
0000
0100
0000
,  // measure 18
1000
0000
0100
0000
0010
0000
0001
0000
0010
0000
0001
0000
0100
0010
0100
0010
,  // measure 19
1000
0001
1000
0001
0100
0000
0010
0000
1000
0000
0001
0000
2000
0000
3100
0000
,  // measure 20
0002
0103
2000
3010
0002
0013
2000
3100
,  // measure 21
0002
0103
2000
3010
0002
0013
2000
3010
,  // measure 22
0002
0103
0020
0130
2000
3100
0002
0103
,  // measure 23
0020
0000
1030
0000
0002
0000
0013
0000
0200
0000
1300
0000
0001
1000
0001
1000
,  // measure 24
0001
1000
0001
1000
0001
0000
1001
0000
1001
0000
0101
0000
0101
0000
1100
0000
,  // measure 25
1100
0000
0000
0000
0000
0000
0011
0000
0000
0000
0000
0000
0011
0000
0000
0000
0000
0000
1010
0000
0000
0000
0000
0000
1010
0000
0000
0000
0000
0000
0110
0000
0000
0000
0000
0000
0110
0000
0000
0000
0000
0000
0000
1001
0000
0000
0000
0000
,  // measure 26
0000
0011
0000
0000
0000
0000
0000
1001
0000
0000
0000
0000
0000
0000
0000
0000
0000
0002
0000
0000
0000
0000
0000
0000
0000
0000
0000
0000
0000
0100
0000
0000
0000
0000
0000
0000
0000
0000
0000
0000
0000
0010
0000
0000
0000
0000
0000
0000
,  // measure 27
0000
0000
0000
0000
0000
2003
0000
0000
0000
0000
0000
0000
0000
0000
0000
0000
0000
0000
0000
0000
0000
0000
0000
0000
0000
0000
0000
0000
0000
0000
0000
0000
0000
0000
0000
0000
0000
0000
0000
0000
0000
3002
0000
0000
0000
0000
0000
0000
,  // measure 28
0000
0000
0000
0000
0000
1000
0000
0000
0000
0000
0000
0000
0000
0000
0000
0000
0000
0100
0000
0000
0000
0000
0000
0000
0000
0000
0000
0000
0000
2003
0000
0000
0000
0000
0000
0000
0000
0000
0000
0000
0000
0001
0000
0000
0000
0000
0000
0000
,  // measure 29
0000
0000
0000
0000
0000
0100
0000
0000
0000
0000
0000
0000
0000
0000
0000
0000
0000
3002
0000
0000
0000
0000
0000
0000
0000
0000
0000
0000
0000
0103
0000
0000
0000
0000
0000
0000
0000
0000
0000
0000
0000
2000
0000
0000
0000
0000
0000
0000
,  // measure 30
0000
0000
0000
0000
0000
3000
0000
0000
0000
0000
0000
0000
0000
0000
0000
0000
0000
0002
0000
0000
0000
0000
0000
0000
0000
0000
0000
0000
0000
0010
0000
0000
0000
0000
0000
0000
0000
0000
0000
0000
0000
0103
0000
0000
0000
0000
0000
0000
,  // measure 31
0000
0000
0000
2000
0000
0000
0000
0000
0000
0000
0000
0000
0000
3002
0000
0000
0000
0000
0000
0100
0003
0000
0000
0000
0000
0000
0000
0010
0000
0000
0000
0000
,  // measure 32
0000
0000
0000
2000
0000
0000
0000
0000
0000
0000
0000
0001
0000
0000
0000
0000
0000
0000
0000
3000
0000
0000
0000
0000
0000
0000
0000
0002
0000
0000
0000
0000
,  // measure 33
0000
0000
0000
0103
0000
0000
0000
0000
0000
0000
0000
0020
0000
0000
0000
0000
0000
0000
0000
1030
0000
0000
0000
0000
0000
0000
0000
0002
0000
0000
0000
0000
,  // measure 34
0000
0000
0000
1000
0000
0000
0000
0000
0000
0000
0000
0103
0000
0000
0000
0000
0000
0000
0000
0020
0000
0000
0000
0000
0000
0000
0000
0001
0000
0000
0000
0000
,  // measure 35
0000
0000
0000
0030
0000
0000
0000
0000
0000
0000
0000
2000
0000
0000
0000
0000
0000
0000
0000
0001
0000
0000
0000
0000
0000
0000
0000
3100
0000
0000
0000
0000
,  // measure 36
0000
0000
0000
0020
0000
0000
0000
0000
0000
0000
0000
1000
0000
0000
0000
0000
0000
0000
0000
0030
0000
0000
0000
0000
0000
0000
0000
0000
0000
0000
0000
0000
,  // measure 37
0000
0000
0000
0000
0000
0000
0000
0000
0000
0000
0000
0020
0000
0000
0000
0000
0000
0000
0000
0031
0000
0000
0000
0000
0000
0000
0000
2000
0000
0000
0000
0000
,  // measure 38
0000
0000
0000
0100
0000
0000
0000
0000
0000
0000
0000
3010
0000
0000
0000
0000
0000
0000
0000
0002
0000
0000
0000
0000
0000
0000
0000
0100
0000
0000
0000
0000
,  // measure 39
0000
0000
0000
0013
0000
0000
0000
0000
0000
0000
0000
0200
0000
0000
0000
0000
0000
0000
0000
0000
0000
0000
0000
0000
0000
0000
0000
0301
0000
0000
0000
0000
,  // measure 40
0000
0000
0000
2000
0000
0000
0000
0000
0000
0000
0000
0010
0000
0000
0000
0000
0000
0000
0000
3100
0000
0000
0000
0000
0000
0000
0000
0002
0000
0000
0000
0000
,  // measure 41
0000
0000
0000
0003
0000
0000
0000
0000
0000
0000
0000
0020
0000
0000
0000
0000
0000
0000
0000
0130
0000
0000
0000
0000
0000
0000
0000
0002
0000
0000
0000
0000
,  // measure 42
0000
0000
0000
0003
0000
0000
0000
0000
0000
0000
0000
2000
0000
0000
0000
0000
0000
0000
0000
3100
0000
0000
0000
0000
0000
0000
0000
0002
0000
0000
0000
0000
,  // measure 43
0000
0000
0000
0103
0000
0000
0000
0000
0000
0000
0000
0010
0000
0000
0000
0000
0000
0000
0000
1000
0000
0000
0000
0000
0000
0000
0000
1002
0000
0000
0000
0000
,  // measure 44
0000
0000
0000
0000
0000
0000
0000
0000
0000
0000
0000
0103
0000
0000
0000
0000
0000
0000
0000
0010
0000
0000
0000
0000
0000
0000
0000
2000
0000
0000
0000
0000
,  // measure 45
0000
0000
0000
0000
0000
0000
0000
0000
0000
0000
0000
3001
0000
0000
0000
0000
0000
0000
0000
0010
0000
0000
0000
0000
0000
0000
0000
0200
0000
0000
0000
0000
,  // measure 46
0000
0000
0000
0000
0000
0000
0000
0000
0000
0000
0000
0301
0000
0000
0000
0000
0000
0000
0000
0010
0000
0000
0000
0000
0000
0000
0000
0002
0000
0000
0000
0000
,  // measure 47
0000
0000
0000
1003
0000
0000
0000
0000
0000
0000
0000
0100
0000
0000
0000
0000
0000
0000
0000
1001
0000
0010
0000
0000
0000
0000
0000
0000
0000
0100
0000
0000
,  // measure 48
0000
0000
0000
0000
0000
0020
0000
0000
0000
0000
0000
0000
0000
1000
0000
0000
0000
0000
0000
0000
0000
0031
0000
0000
0000
0000
0000
0000
0000
0000
0000
0000
,  // measure 49
0000
0000
0000
0010
0000
0000
0000
0000
0000
0000
0000
1010
0000
0000
0000
0000
0000
0000
0000
0001
0000
0000
0000
0000
0000
0000
0000
0100
0000
0000
0000
0000
,  // measure 50
0000
0000
0000
0110
0000
0000
0000
0000
0000
0000
0000
1000
0000
0000
0000
0000
0000
0000
0000
0001
0000
0000
0000
0000
0000
0000
0000
1000
0000
0000
0000
0000
,  // measure 51
0000
0000
0000
1001
0000
0000
0000
0000
0000
0000
0000
0000
0000
0000
0000
0000
0000
0000
0000
1000
0000
0000
0000
0000
0000
0000
0000
0100
0000
0000
0000
0000
,  // measure 52
0000
0000
0000
0010
0000
0000
0000
0000
0000
0000
0000
0001
0000
0000
0000
0000
0000
0000
0000
2000
0000
0000
0000
0000
0000
0000
0000
0002
0000
0000
0000
0000
,  // measure 53
0000
0000
0000
0000
0000
0000
0000
0000
0000
0000
0000
0000
0000
0000
0000
0000
0000
0000
0000
0000
0000
0000
0000
0000
0000
0000
0000
3003
0000
0000
0000
0000
,  // measure 54
0000
0000
0000
0000
,  // measure 55
0000
0000
0010
0001
0100
0001
1000
0000
0001
0010
0100
1000
0010
0100
0000
0001
,  // measure 56
1001
0000
1000
0010
0100
0010
1000
0000
0001
0010
0100
0010
0001
1000
0000
0000
,  // measure 57
0101
0000
1000
0010
0100
0010
1000
0000
0001
0010
0100
0010
0001
1000
0000
0001
,  // measure 58
0101
0000
1000
0010
0100
0010
1000
0000
0001
0010
0001
0100
0001
1001
0000
0000
,  // measure 59
0000
0011
0000
0001
0100
0101
0000
1000
,  // measure 60
0010
1000
1100
1100
0000
0101
0000
1010
,  // measure 61
0000
0010
0100
0001
0101
0101
0000
0010
,  // measure 62
1000
1100
1100
1100
0000
0101
0000
1001
,  // measure 63
0000
0100
0010
1010
1010
0000
0000
0001
,  // measure 64
0100
0010
0110
0110
0000
1010
0000
0101
,  // measure 65
0000
1000
0100
0010
0011
0011
0000
0010
,  // measure 66
0100
0001
1001
1001
0000
1100
0000
0011
,  // measure 67
0000
0000
0000
0000
2000
0000
0000
0000
0000
0000
0000
0002
3000
0000
0000
0000
0000
0000
0000
0203
0000
0000
0000
0000
0000
0000
0000
0300
0000
0000
0000
0000
,  // measure 68
0000
0000
0000
0002
0000
0000
0000
0000
0000
0000
0000
0023
0000
0000
0000
0000
0000
0000
0000
0230
0000
0000
0000
0000
0000
0000
0000
0300
0000
0000
0000
0000
,  // measure 69
0000
0000
0000
0002
0000
0000
0000
0000
0000
0000
0000
2003
0000
0000
0000
0000
0000
0000
0000
3020
0000
0000
0000
0000
0000
0000
0000
0230
0000
0000
0000
0000
,  // measure 70
0000
0000
0000
0301
0000
1000
0000
0000
0000
0000
0000
0010
0000
0000
0000
0000
0000
0000
0000
0200
0000
0000
0000
0000
0000
0000
0000
0302
0000
0000
0000
0000
,  // measure 71
0000
0000
0000
2003
0000
0000
0000
0000
0000
0000
0000
3010
0000
0000
0000
0000
0000
0000
0000
0000
0000
0000
0000
0000
0000
0000
0000
1010
0000
0000
0000
0000
,  // measure 72
0000
0000
0000
0000
0000
0000
0000
0000
0000
0000
0000
0001
0000
0000
0000
0000
0000
0000
0000
0101
0000
0000
0000
0000
0000
0000
0000
1000
0000
0000
0000
0000
,  // measure 73
0000
0000
0000
1100
0000
0000
0000
0000
0000
0000
0000
0001
0000
0000
0000
0000
0000
0000
0000
1000
0000
0000
0000
0000
0000
0000
0000
1001
0000
0110
0000
0000
,  // measure 74
0000
0000
0000
2000
0000
0000
0000
0000
0000
0000
0000
3002
0000
0000
0000
0000
0000
0000
0000
0203
0000
0000
0000
0000
0000
0000
0000
0000
0000
0000
0000
0000
,  // measure 75
0000
0000
0000
0320
0000
0000
0000
0000
0000
0000
0000
1000
0000
0000
0000
0000
0000
0000
0000
0100
0000
0000
0000
0000
0000
0000
0000
0000
0000
0000
0000
0000
,  // measure 76
0000
0000
0000
2030
0000
0000
0000
0000
0000
0000
0000
0001
0000
0000
0000
0000
0000
0000
0000
0010
0000
0000
0000
0000
0000
0000
0000
3002
0000
0000
0000
0000
,  // measure 77
0000
0000
0000
0000
0000
0013
0000
0000
0000
0000
0000
0002
0000
0000
0000
0000
0000
0000
0000
0100
0000
0000
0000
0000
0000
0000
0000
1000
0000
0000
0000
0000
,  // measure 78
0000
0000
0000
0103
0000
0000
0000
0000
0000
0000
0000
0020
0000
0000
0000
0000
0000
0000
0000
0001
0000
0000
0000
0000
0000
0000
0000
0030
0000
0000
0000
0000
,  // measure 79
0000
0000
0000
1000
0000
0000
0000
0000
0000
0000
0000
0200
0000
0000
0000
0000
0000
0000
0000
0310
0000
0000
0000
0000
0000
0000
0000
0002
0000
0000
0000
0000
,  // measure 80
0000
0000
0000
1003
0000
0000
0000
0000
0000
0000
0000
1001
0000
0000
0000
0000
0000
0000
0000
1001
0000
0000
0000
0000
0000
0000
0000
1100
0000
0000
0000
0000
,  // measure 81
0000
0000
0000
1000
0000
0000
0000
0000
0000
0000
0000
0100
0000
0000
0000
0000
0000
0000
0000
0000
0000
0000
0000
0000
0000
0000
0000
1000
0000
0000
0000
0000
,  // measure 82
0000
0000
0000
2002
0000
0000
0000
0000
0000
0000
0000
3003
0000
0000
0000
0000
0000
0000
0000
0010
0000
0000
0000
0000
0000
0000
0000
0001
0000
0000
0000
0000
,  // measure 83
0000
0000
0000
0100
0000
0000
0000
0000
0000
0000
0000
0010
0000
0000
0000
0000
0000
0000
0000
1001
0000
0000
0000
0000
0000
0000
0000
0000
0000
0000
0000
0000
,  // measure 84
0000
0000
0000
0110
0000
0000
0000
0000
0000
0000
0000
1000
0000
0000
0000
0000
0000
0000
0000
0200
0000
0000
0000
0000
0000
0000
0000
2300
0000
0000
0000
0000
,  // measure 85
0000
0000
0000
3002
0000
0000
0000
0000
0000
0000
0000
0023
0000
0000
0000
0000
0000
0000
0000
2030
0000
0000
0000
0000
0000
0000
0000
3200
0000
0000
0000
0000
,  // measure 86
0000
0000
0000
0320
0000
0000
0000
0000
0000
0000
0000
0032
0000
0000
0000
0000
0000
0000
0000
2003
0000
0000
0000
0000
0000
0000
0000
3020
0000
0000
0000
0000
,  // measure 87
0000
0000
0000
0230
0000
0000
0000
0000
0000
0000
0000
0301
0000
0000
0000
0010
0000
0000
0000
0001
0000
0000
0000
0010
0000
0000
0000
0002
0000
0000
0000
0000
,  // measure 88
0000
0000
0000
0203
0000
0000
0000
0000
0000
0000
0000
0310
0000
0000
0000
1000
0000
0000
0000
0010
0000
0000
0000
1000
0000
0000
0000
0020
0000
0000
0000
0000
,  // measure 89
0000
0000
0000
0230
0000
0000
0000
0000
0000
0000
0000
0301
0000
0000
0000
0010
0000
0000
0000
0001
0000
0000
0000
0010
0000
0000
0000
0002
0000
0000
0000
0000
,  // measure 90
0000
0000
0000
0203
0000
0000
0000
0000
0000
0000
0000
0320
0000
0000
0000
0000
0000
0000
0000
1030
0000
0000
0000
0000
0000
0000
0000
0000
0001
0000
0000
0000
,  // measure 91
0100
0010
1000
0010
0100
0001
1000
0100
,  // measure 92
0010
0001
0100
0010
0100
0001
1000
0000
;
