#TITLE:Pacify;
#SUBTITLE:;
#ARTIST:BEMANI Sound Team "SYUNN";
#TITLETRANSLIT:;
#SUBTITLETRANSLIT:;
#ARTISTTRANSLIT:;
#GENRE:;
#CREDIT:;
#MENUCOLOR:;
#METERTYPE:DDR;
#BANNER:Pacify.png;
#BACKGROUND:Pacify-bg.png;
#LYRICSPATH:;
#CDTITLE:;
#MUSIC:Pacify.ogg;
#OFFSET:-2.280;
#SAMPLESTART:24.286;
#SAMPLELENGTH:12.000;
#SELECTABLE:YES;
#LISTSORT:;
#BPMS:0.000=175.000;
#STOPS:;
#BGCHANGES:;
#ATTACKS:;

//---------------dance-single - ----------------
#NOTES:
     dance-single:
     :
     Hard:
     15:
     0.761,0.767,0.159,0.151,0.392:
0000
0000
0000
0000
,
0000
0000
0000
0000
,
0000
0000
0000
0000
,
0000
0000
0000
0000
,
0000
0000
0000
0000
,
0000
0000
0000
0000
,
0000
0000
0000
0000
,
0000
0000
0000
0000
0010
1000
0010
1000
,
0100
1000
0000
0010
1000
0100
1000
0010
,
0000
0000
0100
0001
0100
0000
0001
0000
1000
0001
1000
0000
0010
0000
0100
0000
,
0000
0001
0100
0010
1000
0000
1000
0001
,
1000
0000
0010
0100
0010
0000
0100
0000
0001
0100
0001
0000
0100
0000
0010
0000
,
1000
0010
1000
0010
0100
0001
0100
0001
,
1000
0000
0001
1000
0001
0000
1000
0000
0010
0000
0100
0000
0010
0000
0100
0000
,
0001
0010
0100
1000
0001
0100
0010
1000
,
0001
0000
0100
0010
0100
0000
0001
0000
1000
0100
0010
0000
0001
0000
1000
0000
,
0001
0000
0000
0000
0001
0000
0100
0001
0100
0000
0010
0000
1000
0000
1000
0010
,
0000
0000
0010
0001
0000
0000
0001
0100
0001
0000
0100
0000
0010
0000
1000
0000
,
0001
0000
0000
0000
0001
1000
0000
0000
0010
0000
0010
1000
0010
1000
0010
0000
,
0000
0000
1000
0001
1000
0001
1000
0000
0010
1000
0100
0000
1000
0000
0001
0000
,
0100
0000
0000
0000
0010
0000
1000
0100
1000
0000
0010
0100
0001
0000
1000
0000
,
0000
0000
0001
0000
0000
0000
1000
0010
0100
0000
0001
0000
1000
0000
0010
0000
,
1000
0000
0000
0000
0001
0100
0000
0000
0010
1000
0010
0000
0100
0001
0100
0000
,
0000
0000
0010
1000
0100
1000
0010
0000
0100
0001
0010
0000
0001
0000
1001
0000
,
0000
0000
0000
0000
0120
0000
0000
0000
1030
0000
0001
0000
1000
0000
0010
1000
,
0000
0000
1000
0010
0000
0000
0010
0000
0100
0000
0002
0000
1000
0000
1003
0000
,
0000
0000
0120
0000
1030
0100
0010
0001
,
0000
0000
0010
1000
0100
1000
0010
0000
0001
0100
0010
0000
1000
0000
0001
0000
,
1000
0000
0000
0000
0001
0000
0100
0010
0100
0000
0001
1000
0001
0000
1000
0000
,
0000
0101
0000
1010
0010
0100
0001
1000
,
0001
0000
1200
0000
1300
0010
0100
0001
,
0000
0000
0001
0100
0001
0100
0001
0000
1000
0010
1000
0000
0001
0000
0100
0000
,
0010
0010
1000
0001
0001
0000
1000
0100
,
0000
0000
0010
1000
0010
0000
0100
0000
0001
0010
0001
0000
0100
0000
0010
0000
,
0000
1000
0010
0100
0001
0000
1001
0000
,
1000
0000
0010
0100
0010
0000
1000
0000
0001
0000
0100
0000
0010
0000
1000
0000
,
0001
0001
1000
0100
1000
0010
0100
0100
,
0000
0000
0001
0100
0001
0000
1000
0000
0010
0100
0010
1000
0010
0000
0100
0000
,
0000
0001
0001
1000
0010
0010
0100
0100
,
0000
0000
0001
0100
0001
1000
0010
1000
0100
0000
0000
0000
1002
0000
0000
0000
,
0103
0000
0100
0000
0001
0000
0100
0000
0000
0000
0010
1000
0010
0000
0100
0000
,
0000
0000
0001
0000
1000
0000
0001
0000
0000
0000
0100
0010
1000
0000
0010
0000
,
1000
0000
0100
0000
0010
0000
0001
0000
0000
0000
0100
0001
0100
0000
0010
0000
,
0000
0000
1000
0000
0010
0000
0100
0000
0000
1000
0001
1000
0001
0000
0100
0000
,
0010
0000
0010
0000
1000
0000
0010
0000
0000
0000
1000
0010
0100
0000
0001
0000
,
0000
0000
1000
0000
0100
0000
1000
0000
0001
0000
0010
0001
0010
0000
0001
0000
,
0100
0000
0010
0000
1000
0000
0001
0000
0000
0000
1000
0001
0100
0000
0001
0000
,
0000
0000
1000
0001
0100
0001
1000
0000
0001
0000
0010
0000
0100
0000
1000
0000
,
0000
0000
0002
0000
0000
0000
0103
0010
,
0000
1000
0000
0001
0100
0010
0000
1000
,
0001
0200
0000
0320
,
1030
0001
1000
0020
0000
0000
0130
0000
,
0002
0000
1003
0010
1000
0100
1000
0010
,
0000
0101
0000
1000
0020
0000
0130
0001
,
1000
0202
0303
1010
,
0001
1000
0010
0100
0001
0010
0100
1000
,
0001
0000
0000
0000
0001
0000
0100
0001
0100
0000
0010
0000
1000
0000
1010
0000
,
0000
0000
0101
0000
0000
0000
0001
1000
0001
0000
0100
0000
0010
0000
1000
0000
,
0100
0000
0000
0000
0001
1000
0000
0000
0010
0000
0100
0001
0100
0001
0100
0000
,
0000
0000
0001
0010
0001
0100
0001
0000
0010
0001
0100
0000
0001
0000
1000
0000
,
0100
0000
0000
0000
0010
0000
1000
0100
1000
0000
0010
0100
0001
0000
1000
0000
,
0000
0000
0001
0000
0000
0000
1000
0001
0100
0000
0001
0000
1000
0000
0001
0000
,
0100
0000
0000
0000
0001
0100
0000
0000
0010
0100
0010
1000
0001
0100
0001
0000
,
0000
0000
0010
1000
0100
1000
0010
0000
0100
0001
0010
0000
0001
0000
1001
0000
,
0000
0000
0000
0000
0120
0000
0000
0000
1030
0000
0001
0000
1000
0000
0010
1000
,
0000
0000
1000
0010
0000
0000
0010
0000
0100
0000
0010
0000
1000
0000
1001
0000
,
0000
0000
0102
0000
0013
0001
1000
0100
,
0000
0000
0010
0001
0100
0001
1000
0000
0010
1000
0100
0000
0001
0000
0100
0000
,
0100
0000
0000
0000
0001
0000
1000
0100
0010
0001
0100
0001
1000
0000
0100
0000
,
0000
0101
0000
1010
0010
0100
0001
1000
,
0001
0000
0000
0000
1200
0000
0000
0000
1300
0000
0010
1000
0100
1000
0010
0100
,
0000
0000
0001
0010
0100
1000
0001
0000
0010
0100
0001
0000
1000
0000
0100
0000
,
1000
1000
0001
0100
0010
1000
0100
1000
,
0001
0000
0100
0010
1000
0000
0001
0000
1000
0010
0100
0000
0001
0000
1000
0000
,
0010
0010
1000
0100
1000
0001
0100
0010
,
1000
0000
0001
0100
0010
0000
1000
0000
0001
0100
0001
0000
1000
0000
0100
0000
,
1000
0010
0001
0010
1000
0100
0001
0100
,
1000
0000
0010
0100
0010
0000
1000
0000
0001
0100
0001
0000
1000
0000
0100
0000
,
1000
0010
0010
0010
0100
0001
0001
0001
,
1000
0000
0001
0010
0100
0000
1000
0000
0001
0100
0010
0000
1000
0000
0001
0000
,
1000
1000
0100
1000
0010
0100
0001
1000
,
0010
0000
0100
0001
0100
0000
0010
0000
1000
0000
0100
0000
0010
0000
0001
0000
,
0100
0001
0001
1000
1000
0010
1000
0100
,
1000
0000
0001
0100
0010
0000
0100
0000
0001
0000
0010
0000
0100
0000
1000
0000
,
0010
0010
1000
0100
0100
1000
0001
1000
,
0100
0000
1000
0010
0100
0000
0001
0000
1000
0010
1000
0000
0100
0000
1000
0000
,
0000
0010
0100
0001
0000
1000
0002
0000
,
0100
0010
2003
0002
,
3003
0000
0000
0000
;

//---------------dance-double - ----------------
#NOTES:
     dance-double:
     :
     Hard:
     15:
     0.725,0.767,0.143,0.095,0.325:
00000000
00000000
00000000
00000000
,
00000000
00000000
00000000
00000000
,
00000000
00000000
00000000
00000000
,
00000000
00000000
00000000
00000000
,
00000000
00000000
00000000
00000000
,
00000000
00000000
00000000
00000000
,
00000000
00000000
00000000
00000000
,
00000000
00000000
00000000
00000000
00100000
10000000
01000000
10000000
,
00100000
00100000
00000000
10000000
01000000
00100000
00010000
01000000
,
00000000
00000000
00010000
00100000
00010000
00000000
00100000
00000000
00001000
00000000
00010000
00000000
00000010
00000000
00001000
00000000
,
00000000
00000001
00001000
00000100
00001000
00000000
00000100
00010000
,
00001000
00000000
00010000
00001000
00010000
00000000
00001000
00000000
01000000
00010000
01000000
00000000
00100000
00000000
10000000
00000000
,
00010000
10000000
00000000
00100000
01000000
00010000
01000000
00100000
,
00000000
00000000
01000000
00000000
00001000
00000000
00010000
00000000
00001000
00010000
00001000
00000000
00010000
00000000
00000100
00000000
,
00001000
00000010
00000100
00000001
00001000
00000010
00000100
00000001
,
00001000
00000000
00000100
00001000
00000100
00000000
00001000
00000000
00000100
00000000
00010000
00000000
00001000
00000000
01000000
00000000
,
00100000
00000000
00000000
00000000
10000000
00000000
00010000
01000000
00010000
00000000
01000000
00000000
00100000
00000000
10000000
00000000
,
00000000
00000000
10000000
00100000
00000000
00000000
00100000
00010000
00100000
00000000
00010000
00000000
01000000
00000000
00100000
00000000
,
10000000
00000000
00000000
00000000
00100000
01000000
00000000
00000000
00010000
00000000
00100000
00001000
00100000
00001000
00100000
00000000
,
00000000
00000000
00001000
00010000
00000100
00010000
00001000
00000000
00100000
00010000
00100000
00000000
00010000
00000000
01000000
00000000
,
00100000
00000000
00000000
00000000
10000000
00000000
00010000
01000000
00010000
00000000
10000000
01000000
10000000
00000000
00100000
00000000
,
00000000
00000000
11000000
00000000
00000000
00000000
00100000
00001000
00010000
00000000
00000100
00000000
00001000
00000000
00000001
00000000
,
00001000
00000000
00000000
00000000
00000100
00001000
00000000
00000000
00000100
00000000
00010000
00000000
00001000
00000000
01000000
00000000
,
00000000
00000000
00100000
10000000
01000000
00100000
00010000
00000000
01000000
00010000
00100000
00000000
00001000
00000000
00010000
00000000
,
00000100
00000000
00000000
00000000
00001000
00000000
00000010
00000100
00000010
00000000
00001000
00000000
00000100
00000000
00000010
00000000
,
00000000
00001010
00000000
00000001
00000100
00000010
00000010
00001000
,
00000100
00000000
00000000
00000000
00010100
00000000
00000000
00000000
00010000
00000000
00001000
00100000
00010000
00100000
00001000
00000000
,
00100000
00000000
00010000
01000000
00100000
00000000
10000000
00000000
00010000
01000000
00010000
00000000
10000000
00100000
10000000
00000000
,
10010000
00000000
00000000
00000000
10000000
00000000
00100000
10000000
00100000
01000000
00100000
10000000
00100000
00000000
01000000
00000000
,
00000000
00000000
00101000
00000000
00000000
00000000
00010000
00000100
00010000
00000000
00000100
00000000
00001000
00000000
00000001
00000000
,
00000000
00000000
00000000
00000000
00000020
00000000
00000000
00000000
00001030
00000000
00000001
00000000
00001000
00000100
00000010
00000001
,
00000000
00000000
00001000
00000100
00001000
00000100
00001000
00000000
00000100
00000000
00010000
00000000
00001000
00000000
01000000
00000000
,
00100000
10000000
01000000
00100000
00001000
00010000
00000010
00000100
,
00000000
00000000
00000001
00001000
00000001
00000000
00001000
00000000
00000100
00001000
00000100
00000000
00001000
00000000
00000010
00000000
,
00010000
00001000
01000000
00100000
10000000
00000000
10100000
00000000
,
00010000
00000000
01000000
00100000
01000000
00000000
00010000
00000000
00100000
00001000
00100000
00000000
00001000
00000000
00010000
00000000
,
00000010
00001000
00000001
00001000
00000100
00010000
00001000
01000000
,
00000000
00000000
10000000
00010000
10000000
00000000
00100000
00000000
01000000
00010000
00100000
00010000
01000000
00000000
00001000
00000000
,
00010000
00000100
00001000
00000001
00001000
00000010
00010000
00001000
,
01000000
00000000
00100000
10000000
00100000
00000000
01000000
00000000
00010000
00000000
10000000
00000000
10010000
00000000
00000000
00000000
,
01000000
00000000
00010000
00000000
00100000
00000000
00010000
00000000
00000000
00000000
10000000
00010000
10000000
00000000
00100000
00000000
,
00000000
00000000
01000000
00000000
00001000
00000000
00010000
00000000
00000000
00000000
00001000
00010000
00001000
00000000
00010000
00000000
,
00000100
00000000
00001000
00000000
00000010
00000000
00001000
00000000
00000000
00000000
00000001
00000100
00000001
00000000
00001000
00000000
,
00000000
00000000
00000010
00000000
00001000
00000000
00000100
00000000
00010000
00000100
00010000
00000100
00010000
00000000
00001000
00000000
,
00100000
00000000
00010000
00000000
01000000
00000000
00100000
00000000
00000000
00000000
10000000
01000000
10000000
00000000
00100000
00000000
,
00000000
00000000
01000000
00000000
00001000
00000000
00010000
00000000
00000000
00000000
00000100
00001000
00000100
00000000
00001000
00000000
,
00000001
00000000
00001000
00000000
00000100
00000000
00010000
00000000
00000000
00000000
00001000
01000000
00001000
00000000
01000000
00000000
,
00000000
00000000
00010000
10000000
00100000
10000000
01000000
00000000
10000000
00000000
00100000
00000000
01000000
00000000
00010000
00000000
,
00000000
00000000
00200000
00000000
00000000
00000000
00310000
01000000
,
00000000
00001000
00000000
00010000
00000000
00000010
00000000
00001000
,
00000000
00000002
00000000
00001003
,
00000100
00010000
00000100
00010000
00000000
00001000
00000000
01000000
,
00000000
00000000
00100000
00000000
10000000
01000000
00100000
00010000
,
00000000
00100000
00000000
00001000
00010000
00000000
00000010
00001000
,
00000001
00002200
00003300
00010100
,
00001000
00100000
00010000
10000000
00010000
01000000
00001000
00010000
,
00001000
00000000
00010000
00000100
00001000
00000001
00001000
00000100
,
00000000
00010100
00000000
00010000
00001000
01000000
00010000
10000000
,
00100000
00000000
00000000
00000000
10020000
00000000
00000000
00000000
01030000
00000000
00100000
10000000
01000000
10000000
00100000
00000000
,
01000000
00001000
00010000
00000010
00001000
00000001
00001000
00000100
,
00010000
00000000
00000000
00000000
00001000
00000000
00010000
00001000
00100000
00001000
00100000
00001000
00100000
00000000
00010000
00000000
,
00000000
00000000
01010000
00000000
00000000
00000000
00100000
10000000
01000000
00000000
10000000
00000000
00010000
00000000
00100000
00000000
,
01000000
00000000
00000000
00000000
10000000
01000000
00000000
00000000
00100000
00000000
00001000
00000000
00010000
00000000
00000010
00000000
,
00001000
00000000
00000001
00001000
00000100
00001000
00000001
00000000
00001000
00000010
00001000
00000000
00000100
00000000
00010000
00000000
,
00001000
00000000
00000000
00000000
01000000
00000000
00010000
00000000
10000000
00000000
00100000
00000000
01000000
00000000
00010000
01000000
,
00000000
00000000
01000000
00100000
00000000
00000000
01000000
00000000
00010000
00000000
00010000
00000000
10000000
00000000
01000000
00000000
,
10000000
00000000
01020000
00000000
00130000
00001000
00010000
00000010
,
00000000
00000000
00000001
00000100
00000001
00000010
00000001
00000000
00001000
00000000
00000100
00000000
00010000
00000000
00001000
00000000
,
01000000
00000000
00000000
00000000
00100000
00000000
10000000
01000000
10000000
00010000
10000000
00010000
00100000
00000000
00001000
00000000
,
00000000
00000000
00010100
00000000
00000000
00000000
00001000
00000010
00000100
00000000
00000001
00000000
00001000
00000000
00000100
00000000
,
00010000
00000000
00002000
00000000
01003000
00010000
10000000
00010000
,
00000000
00000000
10000000
00100000
01000000
00100000
10000000
00000000
00010000
00000000
00100000
00000000
00001000
00000000
00010000
00000000
,
00000010
00000010
00001000
00000100
00001000
00000001
00000100
00000010
,
00000000
00000000
00001000
00000100
00010000
00000000
00001000
00000000
00010000
00000000
00001000
00000000
01000000
00000000
00100000
00000000
,
10000000
00010000
01000000
00010000
01010000
00000000
00011000
00000000
,
00010000
00000000
00000100
00000000
00001000
00000000
00000001
00000000
00001000
00000010
00000100
00000000
00000001
00000000
00001000
00000000
,
00000000
00000100
00010000
00001000
01000000
00100000
10000000
01000000
,
00000000
00000000
10000000
00010000
01000000
00000000
00010000
00000000
00100000
00001000
00010000
00000000
00001000
00000000
00010000
00000000
,
00000010
00001000
00000001
00001000
00000100
00010000
00001000
01000000
,
00100000
00000000
10000000
01000000
10000000
00000000
00100000
00000000
01000000
00010000
00100000
00000000
00010000
00000000
00100000
00000000
,
00001000
00010000
00000000
00000100
00001000
00000001
00001000
00000100
,
00000000
00000000
00010000
00001000
00010000
00000000
00001000
00000000
01000000
00000000
00100000
00000000
10000000
00000000
00010000
00000000
,
00000000
10000000
00010000
00100000
00001000
00000000
00010100
00000000
,
00001000
00000000
00000010
00000100
00000001
00000000
00000100
00000000
00000010
00001000
00000100
00000000
00001000
00000000
00000100
00000000
,
00010000
00001000
01000000
00100000
10000000
00000000
01010000
00000000
,
10000000
00100000
01000000
00001000
00010000
00000100
00001000
00000010
,
00001000
00000000
00000001
00001000
00000200
00000000
00020300
00000000
,
00000000
00000000
00032000
00020000
,
00033000
00000000
00000000
00000000
;

//---------------dance-double - ----------------
#NOTES:
     dance-double:
     :
     Medium:
     11:
     0.498,0.488,0.167,0.230,0.000:
00000000
00000000
00000000
00000000
,
00000000
00000000
00000000
00000000
,
00000000
00000000
00000000
00000000
,
00000000
00000000
00000000
00000000
,
00000000
00000000
00000000
00000000
,
00000000
00000000
00000000
00000000
,
00000000
00000000
00000000
00000000
,
00000000
00000000
00000000
10010000
,
01000000
10000000
00000000
00100000
01000000
00000000
00010000
00100000
,
00000000
00001000
00010000
00000000
00000100
00001000
00000010
00000000
,
00000100
00000001
00001000
00000001
00000100
00000000
00000010
00000000
,
00001000
00000100
00001000
00000010
00000100
00000001
00001000
00000000
,
00000100
00010000
00001000
01000000
,
00100000
10000000
00100000
01000000
00100000
10000000
00100000
00000000
,
01000000
00001000
00010000
00000100
,
00000000
00000010
00001000
00000000
00000100
00001000
00000010
00000000
,
00001000
00000000
00000001
00000000
00001000
00000100
00000010
00000001
,
00000000
00001100
00000000
00000100
00000000
00010000
00001000
00100000
,
00000000
00000000
01010000
00000000
00100000
10000000
01000000
10000000
,
00000000
00100000
01000000
00000000
00001000
00010000
00001000
00000000
,
00010000
00000000
00000100
00000000
00001000
00000010
00000100
00000001
,
00000000
00001001
00000000
00000001
00001000
00000010
00001000
00000100
,
00000000
00000000
00010000
00000000
00001000
00100000
00001000
00100000
,
00000000
00010000
01000000
00000000
00100000
10000000
01000000
00100000
,
00010000
00000000
01000000
00000000
00001000
00100000
00001000
00100000
,
00000000
00011000
00000000
00010000
00000100
00002000
00000000
00003010
,
00000000
00000000
00000100
00000000
00000001
00001000
00000100
00001000
,
00000000
00000010
00001000
00000100
00010000
00000100
00010000
00001000
,
00000000
00000000
00100000
00000000
00010000
01000000
00100000
10000000
,
00000000
01010000
00000000
10000000
00100000
00000000
01000000
00010000
,
00000000
00000000
00100000
00000000
00001000
00010000
00000100
00010000
,
00000000
00000020
00000000
00000030
00001000
00000100
00000010
00000000
,
00010000
00001000
00000000
00010000
00001000
00000000
00100000
00010000
,
00000000
00100000
00010000
01000000
00100000
10000000
01000000
00000000
,
00000000
10000000
00100000
10000000
00100000
00000000
01000000
00000000
,
00001000
00010000
00001000
00000000
00010000
00000100
00010000
00000000
,
00000100
00001000
00000010
00000000
00001100
00000000
00001000
00000001
,
00000000
00001000
00000100
00000000
00000010
00000001
00000100
00000000
,
00001000
00000100
00010000
00000100
00010000
00000000
00001000
00000000
,
00100000
00010000
01000000
00010000
00100000
00000000
10010000
00000000
,
10000000
00020000
00000000
00230000
,
00301000
00010000
00000100
00002000
00000000
00003002
00000000
00002003
,
00003000
00000000
00000020
00000000
00000000
00001030
00000100
00001000
,
00000000
00020000
00000000
00031000
02000000
00000000
03010000
10000000
,
00000000
00000000
00200000
00000000
00000000
10000000
00000000
01300000
,
00000000
20000000
00000000
30010000
00100000
00000000
00001000
00010000
,
00000000
00000000
00002000
00000000
00000000
00013000
00000100
00000000
,
00001000
00000010
00000100
00001001
,
00000010
00000000
00000010
00000000
00000000
00001000
00000000
00000100
,
00000000
00001000
00000000
00010000
00000000
00001000
00000000
00000000
,
00100000
00000000
00100000
00000000
00000000
00010000
00000000
01000000
,
00000000
10000000
00000000
00100000
01000000
00000000
00010000
00000000
,
00100000
00000000
00100000
00000000
00000000
00001000
00000000
00010000
,
00000000
00000010
00000000
00001000
00000000
00000001
00000000
00000000
,
00000100
00000000
00000100
00000000
00000000
00010000
00000000
00001000
,
00010000
00001000
01000000
00100000
,
10000000
00000000
00010000
00000000
00100000
00001000
00100000
00001000
,
00000000
00010000
00000000
00000100
00000000
00001000
00000001
00000100
,
00000000
00000000
00001001
00000000
00001000
00000100
00001000
00000100
,
00000000
00010000
00001000
00000000
00100000
00010000
01000000
00000000
,
00100000
00000000
10010000
00000000
10000000
01000000
00100000
00010000
,
00000000
01100000
00000000
10010000
00000000
00100000
00001000
00010000
,
00000000
00000000
00010100
00000000
00000100
00001000
00000010
00000100
,
00000000
00000001
00001000
00000100
00001000
00000001
00000100
00000010
,
00000000
00000000
00001100
00000000
00000100
00010000
00001000
00100000
,
00000000
01010000
00000000
10000000
00100000
02000000
00000000
03010000
,
00000000
00000000
00100000
00000000
00001000
00010000
00000100
00010000
,
00000000
00000020
00000000
00000030
00001000
00000100
00000010
00000001
,
00000000
00000000
00001100
00000000
00000100
00010000
00001000
00010000
,
00000000
00101000
00000000
00100000
00020000
00000000
01030000
00100000
,
00000000
00000000
10000000
00000000
00010000
00100000
01000000
10000000
,
00000000
00100000
01000000
00000000
00001000
00000000
00011000
00000000
,
00010000
00000000
00000100
00000000
00001000
00000010
00000100
00000002
,
00000000
00001000
00000100
00001003
,
00000010
00020000
00001000
00031000
,
00010000
00001000
01000000
00010000
20000000
00000000
30020000
00000000
,
01030000
00000000
00200000
00000000
00000000
00000000
00000000
10300000
,
00000000
00010000
00000000
00100000
00000000
00001000
00010000
00000100
,
00000000
00001000
00000001
00000100
00000000
00000000
00000020
00000000
,
00001000
00000100
00001030
00001001
,
00001000
00000000
00000020
00000000
00000000
00010030
00001000
00020000
,
00000000
00000000
00031000
00000000
00100000
00010000
01000000
00100000
,
10000000
00000000
00020000
00000000
00000000
00000000
00000000
00130000
,
00000000
00001000
00010000
00000100
00000000
00001000
00000010
00000100
,
00000000
00000002
00000000
00001003
,
00000100
00010000
00000000
00001000
00000000
00100000
00010000
01000000
,
00000000
00100000
00000000
10100000
00000000
00000000
02000000
00000000
,
00000000
00000000
03020000
00200000
,
00330000
00000000
00000000
00000000
;

//---------------dance-single - ----------------
#NOTES:
     dance-single:
     :
     Medium:
     10:
     0.494,0.488,0.230,0.278,0.000:
0000
0000
0000
0000
,
0000
0000
0000
0000
,
0000
0000
0000
0000
,
0000
0000
0000
0000
,
0000
0000
0000
0000
,
0000
0000
0000
0000
,
0000
0000
0000
0000
,
0000
0000
0000
1001
,
0100
0010
0000
0010
0100
0000
0001
1000
,
0000
1000
0001
0000
1000
0001
0100
0000
,
0001
0100
0001
0010
0001
0000
0100
0000
,
0001
0100
0001
0000
1000
0001
1000
0000
,
0100
0010
0001
0100
,
0001
0001
0100
0010
1000
0000
0001
0000
,
1000
0001
0100
0010
,
0000
1000
0001
0000
0010
0000
1001
0000
,
0100
0000
0002
0000
0103
0000
1000
0001
,
0000
0110
0000
0002
0000
1003
0010
1000
,
0000
0000
0011
0000
0001
0100
0010
1000
,
0000
0001
1000
0000
0001
0100
0001
0000
,
1000
0000
0001
0000
0001
0100
0010
1000
,
0000
1001
0000
0100
0010
0000
1000
0001
,
0000
0000
0010
0000
1000
0010
0010
0100
,
0000
0100
0001
0000
1000
0001
1000
0001
,
0000
0000
0002
0000
1003
0100
0010
0001
,
0000
0101
0000
0010
1000
0020
0000
0130
,
0000
0000
0010
0000
0001
0100
0010
1000
,
0000
0001
0100
0000
0001
1000
0100
1000
,
0000
0000
1001
0000
1000
0010
0100
0001
,
0000
1010
0000
0001
0100
0000
0001
0100
,
0000
0000
0001
0000
1000
0010
0100
0001
,
0000
0200
0000
0000
0301
1000
0001
0000
,
0100
0010
0000
0100
0010
0000
0100
0010
,
0000
1000
0010
0000
0100
0001
0100
0000
,
0000
1000
0010
0100
0001
0000
0010
0000
,
1000
0001
1000
0000
0001
0100
0001
0000
,
1000
0010
1000
0000
0101
0000
1010
0000
,
0000
0100
0001
0000
0100
0001
1000
0000
,
0001
0010
0001
0010
0001
0000
0100
0000
,
1000
0010
1000
0010
1000
0000
1001
0000
,
0100
0002
0000
0023
,
0130
0000
0010
2000
0000
3002
0000
2003
,
3000
0000
0020
0000
0000
0031
0010
0100
,
0000
0002
0000
1003
0200
0000
0300
0010
,
0000
0000
0020
0000
0000
0001
0000
0130
,
0000
2000
0000
3000
0010
0000
0001
0100
,
0000
0000
2000
0000
0000
3010
1000
0000
,
0100
0001
1000
1001
,
0010
0000
0010
0000
0000
0100
0000
0001
,
0000
0001
0000
0001
0000
1000
0000
0000
,
0001
0000
0001
0000
0000
1000
0000
0010
,
0000
0100
0000
0100
0001
0000
1001
0000
,
0010
0000
1000
0000
0000
0100
0000
0001
,
0000
0100
0000
1000
0000
0010
0000
0000
,
1001
0000
1001
0000
0000
0010
0000
0100
,
0001
0010
0100
1001
,
1000
0000
0002
0000
0103
0001
0100
0010
,
0000
0100
0000
1000
0000
0100
0001
1000
,
0000
0000
1001
0000
1000
0001
0010
0001
,
0000
0000
0110
0000
1000
0001
0100
0000
,
1000
0000
1100
0000
0001
0000
0100
0001
,
0000
1001
0000
1010
0000
1000
0010
0100
,
0000
0000
0101
0000
0100
0001
1000
0001
,
0000
0100
0010
0000
1000
0010
0100
0001
,
0000
0000
1001
0000
1000
0001
0100
0001
,
0000
1010
0000
1000
0002
0000
0203
0000
,
0310
0000
1001
0000
1000
0001
0100
0001
,
0000
2000
0000
0000
3001
0100
0010
1000
,
0000
0000
0011
0000
0001
1000
0010
0100
,
0000
0101
0000
1000
0020
0000
0130
0100
,
0000
0000
0100
0000
0001
0100
0010
1000
,
0000
0001
2000
0000
3020
0000
0130
0000
,
1000
0000
0020
0000
0000
0130
0010
2000
,
0000
0000
3010
0000
0000
0000
1000
0001
,
0000
0002
0010
1003
,
0010
1000
0010
0000
0100
0001
0100
0000
,
0010
0000
0020
0000
0000
0000
0000
1030
,
0000
1000
0000
0100
0000
0010
0010
1000
,
0000
0001
0001
0100
0000
0000
0002
0000
,
1000
1003
0010
0110
,
1000
0000
0020
0000
0000
0130
0001
2000
,
0000
0000
0000
0000
3001
0100
0001
0100
,
0010
0000
0002
0000
0000
0000
0000
1003
,
0000
0001
0100
0001
0000
0001
1000
0001
,
0000
0002
0000
0103
,
0010
1000
0000
0001
0000
1000
0001
0100
,
0000
0001
0000
1010
0000
0000
0200
0000
,
0000
0000
0302
2000
,
3003
0000
0000
0000
;

//---------------dance-single - ----------------
#NOTES:
     dance-single:
     :
     Easy:
     6:
     0.347,0.454,0.293,0.206,0.000:
0000
0000
0000
0000
,
0000
0000
0000
0000
,
0000
0000
0000
0000
,
0000
0000
0000
0000
,
0000
0000
0000
0000
,
0000
0000
0000
0000
,
0000
0000
0000
0000
,
0000
0000
0000
0000
,
0100
0010
0000
0010
,
0000
0001
1000
0001
,
0000
0100
0000
0100
,
0000
0001
1000
0001
,
1000
0100
0001
0100
,
1000
0010
0001
0010
,
1000
0100
0010
0001
,
0000
0001
0010
0100
,
0000
2002
3003
0010
,
0000
1000
0010
0001
,
0000
0001
0010
1000
,
0000
1001
1010
0101
,
0000
0001
0010
1000
,
0000
0001
0100
1000
,
0000
0001
0110
1001
,
0000
1000
0110
1001
,
0000
0001
2000
3000
,
0001
0010
0100
1000
,
0000
0110
1001
0110
,
0000
0001
0100
1000
,
0000
0001
1000
0010
,
0000
1000
0001
0100
,
0000
0010
0100
1001
,
0000
0100
0010
1001
,
0100
0010
0100
0010
,
1000
0100
0010
0001
,
1000
0001
1000
0001
,
0100
0010
1000
0001
,
1000
0010
0001
0010
,
1000
0001
0100
0001
,
1000
0100
0001
0100
,
1000
0010
0100
0001
,
0100
0002
0000
1003
,
0000
0010
1000
0100
,
0000
0002
0000
1003
,
0000
0100
0001
0010
,
0000
0200
0001
0310
,
0000
0020
1000
0130
,
0000
2000
0001
3100
,
0000
0002
0000
0103
,
0002
0000
0000
0000
,
0003
1000
0000
1000
,
2000
0000
0000
0000
,
3000
0010
0000
0010
,
0020
0000
0000
0000
,
0030
0100
0000
0100
,
0002
0000
2000
3003
,
0000
0010
0100
0001
,
1000
0001
0100
1001
,
0000
0100
1000
0001
,
0000
0100
0001
1000
,
0000
0110
1010
0101
,
0000
0100
0001
0010
,
0000
1000
0010
0100
,
0000
1001
0110
1001
,
0000
0011
1001
0011
,
0000
0001
0110
1001
,
1000
0100
0010
0001
,
0000
0101
1010
0101
,
0000
1010
1001
1010
,
0000
0001
0100
1000
,
0100
0001
0010
0100
,
0000
0110
1001
1010
,
0000
0101
0011
1001
,
2000
0010
0000
3001
,
0002
0100
0000
1003
,
0200
0001
0000
0310
,
1000
0010
0100
0001
,
0010
0020
0000
0130
,
1000
2000
0001
3010
,
0002
1000
0100
0200
,
0000
0303
1000
0001
,
1000
0010
0000
0010
,
0000
1000
0000
0001
,
0010
0002
0000
1003
,
0001
0010
0100
1000
,
0001
0002
0000
0103
,
0010
1000
0001
0100
,
0010
1000
0001
0200
,
0000
0000
0302
2000
,
3003
0000
0000
0000
;

//---------------dance-single - ----------------
#NOTES:
     dance-single:
     :
     Beginner:
     4:
     0.198,0.244,0.056,0.111,0.000:
0000
0000
0000
0000
,
0000
0000
0000
0000
,
0000
0000
0000
0000
,
0000
0000
0000
0000
,
0000
0000
0000
0000
,
0000
0000
0000
0000
,
0000
0000
0000
0000
,
0000
0000
0000
0000
,
0000
0010
0000
0010
,
0000
0001
0000
0001
,
0000
0100
0000
0100
,
0000
1000
0000
1000
,
0000
0100
0000
0100
,
0000
0010
0000
0010
,
0000
0100
0000
0001
,
0000
0010
0000
1000
,
0000
2002
0000
3003
,
0000
1000
0000
0001
,
0000
0001
0000
1000
,
0000
0010
0000
0010
,
0000
0001
0000
1000
,
0000
0001
0000
1000
,
0000
1000
0000
0001
,
0000
1000
0000
0001
,
0000
0001
0000
0001
,
0000
0010
0010
0010
,
0000
1000
0000
1000
,
0000
0100
0100
0100
,
0000
1000
0000
0001
,
0000
0100
0100
0100
,
0000
0001
0000
1000
,
0000
0010
0010
0010
,
0000
1000
0000
0001
,
0000
0100
0100
0100
,
0000
0001
0000
1000
,
0000
0010
0010
0010
,
0000
1000
1000
1000
,
0000
0001
0001
0001
,
0000
0100
0000
0100
,
0000
0010
0000
0010
,
0000
0002
0000
0003
,
0000
0010
0000
0100
,
0000
2000
0000
3000
,
0000
0100
0000
0010
,
0000
0002
0000
0003
,
0000
2000
0000
3000
,
0000
0001
0000
1001
,
0000
1000
0000
1001
,
0000
0000
0000
0000
,
0000
0000
0000
0000
,
0000
0000
0000
0000
,
0000
0000
0000
0000
,
0010
0000
0000
0000
,
1000
0000
0000
0000
,
0001
0000
0000
0000
,
0010
0000
0000
0000
,
0000
0002
0000
0003
,
0000
0010
0000
0010
,
0000
2000
0000
3000
,
0000
0010
0000
0010
,
0000
0200
0000
0300
,
0000
1000
0000
0001
,
0000
0200
0000
0300
,
0000
0001
0000
1000
,
0000
0001
0001
0001
,
0000
1000
1000
1000
,
0000
0010
0010
0010
,
0000
0100
0100
0100
,
0000
1001
0000
1001
,
0000
0100
0100
0100
,
0000
1001
0000
1001
,
0000
0010
0010
0010
,
0000
1000
0000
0002
,
0000
0000
0000
0003
,
0000
0001
0000
1000
,
1000
1000
0000
0001
,
0000
0010
0000
0100
,
0000
1000
0000
0001
,
0000
1000
0000
0200
,
0000
0300
0100
0100
,
0000
0010
0000
0010
,
0000
1000
0000
0001
,
0000
1000
0000
0001
,
0000
0010
0010
0010
,
0000
0001
0000
0100
,
0000
1000
0000
0010
,
0000
1000
1000
2000
,
0000
3000
0001
0002
,
0003
0000
0000
0000
;

//---------------dance-double - ----------------
#NOTES:
     dance-double:
     :
     Easy:
     6:
     0.308,0.384,0.214,0.254,0.000: // measure 1
00000000
00000000
00000000
00000000
,  // measure 2
00000000
00000000
00000000
00000000
,  // measure 3
00000000
00000000
00000000
00000000
,  // measure 4
00000000
00000000
00000000
00000000
,  // measure 5
00000000
00000000
00000000
00000000
,  // measure 6
00000000
00000000
00000000
00000000
,  // measure 7
00000000
00000000
00000000
00000000
,  // measure 8
00000000
00000000
00000000
00000000
,  // measure 9
00000000
01000000
00000000
01000000
,  // measure 10
00000000
10000000
00010000
00100000
,  // measure 11
00000000
00010000
00000000
00010000
,  // measure 12
00000000
00100000
00001000
00010000
,  // measure 13
00000000
00000100
00000000
00000100
,  // measure 14
00000000
00000001
00001000
00000100
,  // measure 15
00000000
00010000
00000000
00010000
,  // measure 16
00000000
00001000
00020000
00030000
,  // measure 17
00000000
00200000
00000000
00300000
,  // measure 18
00010000
01000000
00100000
10000000
,  // measure 19
00000000
00200000
00000000
00300000
,  // measure 20
00001000
00010000
00000010
00001000
,  // measure 21
00000002
00000000
00000000
00000003
,  // measure 22
00001000
00000100
00010000
00001000
,  // measure 23
02000000
00000000
00000000
03000000
,  // measure 24
00100000
10000000
01000000
00100000
,  // measure 25
00000000
20020000
00000000
30030000
,  // measure 26
00100000
00001000
00010000
00000010
,  // measure 27
00000000
00002002
00000000
00003003
,  // measure 28
00000100
00010000
00001000
01000000
,  // measure 29
00000000
20020000
00030000
31000000
,  // measure 30
00000000
10000000
00010000
01000000
,  // measure 31
00000000
02002000
00000000
03003000
,  // measure 32
00000000
00010000
00000100
00001000
,  // measure 33
00000010
00000010
00000001
00000100
,  // measure 34
00000010
00000010
00001000
00000100
,  // measure 35
00010000
00001000
01000000
00010000
,  // measure 36
10000000
01000000
00010000
00001000
,  // measure 37
00010000
00000100
00010000
00000010
,  // measure 38
00010000
00001000
00000100
00000010
,  // measure 39
00000001
00000100
00000001
00001000
,  // measure 40
00000020
00000000
00001030
00000000
,  // measure 41
00010000
00001000
00000000
00001000
,  // measure 42
00000000
00001000
01000000
10000000
,  // measure 43
00000000
00100000
00000000
00100000
,  // measure 44
00000000
10000000
01000000
00001000
,  // measure 45
00010000
00000010
00000000
00000010
,  // measure 46
00000000
00001000
00000100
00000001
,  // measure 47
00001000
00000100
00000000
00000100
,  // measure 48
00000000
00010000
00001000
01000000
,  // measure 49
00000000
00200000
00000000
00300000
,  // measure 50
00000000
10000000
00000000
00010000
,  // measure 51
00000000
00002000
00000000
00003000
,  // measure 52
00000000
00010000
00000000
00000010
,  // measure 53
00000000
00000200
00000000
00000300
,  // measure 54
00000000
00000001
00000000
00001000
,  // measure 55
00000000
00000200
00000000
00000300
,  // measure 56
00000000
00010000
00000000
00001000
,  // measure 57
00000000
01000000
00010000
00100000
,  // measure 58
00000000
10100000
00000000
01010000
,  // measure 59
00000000
01000000
10000000
00100000
,  // measure 60
00000000
00110000
00000000
00010100
,  // measure 61
00000000
00001000
00000010
00000100
,  // measure 62
00000000
00000101
00000000
00001100
,  // measure 63
00000000
00000100
00000000
00001000
,  // measure 64
00000000
00010000
00000000
01000000
,  // measure 65
00000000
00100000
10000000
01010000
,  // measure 66
00000000
10010000
00110000
10010000
,  // measure 67
00000000
00100000
00001000
00010000
,  // measure 68
00000000
00010100
00010100
00011000
,  // measure 69
00000000
00020000
00000100
00001000
,  // measure 70
00000000
00030100
00001000
00000010
,  // measure 71
00000000
00000102
00001000
00000010
,  // measure 72
00000000
00001000
00000103
00000100
,  // measure 73
00000010
00001000
00000000
00000100
,  // measure 74
00010000
00001000
01000000
00010000
,  // measure 75
10000000
00200000
00000000
01300000
,  // measure 76
00010000
00100000
00001000
00010000
,  // measure 77
00000010
00002000
00000001
00003100
,  // measure 78
00000010
00001000
00000100
00010000
,  // measure 79
00001000
01000000
00100000
20020000
,  // measure 80
00000000
30030000
11000000
00110000
,  // measure 81
00000000
02000000
00000000
03002000
,  // measure 82
00000000
00013000
00000100
00001000
,  // measure 83
00000000
00000002
00000000
00002003
,  // measure 84
00000000
00003100
00010000
00001000
,  // measure 85
01000000
01100000
00000000
10010000
,  // measure 86
00000000
01000000
00000000
00110000
,  // measure 87
00000000
00010100
00000000
00002002
,  // measure 88
00000000
00003003
00001000
00022000
,  // measure 89
00033000
00000000
00000000
00000000
;
