#TITLE:PRIME;
#SUBTITLE:;
#ARTIST:Tatsh;
#TITLETRANSLIT:;
#SUBTITLETRANSLIT:;
#ARTISTTRANSLIT:;
#GENRE:;
#CREDIT:;
#BANNER:PRIME.png;
#BACKGROUND:PRIME-bg.png;
#LYRICSPATH:;
#CDTITLE:;
#MUSIC:PRIME.ogg;
#OFFSET:-0.004000;
#SAMPLESTART:71.994850;
#SAMPLELENGTH:13.454544;
#SELECTABLE:YES;
#DISPLAYBPM:165.000000;
#BPMS:0.000000=165.000000
,186.000000=1020.000000
,211.083328=165.000000
;
#STOPS:31.750000=0.364000,
168.500000=0.182000,
169.500000=0.182000,
170.500000=0.182000,
171.500000=0.182000,
174.500000=0.182000,
175.500000=0.182000,
176.500000=0.182000,
177.500000=0.182000,
179.500000=0.182000,
180.500000=0.182000,
181.500000=0.182000,
182.500000=0.182000,
243.500000=0.364000,
283.000000=0.182000
;
#BGCHANGES:;
#KEYSOUNDS:;
#ATTACKS:;

//---------------dance-single - ----------------
#NOTES:
     dance-single:
     :
     Hard:
     13:
     0.721815,0.924276,0.891097,0.151676,0.346011,533.000000,439.000000,94.000000,16.000000,0.000000,0.000000,0.721815,0.924276,0.891097,0.151676,0.346011,533.000000,439.000000,94.000000,16.000000,0.000000,0.000000:
0000
0000
0000
0000
,
0000
0000
0000
0000
,
0000
0000
0000
0000
,
0000
0000
0000
0000
,
1001
0000
0001
0000
1000
0100
0000
1000
0100
0000
0000
1000
0000
0000
0001
0000
,
1000
0000
0010
0000
1000
0010
0000
1000
0010
0000
0000
0100
0000
0000
0001
0000
,
0100
0000
0001
0000
1000
0001
0000
1000
0001
0000
0000
1000
0000
0000
0010
0000
,
0220
0000
0000
0000
0330
0000
0000
0000
0001
0100
0001
0000
1000
0010
1000
0000
,
0001
1000
1000
1000
0010
1000
1000
1000
,
0001
0010
0010
0010
0001
0100
0100
0100
,
0101
0000
0000
1001
0000
0000
1100
0000
0000
1001
0000
0000
0101
0000
0100
0000
,
1100
0000
0000
1010
0000
0000
1100
0000
0000
1001
0000
0000
1100
0000
1000
0000
,
0010
0100
0100
0100
0001
0100
0100
0100
,
0010
1000
1000
1000
0001
0010
0100
1000
,
0101
0000
0000
0011
0000
0000
0101
0000
0000
1001
0000
0000
1000
0000
0001
0000
,
1001
0000
0000
1010
0000
0000
1100
0000
0000
1010
0000
0000
1000
0000
0001
0000
,
0101
0000
0000
0000
1010
0000
0000
0000
0001
0000
0100
0001
0000
0000
0000
0000
,
1010
0000
0000
0000
0101
0000
0000
0000
1000
0000
0100
1000
0000
0000
0001
0000
,
0101
0000
0000
1001
0000
0000
1000
0000
1100
0000
0000
1001
0000
0000
0001
0000
,
0011
0000
0000
1001
0000
0000
0100
0000
0010
0000
0100
0000
1001
0000
0000
0000
,
1010
0000
0000
0000
1100
0000
0000
0000
0001
0000
0100
0001
0000
0000
0000
0000
,
0101
0000
0000
0000
0011
0000
0000
0000
1000
0000
0100
1000
0000
0000
0010
0000
,
0110
0000
0000
0110
0000
0000
1000
0000
1001
0000
0000
1001
0000
0000
0010
0000
,
0110
0000
0000
0110
0000
0000
1000
0000
0100
0000
0010
0000
0001
0000
0100
0000
,
0020
0000
0000
0000
,
2030
0000
3002
0000
,
0203
0000
0000
0000
,
0302
0003
0011
1100
,
2001
0010
0001
3100
,
0012
0103
1020
0130
,
1100
0000
0000
0011
0000
0000
1001
0000
,
0011
0000
1100
1001
,
1000
0010
1000
0010
0100
0001
0100
0001
,
1000
0100
0010
0001
1000
0100
0010
0001
,
0100
0010
0100
0010
1000
0001
1000
0001
,
0010
0001
1000
0001
1000
0100
1000
0001
,
1000
0100
0001
0100
1000
0010
0001
0010
,
1000
0100
0010
0001
0010
0100
1000
0010
,
0001
0100
1000
0100
0001
0010
0100
1000
,
0001
0010
1000
0010
0001
1000
0100
0010
,
0001
1000
0001
0000
1000
0001
1000
0000
0010
0000
0100
0000
0001
0000
0010
0000
,
0001
0100
0001
0000
1000
0100
1000
0000
0001
0010
0001
0000
0100
0000
0010
0000
,
1000
1010
0100
0101
1000
1001
0010
0110
,
1000
1100
1100
0000
0001
0101
1000
1100
,
0010
0110
1000
1010
0001
0001
1001
1001
,
0001
0101
1000
1100
0001
0011
1000
1100
,
0000
0001
1000
2002
0000
0000
0000
0000
,
0000
0000
0000
0000
,
0000
0000
0000
0000
,
0000
0000
0000
0000
,
0000
0000
0000
0000
,
0000
0000
0000
0000
,
0000
0000
3003
0000
,
1000
0000
0100
0000
0001
0000
1000
0010
0000
0100
0000
1000
0010
0000
0100
0000
,
0001
0000
0100
0000
1000
0000
0001
0100
0000
0010
0000
0001
0100
0000
0010
0000
,
1000
0000
0001
0000
0100
0000
0001
1000
0000
0010
0000
1000
0001
0000
0010
0000
,
1000
0000
0010
0000
1010
0000
0000
0010
0000
0000
0100
0000
0001
0000
1000
0000
,
0001
0000
0100
0000
0010
0000
1000
0010
0000
0100
0000
1000
0010
0000
0100
0000
,
0001
0000
1000
0000
0100
0000
1000
0010
0000
0100
0000
1000
0010
0000
0100
0000
,
0001
0000
0001
0000
0100
0000
0010
1000
0000
0010
0100
0000
0010
0000
0010
0000
,
1010
0000
0000
1010
0000
0000
0101
0000
0000
0101
0000
0000
1000
0000
0001
0000
,
1001
0000
0000
0000
1000
0100
1000
0000
0001
0000
0100
0000
0001
0010
0001
0000
,
1000
0000
0010
0000
0100
0010
0100
0000
0001
0000
0100
0000
0010
0000
1000
0000
,
0001
0000
0010
0000
0001
0010
0001
0000
1000
0000
0010
0000
1000
0010
1000
0000
,
0001
0000
0100
0000
0001
1000
0001
0000
1000
0000
0010
0000
0100
0000
0001
0000
,
1100
0000
0001
0011
0000
1000
1001
0000
,
0110
0000
0001
1001
0000
1000
1100
0000
,
0010
0001
0010
0000
0001
0100
0001
0000
1000
0001
1000
0000
0001
0010
0001
0000
,
1000
0100
1000
0000
0010
0100
0010
0000
1000
0001
1000
0000
0010
0100
0001
0100
,
0010
0000
0000
1010
0000
0000
0101
0000
0000
0000
1000
0000
0001
0000
0100
0000
,
0101
0000
0000
1001
0000
0000
1010
0000
0000
0000
0010
0000
1001
0000
0100
0000
,
0000
0101
0000
0000
0100
0000
0000
0000
0001
0000
0100
0000
0010
0000
1010
0000
,
0000
0101
0000
0000
1010
0000
0000
0000
0001
0000
0010
0000
0100
0000
2002
0000
,
0000
0000
0000
0000
0000
3003
0000
0110
,
2002
0000
0000
0000
,
3003
0000
0000
0000
;

//---------------dance-double - ----------------
#NOTES:
     dance-double:
     :
     Hard:
     13:
     0.708273,0.959825,0.843698,0.132717,0.355491,523.000000,434.000000,89.000000,14.000000,0.000000,0.000000,0.708273,0.959825,0.843698,0.132717,0.355491,523.000000,434.000000,89.000000,14.000000,0.000000,0.000000:
00000000
00000000
00000000
00000000
,
00000000
00000000
00000000
00000000
,
00000000
00000000
00000000
00000000
,
00000000
00000000
00000000
00000000
,
00010000
00000000
00001000
00000000
00010000
00000100
00000000
00000000
00001000
00000000
00000000
00000010
00000000
00000000
00000100
00000000
,
00000001
00000000
00001000
00000000
00000001
00001000
00000000
00000000
00000100
00000000
00000000
00010000
00000000
00000000
00001000
00000000
,
00100000
00000000
00010000
00000000
01000000
00010000
00000000
00000000
10000000
00000000
00100000
00000000
00000000
01000000
00000000
00000000
,
00001000
00000000
00000000
00000000
00100000
00010000
01000000
10010000
,
00010000
10000000
10000000
10000000
00100000
10000000
10000000
10000000
,
00010000
00100000
00100000
00100000
00001000
00010000
00010000
00010000
,
00001100
00000000
00000000
00001001
00000000
00000000
00001100
00000000
00000000
00001001
00000000
00000000
00000101
00000000
00000100
00000000
,
00001100
00000000
00000000
00001010
00000000
00000000
00001100
00000000
00000000
00001001
00000000
00000000
00001100
00000000
00001000
00000000
,
00000010
00000100
00000100
00000100
00000001
00000100
00000100
00000100
,
00001000
00000100
00000100
00000100
00010000
00001000
00100000
00010000
,
01010000
00000000
00000000
00110000
00000000
00000000
01010000
00000000
00000000
10010000
00000000
00000000
00100000
00000000
00001000
00000000
,
00011000
00000000
00000000
00001100
00000000
00000000
00001001
00000000
00000000
00001100
00000000
00000000
00000100
00000000
00010000
00000000
,
00011000
00000000
00000000
00000000
01010000
00000000
00000000
00000000
00010000
00000000
01000000
00010000
00000000
00000000
00000000
00000000
,
10100000
00000000
00000000
00000000
01010000
00000000
00000000
00000000
00100000
00000000
00001000
00010000
00000000
00000000
00000100
00000000
,
00001100
00000000
00000000
00001001
00000000
00000000
00001000
00000000
00001100
00000000
00000000
00011000
00000000
00000000
00001000
00000000
,
00101000
00000000
00000000
00110000
00000000
00000000
01000000
00000000
00010000
00000000
00100000
00000000
01100000
00000000
00000000
00000000
,
10100000
00000000
00000000
00000000
11000000
00000000
00000000
00000000
00010000
00000000
01000000
00010000
00000000
00000000
00000000
00000000
,
00101000
00000000
00000000
00000000
00011000
00000000
00000000
00000000
00010000
00000000
00000100
00010000
00000000
00000000
00000010
00000000
,
00000110
00000000
00000000
00000110
00000000
00000000
00001000
00000000
00001001
00000000
00000000
00001001
00000000
00000000
00000010
00000000
,
00000110
00000000
00000000
00000110
00000000
00000000
00001000
00000000
00000100
00000000
00010000
00000000
00001000
00000000
01000000
00000000
,
00200000
00000000
00000000
00000000
,
20300000
00000000
30020000
00000000
,
00032000
00000000
00000000
00000000
,
00003020
00000000
00010030
00001000
,
10020000
00100000
10000000
01030000
,
10020000
00130000
00201000
00310000
,
00001100
00000000
00000000
00000011
00000000
00000000
00001001
00000000
,
00000011
00000000
00010100
00011000
,
00010000
00001000
00100000
00001000
01000000
00001000
00100000
00001000
,
00010000
00001000
00010000
00000100
00010000
00000010
00010000
00001000
,
00100000
00010000
01000000
00010000
10000000
00010000
00100000
00010000
,
00100000
00001000
00010000
00000100
00010000
00000010
00010000
00000100
,
00001000
00000100
00000001
00000100
00001000
00000010
00000001
00000010
,
00001000
00000100
00000010
00000100
00010000
00001000
01000000
00001000
,
00100000
00010000
01000000
00010000
10000000
00100000
01000000
00100000
,
10000000
00100000
00010000
00100000
10000000
01000000
00100000
00000000
,
00100000
00010000
00100000
00000000
00001000
00010000
00001000
00000000
00010000
00000100
00010000
00000000
00000100
00001000
00000100
00000000
,
00000001
00001000
00000001
00000000
00001000
00000100
00001000
00000000
00010000
00000100
00010000
00000000
00001000
01000000
00001000
00000000
,
10000000
10010000
00100000
00110000
00001000
00011000
00000100
00001100
,
00000001
00000100
00001100
00000000
00010000
00011000
00100000
01010000
,
10000000
11000000
00100000
00101000
00010000
00000100
00001000
00001010
,
00010000
00011000
00100000
01100000
10000000
10010000
00001000
00101000
,
00000000
00001000
00010000
00022000
00000000
00000000
00000000
00000000
,
00000000
00000000
00000000
00000000
,
00000000
00000000
00000000
00000000
,
00000000
00000000
00000000
00000000
,
00000000
00000000
00000000
00000000
,
00000000
00000000
00000000
00000000
,
00000000
00000000
00033000
00000000
,
00010000
00000000
00000100
00000000
00001000
00000000
00000010
00001000
00000000
00000001
00000000
00001000
00000100
00000000
00000000
00000000
,
00010000
00000000
00001000
00000000
00100000
00000000
00010000
01000000
00000000
00010000
00000000
10000000
00010000
00000000
00000000
00000000
,
00100000
00000000
00001000
00000000
00010000
00000000
00000100
00001000
00000000
00000010
00000000
00001000
00000001
00000000
00000000
00000000
,
00001000
00000000
00000100
00000000
00010000
00000000
00000000
00011000
00000000
00000000
00101000
00000000
00010000
00000000
01000000
00000000
,
00100000
00000000
01000000
00000000
00100000
00000000
10000000
01000000
00000000
10000000
00000000
00100000
01000000
00000000
00000000
00000000
,
00001000
00000000
00010000
00000000
00000100
00000000
00001000
00000010
00000000
00001000
00000000
00000100
00001000
00000000
00000001
00000000
,
00001000
00000000
00000100
00000000
00001100
00000000
00000000
00010100
00000000
00000000
00010000
00000000
00001000
00000000
00100000
00000000
,
00010000
00000000
01000000
00010000
00000000
10000000
00010000
00000000
00100000
00010000
00000000
01000000
00010000
00000000
10000000
00000000
,
00100000
00000000
10000000
00000000
00010000
10000000
00010000
00000000
00100000
00000000
00001000
00000000
00010000
00000000
00000100
00000000
,
00001000
00000000
00000001
00000000
00001000
00000001
00001000
00000000
00000100
00000000
00010000
00000000
00001000
00000000
00100000
00000000
,
00010000
00000000
00000000
01010000
00000000
00000000
10010000
00000000
00000000
00110000
00000000
00000000
00100000
00001000
00010000
00000000
,
00001000
00000000
00000000
00011000
00000000
00000000
00010100
00000000
00000000
00010010
00000000
00000000
00000010
00001000
00000100
00000000
,
00001010
00001000
00001000
00000101
00000001
00000001
00001001
00000000
,
00001100
00000100
00000100
00010100
00010000
00010000
00011000
00000000
,
00100000
00010000
00100000
00000000
01000000
10000000
01000000
00000000
00100000
00001000
00100000
00000000
00001000
00010000
00001000
00000000
,
00010000
00000100
00010000
00000000
00000010
00001000
00000010
00000000
00000001
00001000
00000001
00001000
00000100
00010000
00000100
00010000
,
00001000
00000000
00000000
10000000
00000000
00000000
00100000
00000000
00000000
00000000
10000000
00000000
00001000
00000000
00010000
00000000
,
00001000
00000000
00000000
00010000
00000000
00000000
00000001
00000000
00000000
00000000
00001000
00000000
00001001
00000000
00011000
00000000
,
00000000
00001000
00000000
00000000
10000000
00000000
00000000
00000000
00010000
00000000
01000000
00000000
00001000
00000000
00011000
00000000
,
00000000
00010010
00000000
00000000
00010100
00000000
00000000
00000000
01001000
00000000
00010000
00000000
00100000
00000000
00022000
00000000
,
00000000
00000000
00000000
00000000
00000000
00033000
00000000
00011000
,
00022000
00000000
00000000
00000000
,
00033000
00000000
00000000
00000000
;

//---------------dance-double - ----------------
#NOTES:
     dance-double:
     :
     Medium:
     9:
     0.469925,0.639883,0.407629,0.274913,0.018960,347.000000,304.000000,43.000000,29.000000,0.000000,0.000000,0.469925,0.639883,0.407629,0.274913,0.018960,347.000000,304.000000,43.000000,29.000000,0.000000,0.000000:
00000000
00000000
00000000
00000000
,
00000000
00000000
00000000
00000000
,
00000000
00000000
00000000
00000000
,
00000000
00000000
00000000
00000000
,
00100000
00010000
01000000
00000000
00100000
00000000
10000000
00000000
,
00100000
00010000
01000000
00000000
00001000
00000000
00010000
00000000
,
00000100
00001000
00000010
00000000
00000100
00000000
00001000
00000000
,
00000001
00001000
00000100
00010000
,
00001000
00100000
00001000
00000000
01000000
00010000
00100000
00000000
,
00010000
10000000
01000000
00000000
10000000
00010000
01000000
00000000
,
00100000
00000000
00000000
00100000
00000000
00000000
10000000
00000000
00000000
00000000
00010000
00000000
01000000
00000000
00000000
00000000
,
00001000
00000000
00000000
00001000
00000000
00000000
00001000
00000000
00000000
00000000
00010000
00000000
00000100
00000000
00000000
00000000
,
00001000
00000010
00000100
00000000
00001000
00000001
00000010
00000000
,
00001000
00000100
00010000
00000000
00001000
01000000
00100000
00000000
,
10000000
00000000
00000000
10000000
00000000
00000000
10000000
00000000
00000000
00000000
00010000
00000000
00100000
00000000
00000000
00000000
,
00001000
00000000
00000000
00001000
00000000
00000000
00001000
00000000
00000000
00000000
00010000
00000000
00000010
00000000
00000000
00000000
,
00000010
00000000
00001010
00000000
00000001
00000100
00000010
00000000
,
00001010
00000000
00001100
00000000
00000100
00010000
00001000
00000000
,
00022000
00033000
02020000
03030000
,
00022000
00033000
00002002
00003003
,
00000010
00001000
00000100
00000000
00001100
00000000
00011000
00000000
,
00100000
00001000
00010000
00000000
00110000
00000000
01100000
00000000
,
20200000
30300000
02020000
03030000
,
00100000
10000000
00010000
00100000
,
00002000
00000000
00000000
00000000
,
00023000
00000000
00030020
00000000
,
00002030
00000000
00000000
00000000
,
00003002
00000000
00002003
00003200
,
00020300
00000000
00000000
00000000
,
00032000
00000000
01003000
00100000
,
20000000
00000000
00000000
30010000
00000000
00000000
02000000
00000000
,
03002000
00000000
00013000
00011000
,
00010000
00001000
00010000
00000000
00000100
00001000
00000100
00000000
,
00001000
00000010
00000100
00000000
00000001
00000100
00000010
00000000
,
00001000
00000100
00001000
00000000
00000100
00010000
00001000
00000000
,
00001000
00100000
00010000
00000000
00010000
01000000
00100000
10000000
,
00100000
01000000
00100000
00000000
10000000
00010000
10000000
00000000
,
00010000
00100000
00010000
00000000
00100000
00001000
00100000
00000000
,
00000100
00010000
00000100
00000000
00001000
00000001
00000100
00000000
,
00000001
00001000
00000100
00000000
00010000
00000100
00001000
00000000
,
00100000
00000000
00010000
01000000
00100000
10000000
01000000
00100000
,
00010000
01100000
10010000
01100000
,
11000000
00110000
01100000
10010000
,
01000000
00100000
01000000
00000000
00110000
00000000
00011000
00000000
,
00001100
00000000
00001001
00000000
00000010
00001000
00000010
00001000
,
00001001
00000000
00011000
00000000
10010000
00000000
00100000
00010000
,
00000000
00100000
00001000
00020000
00000000
00000000
00000000
00000000
,
00000000
00000000
00000000
00000000
,
00000000
00000000
00000000
00000000
,
00000000
00000000
00000000
00000000
,
00000000
00000000
00000000
00000000
,
00000000
00000000
00000000
00000000
,
00000000
00000000
00000000
00030000
,
00010000
00000000
00001000
00000000
00010000
00000100
00001000
00000000
,
00000001
00001000
00000001
00000000
00001000
00000100
00010000
00000000
,
00001000
00100000
00010000
00000000
00100000
00001000
00010000
00000000
,
00001000
00000000
00100000
00000000
00010000
01000000
10000000
00000000
,
00100000
10000000
01000000
00000000
00100000
00000000
00011000
00000000
,
00010000
00000100
00001000
00000000
00000010
00000000
00001001
00000000
,
00001000
00000100
00001000
00000000
00000100
00010000
00001000
00000000
,
00001000
00100000
00010000
01000000
00100000
00000000
10010000
00000000
,
00100000
10000000
00100000
00000000
01000000
00010000
01000000
00000000
,
00001000
00010000
00001000
00000000
00010000
00000010
00000100
00000000
,
00000001
00001000
00000010
00001000
00000001
00001000
00000100
00001000
,
00000100
00010000
00001000
00010000
00001000
00100000
00010000
01000000
,
00100000
10000000
00100000
00000000
01000000
00010000
01000000
00000000
,
00001000
00010000
00001000
00000000
00001000
00010000
00001000
00000000
,
00010000
00000010
00000100
00000000
00000001
00001000
00000010
00000000
,
00001000
00000100
00010000
00000000
00001000
00100000
00010000
00000000
,
01010000
00000000
00000000
10100000
00000000
00000000
00110000
00000000
,
00011000
00000000
00000000
00001100
00000000
00000000
00000010
00001100
,
00000000
00000000
00001001
00000000
00000000
00001100
00000000
00010000
,
00000000
00000000
00101000
00000000
00000000
00010000
00000000
00022000
,
00000000
00000000
00000000
00000000
00000000
00033000
00000000
00011000
,
00022000
00000000
00000000
00000000
,
00033000
00000000
00000000
00000000
;

//---------------dance-double - ----------------
#NOTES:
     dance-double:
     :
     Easy:
     7:
     0.331791,0.568785,0.455028,0.227514,0.000000,245.000000,197.000000,48.000000,24.000000,0.000000,0.000000,0.331791,0.568785,0.455028,0.227514,0.000000,245.000000,197.000000,48.000000,24.000000,0.000000,0.000000:
00000000
00000000
00000000
00000000
,
00000000
00000000
00000000
00000000
,
00000000
00000000
00000000
00000000
,
00000000
00000000
00000000
00000000
,
00100000
00100000
00100000
00000000
,
00001000
00001000
00001000
00000000
,
00010000
00010000
00010000
00000000
,
00000010
00000010
00000010
00000020
,
00001030
00000000
00001100
00000000
,
00010000
00000000
00011000
00000000
,
00100000
00010000
01000000
00000000
,
00100000
00001000
00010000
00000000
,
00001000
00000000
00010000
00000000
,
00000010
00000000
00001001
00000000
,
00000100
00010000
00001000
00000000
,
00100000
00010000
10000000
00000000
,
11000000
00000000
00110000
00000000
,
01000000
00001000
00010000
00000000
,
00011000
00000000
00001001
00000000
,
00011000
00000000
10010000
00000000
,
00100000
00001000
00010000
00000000
,
00000010
00001000
00000100
00000000
,
00001001
00000000
00011000
00000000
,
10010000
00000000
00100000
00010000
,
20000000
00000000
00000000
30000000
,
00020000
00030000
00200000
00300000
,
00002000
00000000
00000000
00003000
,
00020000
00030000
00000010
00000100
,
00002002
00000000
00000000
00003003
,
00000200
00000300
00010000
00001000
,
00200000
00000000
00300000
00010000
,
02000000
03000000
00100000
10000000
,
01000000
01000000
01000000
10010000
,
00100000
00100000
00001000
00001000
,
00010000
00010000
00010000
00010100
,
00001000
00001000
00001000
00001001
,
00000010
00000010
00001000
00001100
,
00010000
00010000
00010000
00101000
,
00010000
00010000
01000000
10010000
,
00100000
00100000
10000000
01010000
,
00100000
00100000
00001000
00010000
,
00000020
00000000
00002000
00003030
,
00000101
00001100
00011000
10010000
,
00100000
00100000
10010000
01010000
,
00011000
00001100
00000010
00001000
,
00001001
00011000
10010000
00011000
,
00000000
00000000
00022000
00000000
,
00000000
00000000
00000000
00000000
,
00000000
00000000
00000000
00000000
,
00000000
00000000
00000000
00000000
,
00000000
00000000
00000000
00000000
,
00000000
00000000
00000000
00000000
,
00000000
00033000
00000000
00000000
,
00100000
00010000
01000000
10010000
,
00100000
10000000
01000000
10010000
,
00100000
00001000
00010000
00000010
,
00001000
00000001
00001000
00001100
,
00000100
00010000
01000000
10010000
,
01000000
00010000
00000100
00001001
,
00000010
00001000
00100000
10010000
,
00100000
00001000
00010000
00001010
,
00000100
00000100
00010000
01000000
,
10000000
10000000
00100000
00001000
,
00000010
00000010
00000001
00000100
,
00001000
00001000
00010000
00010000
,
10000000
00100000
00010000
00010000
,
00001000
00000010
00000001
00000001
,
00000200
00000300
00020000
00030000
,
02000000
03000000
00022000
00033000
,
10010000
00000000
00100000
00001000
,
00010000
00000000
00000000
00000000
00001100
00000000
00000000
00110000
,
00000000
00000000
00000000
00001000
00000000
00010000
00000000
00001100
,
00000000
00000000
00000000
01010000
00000000
00000000
00000000
00022000
,
00000000
00000000
00000000
00000000
00000000
00033000
00000000
00001000
,
00022000
00000000
00000000
00000000
,
00033000
00000000
00000000
00000000
;

//---------------dance-single - ----------------
#NOTES:
     dance-single:
     :
     Easy:
     7:
     0.339917,0.568785,0.473988,0.530866,0.000000,251.000000,201.000000,50.000000,56.000000,0.000000,0.000000,0.339917,0.568785,0.473988,0.530866,0.000000,251.000000,201.000000,50.000000,56.000000,0.000000,0.000000:
0000
0000
0000
0000
,
0000
0000
0000
0000
,
0000
0000
0000
0000
,
0000
0000
0000
0000
,
0020
0030
0001
1001
,
0020
0030
1000
1001
,
0200
0300
0001
1001
,
0020
0030
1000
1001
,
0001
1000
0010
0100
,
0001
0001
1000
1000
,
0010
0110
0000
0110
,
0100
0110
0000
0110
,
0001
0100
1000
0100
,
0001
0010
1000
0010
,
0001
1001
0000
1001
,
1000
1001
0000
1001
,
0010
0100
0002
0003
,
0100
0010
2000
3000
,
0011
0000
1001
0000
,
1010
0000
1001
0000
,
0200
0300
0001
1000
,
0020
0030
1000
0001
,
2200
3300
0202
0303
,
0022
0033
0110
1001
,
0200
0000
0000
0000
,
0302
0000
2003
0000
,
3020
0000
0000
0000
,
2030
0000
3002
0203
,
0320
0000
0000
0000
,
2030
0000
3200
0302
,
0203
0000
0000
0320
0000
0000
1030
0000
,
2002
0000
3003
0000
0220
0000
0000
0330
,
0001
0100
1000
0100
,
0001
0010
1000
0010
,
1000
0100
0001
0100
,
1000
0010
0001
0010
,
2000
0100
0100
3100
,
0002
0010
0010
0013
,
0200
0010
0010
0310
,
2000
0100
0100
3100
,
0022
0033
2200
3300
,
0220
0000
0000
0330
,
1001
1001
1001
1001
,
0010
0100
1001
1001
,
1001
1001
0100
0010
,
1001
1001
1001
1001
,
0000
0010
0100
0000
2002
0000
0000
0000
,
0000
0000
0000
0000
,
0000
0000
0000
0000
,
0000
0000
0000
0000
,
0000
0000
0000
0000
,
0000
0000
0000
0000
,
0000
0000
0000
3003
,
0010
0100
0001
0100
,
0010
0100
1000
0100
,
0001
0101
1000
1100
,
0010
0001
0100
1000
,
0010
1000
0100
1000
,
0010
0001
0100
0001
,
1000
1001
0010
0110
,
1000
0100
0010
1001
,
0010
0010
0002
0003
,
0100
0100
2000
3000
,
0002
0003
2000
3000
,
0010
0100
0010
0000
0200
0000
0300
0000
,
0001
0100
1000
0100
,
0001
0010
1000
0010
,
0002
0003
0200
0300
,
2000
3000
0020
0030
,
0100
0000
0000
0101
0000
0000
0100
0000
,
0010
0000
0000
1010
0000
0000
0000
0100
,
0000
0000
0101
0000
0000
0100
0000
0010
,
0000
0000
1010
0000
0000
0010
0000
2002
,
0000
0000
0000
0000
0000
3003
0000
1000
,
2002
0000
0000
0000
,
3003
0000
0000
0000
;

//---------------dance-single - ----------------
#NOTES:
     dance-single:
     :
     Beginner:
     4:
     0.155739,0.245526,0.104277,0.180115,0.000000,115.000000,104.000000,11.000000,19.000000,0.000000,0.000000,0.155739,0.245526,0.104277,0.180115,0.000000,115.000000,104.000000,11.000000,19.000000,0.000000,0.000000:
// measure 0
0000
0000
0000
0000
,  // measure 1
0000
0000
0000
0000
,  // measure 2
0000
0000
0000
0000
,  // measure 3
0000
0000
0000
0000
,  // measure 4
0010
0000
0010
0000
,  // measure 5
0100
0000
0100
0000
,  // measure 6
0001
0000
0001
0000
,  // measure 7
1000
0000
1000
0000
,  // measure 8
0001
0000
0001
0000
,  // measure 9
0100
0000
0100
0000
,  // measure 10
1000
0000
1000
0000
,  // measure 11
0100
0000
0100
0000
,  // measure 12
0001
0000
1001
0000
,  // measure 13
1000
0000
1001
0000
,  // measure 14
0010
0000
0010
0000
,  // measure 15
0100
0000
0100
0000
,  // measure 16
0002
0000
0003
0000
,  // measure 17
2000
0000
3000
0000
,  // measure 18
0010
0000
0010
0000
,  // measure 19
0100
0000
1001
0000
,  // measure 20
2000
0000
3000
0000
,  // measure 21
0002
0000
0003
0000
,  // measure 22
0100
0000
0100
0000
,  // measure 23
0010
0000
1001
0000
,  // measure 24
0020
0000
0030
0000
,  // measure 25
0200
0000
0300
0000
,  // measure 26
0002
0000
0003
0000
,  // measure 27
2000
0000
3000
0000
,  // measure 28
0020
0000
0030
0000
,  // measure 29
2000
0000
3000
0000
,  // measure 30
0200
0000
0300
0000
,  // measure 31
0002
0000
0003
0000
,  // measure 32
1000
0000
1000
0000
,  // measure 33
0001
0000
0001
0000
,  // measure 34
1000
0000
1000
0000
,  // measure 35
0010
0000
0010
0000
,  // measure 36
1000
0000
0100
0000
,  // measure 37
0001
0000
0100
0000
,  // measure 38
2000
0000
3000
0000
,  // measure 39
0002
0000
0003
0000
,  // measure 40
0200
0000
0300
0000
,  // measure 41
0020
0000
0030
0000
,  // measure 42
1001
0000
0000
0000
,  // measure 43
0010
0010
0000
0000
,  // measure 44
0000
0000
0100
0100
,  // measure 45
0000
0000
0000
0000
,  // measure 46
0000
0010
0000
0000
,  // measure 47
0000
0000
0000
0000
,  // measure 48
0000
0000
0000
0000
,  // measure 49
0000
0000
0000
0000
,  // measure 50
0000
0000
0000
0000
,  // measure 51
0000
0000
0000
0000
,  // measure 52
0000
0000
0000
0000
,  // measure 53
0001
0000
0001
0000
,  // measure 54
1000
0000
1000
0000
,  // measure 55
0001
0000
0001
0000
,  // measure 56
0200
0000
0300
0000
,  // measure 57
0001
0000
0001
0000
,  // measure 58
1000
0000
1000
0000
,  // measure 59
0010
0000
0010
0000
,  // measure 60
0100
0000
0100
0000
,  // measure 61
0001
0000
0001
0000
,  // measure 62
1000
0000
1000
0000
,  // measure 63
0010
0000
0010
0000
,  // measure 64
0010
0000
0110
0000
,  // measure 65
1000
0000
1000
0000
,  // measure 66
0001
0000
0001
0000
,  // measure 67
0100
0000
0100
0000
,  // measure 68
0010
0000
0010
0000
,  // measure 69
1001
0000
0000
0000
,  // measure 70
0110
0000
0000
0000
0000
0000
0000
1001
,  // measure 71
0000
0000
0000
0000
0000
0000
0000
0110
,  // measure 72
0000
0000
0000
0000
0000
0000
0000
2002
,  // measure 73
0000
0000
0000
0000
3003
0000
0000
0001
,  // measure 74
0001
0000
0000
0000
;

//---------------dance-single - ----------------
#NOTES:
     dance-single:
     :
     Medium:
     9:
     0.461799,0.604334,0.654103,0.189595,0.018960,341.000000,272.000000,69.000000,20.000000,0.000000,0.000000,0.461799,0.604334,0.654103,0.189595,0.018960,341.000000,272.000000,69.000000,20.000000,0.000000,0.000000:
0000
0000
0000
0000
,
0000
0000
0000
0000
,
0000
0000
0000
0000
,
0000
0000
0000
0000
,
0001
0000
1000
0000
0100
0010
1000
0000
,
0001
0000
1000
0000
0010
0100
0001
0000
,
1000
0000
0001
0000
0100
0001
1000
0000
,
0020
0000
0130
0000
0001
1000
0001
0000
,
0001
1001
0010
1001
,
0100
1001
1000
1001
,
0001
0000
0000
0001
0000
0000
0100
0000
0000
0000
1000
0000
0001
0000
0000
0000
,
1000
0000
0000
1000
0000
0000
0100
0000
0000
0000
0001
0000
1000
0000
0000
0000
,
0010
0110
0001
0110
,
0100
0110
1000
1001
,
0001
0000
0000
0001
0000
0000
0100
0000
0000
0000
0001
0000
1000
0000
0000
0000
,
1000
0000
0000
1000
0000
0000
0100
0000
0000
0000
1000
0000
0001
0000
0000
0000
,
0010
0000
0010
0000
0001
0100
0001
0000
,
0010
0000
0010
0000
1000
0100
1000
0000
,
1001
0000
0000
1000
0001
0000
0000
0010
,
0100
0000
0000
0100
0010
0000
1001
0000
,
0010
0000
0100
0000
0001
0100
0001
0000
,
0100
0000
0010
0000
1000
0100
1000
0000
,
1010
0000
0000
1000
0001
0000
0000
0001
,
1000
0000
0000
1000
0010
0000
1001
0000
,
0020
0000
0000
0000
,
2030
0000
3002
0000
,
2003
0000
0000
0000
,
3002
0003
1000
0010
,
2002
0000
0000
3003
,
0200
0000
0320
1030
,
0002
0000
0000
2003
0000
0000
3002
0000
,
0203
0000
0310
1001
,
1000
0010
1000
0000
0100
0000
0101
0000
,
1000
0100
1000
0000
0001
0000
0101
0000
,
0100
0010
0100
0000
1000
0000
1001
0000
,
0010
0011
1000
1100
,
1000
0000
0101
0000
1000
0010
1000
0000
,
0001
0000
0101
0000
1000
0100
1000
0000
,
0001
0101
1000
1100
,
0001
1010
0001
1100
,
0001
1000
0001
0000
0010
0100
0001
0000
,
2002
0000
0000
3003
,
1010
0101
1001
0110
,
1000
0001
1000
0000
0101
0000
1010
0000
,
0110
0000
1010
0000
0001
1000
0001
1000
,
0001
1010
0101
0110
,
0000
0001
1000
0002
0000
0000
0000
0000
,
0000
0000
0000
0000
,
0000
0000
0000
0000
,
0000
0000
0000
0000
,
0000
0000
0000
0000
,
0000
0000
0000
0000
,
0000
0000
0003
0000
,
1000
0100
1000
0000
1010
0000
0101
0000
,
0001
0100
0001
0000
0110
0000
1001
0000
,
1000
0001
0100
0000
1001
0000
0011
0000
,
1000
0010
0100
0000
0110
0000
1001
0000
,
0001
0100
0010
0000
1010
0000
0110
0000
,
0001
1000
0100
0000
1010
0000
0110
0000
,
0001
0101
1010
0110
,
0010
1000
0010
0000
0100
0001
0100
0000
,
0001
0000
1000
0100
1000
0000
1001
0000
,
0110
0000
0010
0001
0100
0000
0110
0000
,
1001
0000
0001
1000
0010
0000
1010
0000
,
1001
0000
0001
0000
0110
0000
0100
0001
,
0100
0000
0001
1000
0000
1000
0001
0000
,
0010
0000
1000
0001
0000
0001
0100
0000
,
0010
0001
1000
0000
1001
0000
0110
0000
,
1000
0001
0010
0000
1001
0000
0110
0000
,
0010
0000
0000
1001
0000
0000
0001
0100
,
0001
0000
0000
0110
0000
0000
0000
0101
,
0000
0000
0110
0000
0000
0001
0100
0010
,
0000
0000
1001
0000
0000
0010
0100
0002
,
0000
0000
0000
0000
0000
0003
0000
1000
,
2002
0000
0000
0000
,
3003
0000
0000
0000
;
