#TITLE:PM is Here!;
#SUBTITLE:;
#ARTIST:BEMANI Sound Team "PON";
#TITLETRANSLIT:;
#SUBTITLETRANSLIT:;
#ARTISTTRANSLIT:;
#GENRE:;
#CREDIT:;
#BANNER:PM is Here!.png;
#BACKGROUND:PM is Here!-bg.png;
#LYRICSPATH:;
#CDTITLE:;
#MUSIC:PM is Here!.ogg;
#OFFSET:1.396000;
#SAMPLESTART:34.876728;
#SAMPLELENGTH:11.727272;
#LASTBEATHINT:1.089000;
#SELECTABLE:YES;
#DISPLAYBPM:165.000000;
#BPMS:0.000000=165.000000
;
#STOPS:
;
#BGCHANGES:;
#KEYSOUNDS:;
#ATTACKS:;

//---------------dance-double - ----------------
#NOTES:
     dance-double:
     :
     Hard:
     15:
     0.825138,1.091260,0.643733,0.220457,0.454141,655.000000,582.000000,73.000000,25.000000,0.000000,0.000000,0.825138,1.091260,0.643733,0.220457,0.454141,655.000000,582.000000,73.000000,25.000000,0.000000,0.000000:
00000000
00000000
00000000
00000000
,
00000000
00000000
00000000
00000000
,
00000000
00000000
00000000
00000000
,
00100000
00000000
10000000
00000000
00010000
00100000
00010000
00100000
00010000
00000000
00100000
00000000
00001000
00010000
00001000
00010000
,
00000100
00000000
00001000
00000000
00000010
00000100
00000010
00000100
00000001
00000000
00001000
00000000
00000010
00001000
00000010
00001000
,
00000100
00000000
00010000
00000000
00001000
00100000
00001000
00100000
00010000
00000000
01000000
00000000
00100000
10000000
00100000
10000000
,
01000000
00000000
10000000
00000000
00100000
01000000
00010000
01000000
00010000
00000000
00100000
00000000
00001000
00010000
00000100
00010000
,
00001000
00000000
00101000
00000000
00100000
00010000
01000000
01100000
,
00000000
10100000
00000000
01000000
00200000
10000000
10300000
00000000
,
01100000
00000000
00110000
00000000
00100000
00001000
00010000
00011000
,
00000000
00010000
00000100
00002000
00000010
00000010
00003010
00000000
,
00000100
00000000
00001001
00000000
00001000
00000100
00010000
00001000
,
00000000
00011000
00000000
00001000
00100000
00010000
01010000
00010000
,
00100000
00000000
00010000
00000000
10000000
00100000
10000000
00100000
10000000
00000000
00010000
00000000
00100000
00010000
00100000
00010000
,
00100000
00000000
00001000
00000000
00010000
00000100
00001000
00000100
00010000
00000000
00000100
00000000
00001000
00000100
00000010
00000001
,
00001000
00000010
00001010
00000000
00001000
00000100
00010000
00001000
,
00010000
00001000
00100000
00020000
01000000
01000000
01030000
00000000
,
00100000
10000000
00100000
01000000
00010000
01000000
00100000
10000000
,
01000000
00100000
00010000
02000000
00010000
00010000
03010000
00000000
,
00100000
00001000
00010000
00001000
00100000
00001000
00010000
00000010
,
00001000
00000001
00000100
00000010
00001000
00000100
00001100
00000100
,
00010000
00000000
00001000
00000000
00100000
00010000
01000000
00010000
00100000
00000000
00010000
00000000
10000000
00100000
01000000
00100000
,
10000000
00000000
00100000
00000000
01000000
00010000
00100000
00000000
00010000
00000000
00001000
00000000
00010000
00000000
00001000
00000000
,
00100000
00000000
00010000
00000000
01000000
00100000
10000000
00010000
10000000
00000000
00100000
00000000
01000000
00010000
00100000
00010000
,
00100000
00000000
00001000
00000000
00010000
00000100
00001000
00000000
00000000
00000000
00002020
00000000
00000000
00000000
00003030
00000000
,
00000011
00000010
00000011
00000000
00001100
00000100
00001100
00000000
,
00000100
00010000
00001000
01000000
00010000
10000000
00100000
10000000
,
01000000
00100000
00010000
01010000
00000000
00100000
10000000
11000000
,
00000000
00000000
01010000
00000000
00000000
00000000
10010000
00000000
00000000
00000000
00100000
00000000
10000000
01000000
00100000
00010000
,
01000000
00010000
00100000
00010000
00100000
00001000
00010000
00000010
,
00001000
00000001
00001000
00000200
00000000
00010300
00001000
00010000
,
00001000
00100000
00010000
01010000
00000000
10100000
00000000
01000000
,
00010000
10000000
00010000
01000000
00000000
00100000
00000000
01000000
00010000
00000000
00000000
00000000
00011000
00000000
00000000
00000000
,
00010100
00010100
00000000
00000000
00001001
00001001
00000000
00000000
,
00011000
00011000
00000000
00000000
10010000
10010000
00000000
00000000
,
10100000
01000000
00010000
00000000
00110000
00001000
00010000
00000000
,
00001100
00000010
00000100
00000000
00001010
00000010
00010000
00000000
,
00011000
00000000
00001000
00100000
00010000
00100000
00010000
01000000
,
00100000
00000000
00000000
10100000
00000000
00000000
01020000
00000000
00000000
00000000
10030000
00000000
00100000
00000000
01000000
00000000
,
00010000
00000000
00100000
00000000
00010000
00000000
01000000
00010000
00000000
00000000
00100000
00000000
00001000
00000000
00010000
00000000
,
00000000
00000100
00001000
00000010
00000000
00000001
00001000
00000100
,
00010000
00000000
00001000
00000000
00100000
00010000
00100000
00010000
10000000
01000000
10000000
01000000
00100000
00010000
02000000
00000000
,
00000000
00000000
03100000
10000000
00100000
10000000
02000000
00000000
00000000
00000000
03100000
00000000
00001000
00000000
00010000
00000000
,
00001000
00000000
00010000
00000000
00000100
00000000
00001000
00000000
00000001
00001000
00000100
00001000
00000010
00001000
00000010
00000200
,
00000000
00000301
00001000
00000100
00010000
00001000
01000000
00010000
,
10010000
00000000
01010000
01000000
11000000
00000000
11000000
01000000
,
01010000
02000000
00000000
03100000
10000000
00010000
00100000
00001000
,
00010000
00000100
00001000
00001010
00000000
00000010
00000100
00000101
,
00000000
00001020
00000000
00001030
00000100
00010000
00001000
01000000
,
01010000
00000000
10100000
00000000
01010000
00010000
10000000
10100000
,
00000000
00110000
00000000
00101000
00000000
00001000
00010000
00000010
,
00001000
00000100
00000010
00001001
00000000
00001100
00000000
00011000
,
00010000
00001000
00100000
00001000
00000000
00100000
00000000
00100000
00010000
00000000
01000000
00000000
01000000
00000000
00200000
00000000
,
10000000
10300000
00010000
00200000
00000000
00301000
00010000
00000020
,
00000000
00001030
00000001
00000201
00000000
00000310
00001000
00000100
,
00010000
00001000
00010000
00011000
00000000
00101000
00000000
01010000
,
00000000
10000000
00010000
00100000
00010000
10000000
01000000
00200000
,
00000000
00301000
00010000
00000200
00000000
00001300
00000100
00000002
,
00000000
00000103
00000010
00002000
00000000
00003100
00010000
00001000
,
00000000
00100000
00010000
01010000
00000000
10100000
00000000
01010000
,
00000000
00110000
00010000
01000000
00100000
10000000
01000000
00100000
,
00001000
00000000
00010000
00000000
00000100
00001000
00000100
00000000
00001000
00000010
00000100
00000000
00000100
00000001
00000100
00000000
,
00000010
00000000
00001000
00000000
00000100
00001000
00000100
00000000
00000100
00010000
00001000
00000000
00001000
00100000
00010000
00000000
,
00010000
00000000
01000000
00000000
00100000
00000000
10100000
00000000
00000000
00000000
01000000
00010000
10000000
00000000
00200000
00000000
,
01300000
00000000
00010000
00000000
00020000
00000000
00100000
00000000
00130000
00000000
00100000
00001000
00010000
00000000
00001000
00000000
,
00010000
00000000
00000100
00001000
00000100
00000000
00001000
00000000
00000010
00000000
00000100
00000001
00001000
00000000
00000100
00000000
,
00010000
00000000
00001000
00010000
00001000
00000000
00010000
00000000
00001000
00000000
00100000
00010000
01000000
00000000
00100000
00000000
,
10100000
00100000
01000000
01010000
00000000
00022000
00000000
00033000
,
00010000
00000000
00000100
00000000
00001000
00000010
00000100
00000001
00000100
00000000
00000010
00000000
00001000
00000100
00010000
00000100
,
00001000
00000000
00000100
00000000
00010000
00001000
00100000
00001000
00010000
00000000
00001000
00000000
00100000
00010000
01000000
00100000
,
10000000
01000000
10000000
01000000
00100000
00010000
00100000
00010000
10000000
00100000
10000000
00100000
01000000
00010000
01000000
00010000
,
10000000
01000000
00100000
00010000
01000000
00100000
10000000
00100000
01000000
00010000
01000000
00100000
10000000
00000000
00010000
00000000
,
00100000
00010000
00100000
00001000
00000000
00011000
00000000
00010000
00000100
00000000
00000000
00000000
00001001
00000000
00000000
00000000
,
00000010
00001000
00000010
00001000
00000000
00000100
00000000
00010000
00001000
00000000
00000000
00000000
00101000
00000000
00000000
00000000
,
00100000
00010000
01000000
00100000
00000000
10000000
00000000
00100000
01000000
00000000
01010000
00000000
10010000
00000000
00000000
00000000
,
00011000
00000000
00000000
00000000
;

//---------------dance-single - ----------------
#NOTES:
     dance-single:
     :
     Hard:
     15:
     0.816319,1.091260,0.599642,0.202820,0.449731,648.000000,580.000000,68.000000,23.000000,0.000000,0.000000,0.816319,1.091260,0.599642,0.202820,0.449731,648.000000,580.000000,68.000000,23.000000,0.000000,0.000000:
0000
0000
0000
0000
,
0000
0000
0000
0000
,
0000
0000
0000
0000
,
0010
0000
1000
0000
0001
0010
0001
0010
0001
0000
0010
0000
0001
1000
0001
1000
,
0001
0000
0100
0000
0010
1000
0010
1000
0001
0000
0100
0000
0010
1000
0010
1000
,
0001
0000
0100
0000
0010
1000
0010
1000
0001
0000
0100
0000
0010
1000
0010
1000
,
0100
0000
1000
0000
0010
0100
0001
0100
0001
0000
0010
0000
0001
0100
0010
0100
,
0001
0000
1010
0000
0010
0001
0100
0110
,
0000
1010
0000
0100
0020
1000
1030
0000
,
0110
0000
0011
0000
0010
0001
1000
1001
,
0000
1000
0010
0200
0010
0010
0310
0000
,
0100
0000
1001
0000
1000
0100
1000
0001
,
0000
1001
0000
1000
0010
0100
0101
0100
,
0010
0000
1000
0000
0010
0100
1000
0100
0010
0000
0100
0000
0001
0010
0100
0010
,
0001
0000
0100
0000
0010
1000
0001
1000
0010
0000
0100
0000
0001
0010
0100
1000
,
0010
0000
0110
0000
0001
1000
0001
0100
,
0000
1001
0000
0002
0100
0100
0103
0000
,
0010
1000
0010
0100
0001
0100
0010
1000
,
0100
0010
0001
0200
0001
0001
0301
0000
,
0010
0001
0100
0010
1000
0010
0100
0001
,
0100
0010
1000
0100
1000
0010
1010
0010
,
0100
0000
0001
0000
0010
0001
0100
0001
0010
0000
0001
0000
1000
0010
0100
0010
,
1000
0000
0010
0000
0100
0001
0010
0000
0001
0000
0001
0000
0001
0000
0001
0000
,
0010
0000
0001
0000
0100
0010
1000
0001
1000
0000
0010
0000
0100
0001
0010
0001
,
0010
0001
1000
0110
0000
2002
0000
3003
,
1010
0010
0010
0000
0110
0100
0100
0000
,
0001
0100
0010
1000
0001
1000
0010
1000
,
0100
0010
0001
0101
0000
0010
1000
1100
,
0000
0000
0101
0000
0000
0000
1001
0000
0000
0000
0010
0000
1000
0100
0010
0001
,
0100
0001
0010
0100
1000
0001
1000
0010
,
1000
0001
1000
0200
0000
0301
1000
0001
,
1000
0010
0100
0101
0000
1010
0000
0100
,
0001
1000
0001
0100
0000
0010
0000
0100
0001
0000
0000
0000
1001
0000
0000
0000
,
0011
0011
0000
0000
1100
1100
0000
0000
,
0011
0011
0000
0000
1001
1001
0000
0000
,
1010
0100
0001
0000
0011
0001
1000
0000
,
1010
0100
0010
0000
1001
0100
0001
0000
,
1001
0000
0001
0010
0001
0010
0001
0100
,
0010
0000
0000
1010
0000
0000
0102
0000
0000
0000
1003
0000
0010
0000
0100
0000
,
0001
0000
0010
0000
0001
0000
0100
0001
0000
0000
0010
0000
0001
0000
1000
0000
,
0000
0100
1000
0010
0000
0001
1000
0100
,
1000
0000
0000
0000
0010
0001
0010
0001
1000
0100
1000
0100
0010
0001
0200
0000
,
0000
0000
0310
1000
0010
1000
0200
0000
0000
0000
0310
0000
0010
0000
1000
0000
,
0001
0000
1000
0000
0100
0000
1000
0000
0010
0100
0010
1000
0010
1000
0010
0200
,
0000
0301
1000
0100
0010
0001
0100
0001
,
1001
0000
0101
0100
1100
0000
1100
0100
,
0101
0200
0000
0310
1000
0001
0010
0001
,
1000
0010
0100
0101
0000
0010
1000
1100
,
0000
1020
0000
0130
0100
0001
0100
0010
,
0110
0000
1010
0000
0101
0001
1000
1010
,
0000
0011
0000
1010
0000
0100
0001
1000
,
0010
1000
0100
1100
0000
0011
0000
1001
,
1000
0010
0100
0001
0000
0100
0000
0100
0001
0000
0100
0000
0100
0000
0020
0000
,
1000
1030
0001
0020
0000
0031
0001
0200
,
0000
0310
1000
0100
0010
0001
0100
0101
,
0000
1001
0000
0011
0000
0010
0001
0100
,
0010
1000
0001
0010
0001
1000
0100
0020
,
0000
0031
0100
0020
0000
1030
0001
0200
,
0000
0310
1000
0100
0010
0000
0011
0000
,
0100
0010
1000
0010
0100
0010
0100
0001
,
0000
0001
0010
0001
1000
0100
0010
0001
,
0100
0000
0010
0000
1000
0100
1000
0000
0100
0010
0100
0000
0010
0001
0010
0000
,
0001
0000
0100
0000
0010
1000
0010
0000
0100
0001
0100
0000
1000
0010
1000
0000
,
0001
0000
0100
0000
0010
0000
1010
0000
0000
0000
0100
0001
1000
0000
0020
0000
,
0130
0000
0001
0000
0002
0000
0010
0000
0013
0000
0010
0001
1000
0000
0010
0000
,
0100
0000
0010
0100
0010
0000
1000
0000
0010
0000
0100
0001
1000
0000
0001
0000
,
0100
0000
0010
1000
0010
0000
0100
0000
0001
0000
1000
0001
0100
0000
0010
0000
,
1010
0010
0100
0101
0000
2002
0000
3003
,
0001
0000
0100
0000
0010
1000
0010
0100
0010
0000
1000
0000
0001
0010
0100
1000
,
0001
0000
1000
0000
0010
0100
0010
1000
0001
0000
0100
0000
0010
0001
0100
0010
,
1000
0100
1000
0100
0010
0001
0010
0001
1000
0010
1000
0010
0100
0001
0100
0001
,
1000
0100
0010
0001
0100
0010
1000
0010
0100
0001
0100
0010
1000
0000
0001
0000
,
0100
0010
1000
0001
0000
0001
0000
0001
1000
0000
0000
0000
0110
0000
0000
0000
,
0001
0010
0100
1000
0000
0001
0000
0001
1000
0000
0000
0000
0110
0000
0000
0000
,
0010
0001
0100
0010
0000
1000
0000
0010
0100
0000
0101
0000
1001
0000
0000
0000
,
0110
0000
0000
0000
;

//---------------dance-double - ----------------
#NOTES:
     dance-double:
     :
     Medium:
     9:
     0.495083,0.529096,0.476186,0.026455,0.000000,393.000000,339.000000,54.000000,3.000000,0.000000,0.000000,0.495083,0.529096,0.476186,0.026455,0.000000,393.000000,339.000000,54.000000,3.000000,0.000000,0.000000:
00000000
00000000
00000000
00000000
,
00000000
00000000
00000000
00000000
,
00000000
00000000
00000000
00000000
,
00010000
10000000
00010000
00000000
00100000
00010000
00100000
00000000
,
00001000
00010000
00001000
00000000
00010000
00000000
00000010
00000000
,
00001000
00000001
00001000
00000000
00000100
00001000
00000100
00000000
,
00010000
00001000
00010000
00000000
00001000
00000000
00100000
00000000
,
00010000
00000000
01000000
00000000
00100000
00000000
10000000
00010000
,
00000000
10000000
00000000
10010000
00000000
00000000
00000000
00000000
,
00100000
00000000
00001000
00000000
00010000
00000000
00001000
00010000
,
00000000
00011000
00000000
00010200
00000000
00000000
00000300
00000000
,
00001000
00000000
00000010
00000000
00000100
00000000
00000001
00001000
,
00000000
00000010
00000000
00000010
00000000
00001000
00000001
00000000
,
00001000
00000100
00001000
00000000
00000100
00010000
00000100
00000000
,
00010000
00001000
00010000
00000000
00001000
00100000
00010000
00000000
,
01000000
00000000
00100000
00000000
10000000
00000000
00010000
00100000
,
00000000
00110000
00000000
10010000
00000000
00000000
00000000
00000000
,
00100000
00000000
00001000
00000000
00010000
00000000
00000100
00001000
,
00000000
00000010
00000000
00000102
00000000
00000000
00001003
00000000
,
00000010
00000000
00001000
00000000
00000100
00000000
00010000
00000100
,
00000000
00010000
00000000
00001000
00000000
00010000
00001000
00000000
,
00001000
00100000
00010000
00000000
00010000
01000000
00100000
00000000
,
00100000
10000000
00100000
00000000
01000000
01000000
01000000
01000000
,
00100000
10000000
00100000
00000000
01000000
00010000
01000000
00000000
,
00010000
00100000
00010000
00100000
00000000
01010000
00000000
00000000
,
10000000
00100000
01000000
00010000
,
00100000
00010000
00000000
00100000
00000000
00001000
00000000
00010000
,
00000100
00000000
00001000
00000010
00000000
00000100
00000001
00001000
,
00000000
00001001
00000000
00001100
00000000
00000010
00001000
00000000
,
00000100
00000000
00010000
00000000
00001000
00000000
00100000
00010000
,
00000000
01000000
00000000
01100000
00000000
00000000
00000000
00100000
,
10000000
00100000
01000000
00100000
00000000
10100000
00000000
00000000
,
00020000
00000000
00000000
00030000
00110000
00000000
00000000
00000000
,
00011000
00000000
00001100
00000000
,
00000110
00000000
00001100
00000000
,
00011000
00001000
00101000
00100000
,
00110000
00010000
01010000
01000000
,
00100000
00000000
10000000
00010000
00100000
00000000
00010000
00000000
,
10000000
00000000
00010000
00100000
00000000
00100000
00010000
00000000
,
01000000
00000000
00001000
00000000
00010000
00010000
00000000
00011000
,
00000000
00001100
00000000
00000110
00000000
00000001
00001000
00000000
,
00000100
00000000
00010000
00000000
00001000
00010000
00001000
00000000
,
00100000
00000000
00010000
00000000
01000000
00100000
01000000
00000000
,
00010000
00000000
10000000
00000000
00100000
01000000
00100000
01000000
,
00000000
00010000
00100000
00010000
,
00101000
00001000
00010000
00000100
,
00001000
00000010
00000000
00000100
00000000
00000001
00000000
00001000
,
00000100
00000000
00010000
00001000
00000000
00100000
00010000
01000000
,
00000000
10100000
00000000
01010000
00000000
00100000
10000000
00000000
,
01000000
00000000
01010000
00000000
01010000
00000000
00100000
00010000
,
00000000
00011000
00000000
00010100
00000000
00000100
00001000
00000010
,
00000100
00000001
00001000
00000010
00000000
00001010
00000000
00000000
,
00000100
00010000
00010100
00000000
,
00001000
00010000
00001000
00010000
00000000
00001000
00100000
00001000
,
00000000
00100000
00010000
01000000
00000000
00100000
10000000
00100000
,
00000000
01000000
00010000
01000000
00000000
00010000
00000000
00110000
,
00000000
00011000
00000000
00000000
00010000
00000000
00000100
00000000
,
00001000
00000010
00001000
00000010
00000000
00000100
00000001
00000100
,
00000000
00000010
00001000
00000010
00000000
00001000
00000000
00000100
,
00010000
00000000
00001000
00010000
00000000
00001000
00000000
00100000
,
00000000
00110000
00000000
00000000
00010000
00000000
01000000
00000000
,
10010000
00000000
01010000
00000000
00110000
00000000
00100000
00001000
,
00010000
00000000
00011000
00000000
00010100
00000000
00000100
00001000
,
00000010
00000100
00000001
00000100
00000000
00000010
00001000
00000100
,
00000000
00001100
00000000
00000100
00000000
00010000
00001000
00010000
,
00001000
00000000
00110000
00000000
01010000
00000000
00010000
10000000
,
00100000
10100000
10010000
00100000
,
00001000
00010000
00001000
00010000
00000000
00011000
00000000
00000000
,
00010000
00010000
00010000
00000000
00000100
00000100
00000100
00000000
,
00001000
00001000
00001000
00000000
00000001
00000001
00000001
00000000
,
00001000
00000100
00001000
00000000
00000100
00010000
00000100
00000000
,
00010000
00001000
00010000
00000000
00001000
00100000
00010000
00000000
,
01010000
10100000
10010000
00000000
,
00110000
00011000
00001100
00000000
,
00000110
00000000
00010000
00000000
00001000
00010000
00001000
00000000
,
00011000
00000000
00000000
00000000
;

//---------------dance-single - ----------------
#NOTES:
     dance-single:
     :
     Medium:
     9:
     0.566888,0.595233,0.652552,0.114637,0.000000,450.000000,376.000000,74.000000,13.000000,0.000000,0.000000,0.566888,0.595233,0.652552,0.114637,0.000000,450.000000,376.000000,74.000000,13.000000,0.000000,0.000000:
0000
0000
0000
0000
,
0000
0000
0000
0000
,
0000
0000
0000
0000
,
1010
0000
0101
0000
1000
0001
1000
0000
,
0101
0000
1010
0000
0010
0100
0010
0000
,
1000
0100
1000
0000
0001
0010
0001
0000
,
1000
0001
1000
0001
1000
0001
1000
0000
,
0010
0000
0100
0000
0001
0010
0100
1000
,
0000
0101
0000
2002
0000
0000
3003
0000
,
0010
0000
1000
0000
0001
0100
0010
1000
,
0000
1010
0000
0202
0000
0000
0303
0000
,
1000
0000
0010
0000
0100
0001
1000
0001
,
0000
0100
0000
0010
0000
1000
0001
1000
,
0001
0100
0010
0000
0010
1000
0100
0000
,
0100
1000
0010
0100
0001
1000
0001
0000
,
0100
0000
0010
0000
1000
0100
0010
0001
,
0000
0011
0000
1100
0000
0001
0100
0010
,
1000
0000
1010
0000
0001
0100
0010
1000
,
0000
1100
0000
0011
0000
0100
0010
1000
,
1001
0000
0101
0000
0010
1000
0100
1000
,
0000
0010
0000
0101
0000
0010
1000
0100
,
1000
0010
0010
0000
0100
0001
0001
0000
,
1000
0010
0010
0000
1000
0001
1000
0001
,
1000
0010
0010
0000
0100
0001
0001
0010
,
0000
0001
0100
0010
0000
1010
0000
0000
,
0101
1001
1010
1001
,
0100
0001
0000
1001
0000
0010
0000
1000
,
0100
0010
0001
0100
0000
0010
1000
0100
,
0000
1100
0000
0011
0000
0001
0100
0000
,
1010
0000
0101
0000
1001
0000
0010
0100
,
0000
0110
0000
1001
0000
0000
0000
0001
,
0100
0010
1000
0100
0000
1100
0000
0000
,
0202
0000
0303
1010
,
0001
0100
0001
0000
1000
0100
1000
0000
,
0010
0100
0010
0000
1000
0001
1000
0000
,
0101
1100
0011
1010
,
0110
1001
0110
1001
,
0001
0000
1000
0100
1000
0010
1000
0001
,
1000
0100
0010
0001
,
0100
0010
1000
0010
0100
0000
0001
0101
,
0000
1001
0000
0011
0000
0001
0100
0010
,
0000
0100
0001
0100
0001
0100
0001
0100
,
0000
1000
0001
1000
0000
0010
0000
1000
,
0010
0000
0100
0000
0001
1000
0001
1000
,
0000
0020
0200
0330
,
1000
0001
0100
0010
,
1000
0010
0000
1010
0000
0101
0000
0001
,
0100
0010
0100
0001
0000
0101
0000
1010
,
0000
0110
0000
1001
0000
0001
1000
0000
,
1100
0000
0011
0000
1100
0000
0010
0100
,
0000
0110
0000
2002
0000
3003
0000
0010
,
0100
0001
0100
0010
0000
1000
0000
0000
,
2002
3003
1001
0000
,
0010
0100
0010
0100
0000
0001
1000
0001
,
0000
0100
0010
0100
0000
0001
0000
1000
,
0000
0010
0100
0001
0000
1010
0000
0101
,
0000
1000
1000
0000
0000
0001
0010
0100
,
0000
0010
0100
1000
0000
1000
0100
0010
,
0000
0100
0010
0001
0000
1000
0000
0001
,
0000
0100
0100
0010
0000
1010
0000
0101
,
0000
1000
0001
0000
0000
1000
0010
1000
,
0000
0001
0100
0001
0000
1000
0100
0010
,
0000
0001
0010
0100
0000
1000
0010
1000
,
0001
1000
0010
1000
0000
1100
0000
0011
,
0000
0100
0100
0000
0001
0100
0010
0100
,
0000
0001
1000
0001
0000
1000
0100
0020
,
0000
0130
0100
0100
0000
0001
1000
0010
,
1000
0001
1000
0010
0000
1001
0000
0000
,
0001
0100
0100
0000
1000
0010
0010
0000
,
0001
0100
0100
0000
1000
0010
0010
0000
,
1000
0100
1000
0100
0010
0001
0010
0001
,
1000
0100
0010
0001
0100
0010
1000
0001
,
1000
0011
0110
0000
,
0011
1100
0110
0000
,
1010
0000
0101
0000
1001
1001
1001
0000
,
1001
0000
0000
0000
;

//---------------dance-single - ----------------
#NOTES:
     dance-single:
     :
     Beginner:
     3:
     0.157469,0.264548,0.035273,0.000000,0.000000,125.000000,121.000000,4.000000,0.000000,0.000000,0.000000,0.157469,0.264548,0.035273,0.000000,0.000000,125.000000,121.000000,4.000000,0.000000,0.000000,0.000000:
// measure 0
0000
0000
0000
0000
,  // measure 1
0000
0000
0000
0000
,  // measure 2
0000
0000
0000
0000
,  // measure 3
0001
0000
0000
0000
,  // measure 4
1000
0000
0000
0000
,  // measure 5
0010
0000
0000
0000
,  // measure 6
0100
0000
0000
0000
,  // measure 7
0001
0000
0001
0000
,  // measure 8
0001
0000
0000
0000
,  // measure 9
1000
0000
1000
0000
,  // measure 10
1000
0000
0000
0000
,  // measure 11
0010
0000
0010
0000
,  // measure 12
0010
0000
0000
0000
,  // measure 13
1000
0000
0001
0000
,  // measure 14
1000
0000
0001
0000
,  // measure 15
0100
0000
0100
0000
,  // measure 16
0100
0000
0000
0000
,  // measure 17
0010
0000
0010
0000
,  // measure 18
0010
0000
0000
0000
,  // measure 19
1000
0000
1000
0000
,  // measure 20
1000
0000
0000
0000
,  // measure 21
0001
0000
1000
0000
,  // measure 22
0001
0000
0000
0000
,  // measure 23
1000
0000
0001
0000
,  // measure 24
1000
0000
0001
0000
,  // measure 25
1000
0000
0000
0000
,  // measure 26
0010
0000
0000
0000
,  // measure 27
0100
0000
0000
0000
,  // measure 28
0001
0000
0000
0000
,  // measure 29
1000
0000
0001
0000
,  // measure 30
1000
0000
0000
0000
,  // measure 31
0001
0000
1000
0000
,  // measure 32
0001
0000
0000
0000
,  // measure 33
0100
0000
0100
0000
,  // measure 34
0100
0000
0100
0000
,  // measure 35
0010
0000
0010
0000
,  // measure 36
0010
0000
0010
0000
,  // measure 37
0000
1000
0000
1000
,  // measure 38
0000
0001
0000
0001
,  // measure 39
0000
1000
0000
1000
,  // measure 40
0000
0000
1001
0000
,  // measure 41
0000
0010
0000
0010
,  // measure 42
0000
0100
0000
0100
,  // measure 43
0000
0010
0000
0010
,  // measure 44
0000
0000
1001
0000
,  // measure 45
0000
0000
0001
0000
,  // measure 46
0100
0000
0001
0000
,  // measure 47
0000
0000
1000
0000
,  // measure 48
0100
0000
1000
0000
,  // measure 49
0001
0000
0001
0000
,  // measure 50
1000
0000
1000
0000
,  // measure 51
0010
0000
0010
0000
,  // measure 52
0010
0000
0000
0000
,  // measure 53
1000
0000
0000
0000
,  // measure 54
0100
0000
0000
0000
,  // measure 55
0010
0000
0000
0000
,  // measure 56
0001
0000
0000
0000
,  // measure 57
1000
0000
0000
0000
,  // measure 58
0001
0000
0000
0000
,  // measure 59
1000
0000
1000
0000
,  // measure 60
1000
0000
0000
0000
,  // measure 61
0001
0000
1000
0000
,  // measure 62
0001
0000
1000
0000
,  // measure 63
0010
0000
0100
0000
,  // measure 64
0010
0000
0100
0000
,  // measure 65
0001
0000
1000
0000
,  // measure 66
0010
0000
0100
0000
,  // measure 67
0001
0000
1001
0000
,  // measure 68
0010
0000
1000
0000
,  // measure 69
0100
0000
0001
0000
,  // measure 70
1000
1000
1000
0000
,  // measure 71
0001
0001
0001
0000
,  // measure 72
1000
1000
1000
0000
,  // measure 73
0001
0001
0001
0000
,  // measure 74
1000
1000
1000
0000
,  // measure 75
1001
0000
0000
0000
;
