#TITLE:Our Faith;
#SUBTITLE:;
#ARTIST:kors k;
#TITLETRANSLIT:;
#SUBTITLETRANSLIT:;
#ARTISTTRANSLIT:;
#GENRE:;
#CREDIT:Toxsa Dalton;
#BANNER:Our Faith.png;
#BACKGROUND:Our Faith-bg.png;
#LYRICSPATH:;
#CDTITLE:;
#MUSIC:Our Faith.ogg;
#OFFSET:1.345000;
#SAMPLESTART:54.899971;
#SAMPLELENGTH:12.000000;
#LASTBEATHINT:1.006251;
#SELECTABLE:YES;
#BPMS:0.000000=175.000000
;
#STOPS:
;
#BGCHANGES:;
#KEYSOUNDS:;
#ATTACKS:;

//---------------dance-single - ----------------
#NOTES:
     dance-single:
     :
     Hard:
     12:
     0.538640,0.601937,0.086128,0.354081,0.282307,394.000000,385.000000,9.000000,37.000000,0.000000,0.000000,0.538640,0.601937,0.086128,0.354081,0.282307,394.000000,385.000000,9.000000,37.000000,0.000000,0.000000:
0000
0000
0000
0000
,
0000
0000
0000
0000
,
0000
0000
0000
0000
,
0000
0000
0000
0000
,
0000
0000
0000
0000
,
0100
0100
0010
0010
,
1000
0001
1000
0000
0001
1000
0001
0000
,
1000
0100
0010
0001
1000
0100
0010
0001
,
0200
0320
2030
3001
,
1000
0000
0000
0000
0000
0000
0001
1000
0001
0000
0000
0000
1000
0000
0010
0000
,
0100
0000
0100
0000
0010
0000
0010
1000
,
0001
0000
0000
0000
0000
0000
1000
0001
1000
0000
0000
0000
0001
0000
1000
0000
,
0010
0000
0010
0000
1000
0100
0010
0001
,
1000
0000
0000
0000
0000
0000
1000
0010
1000
0000
0000
0000
0010
0000
1000
0000
,
0001
0000
0001
0000
1000
0010
0100
0001
,
1000
0000
0000
0000
0000
0000
0001
1000
0001
0000
0000
0000
1000
0000
0010
0000
,
0200
0000
0020
0330
,
2000
0000
3002
0000
,
0023
0000
0230
0000
,
2300
0000
3002
0000
,
0203
0000
0000
0300
,
0002
0000
2003
0000
,
3200
0000
0320
0000
,
0031
0000
1000
0000
0001
0000
0000
1000
,
0000
0001
1000
0000
0020
0000
0030
0000
,
0200
0301
2000
3100
,
0020
0031
0200
0310
,
2000
3100
0020
0031
,
0200
0000
0301
0000
1000
0010
0100
0001
,
2000
0000
0001
0000
0001
0000
0000
3001
,
0000
0100
0000
0010
0000
1000
0001
0000
,
0020
0001
0001
0031
,
2000
3002
0203
0310
,
1000
0000
0000
1000
0000
0000
0001
0000
0100
0000
0000
0100
0000
0000
0010
0000
,
1000
0000
0000
1000
0000
0000
0100
0000
0010
0000
0000
0010
0000
0000
0001
0000
,
1000
0000
0000
1000
0000
0000
0010
0000
0100
0000
0000
0100
0000
0000
0001
0000
,
1000
0000
0000
1000
0000
0000
1000
0000
0001
0000
0100
0000
0010
0000
1000
0000
,
0001
0000
0101
0000
1001
0000
1000
0100
,
1000
0000
1100
0000
1001
0000
0001
0010
,
0001
0100
0001
0100
0010
1000
0010
1000
,
0002
2003
3020
0130
,
0001
0000
0000
0001
0000
1000
0001
0000
1000
0000
0000
1000
0000
0001
1000
0000
,
0010
0000
0000
0010
0000
0100
0010
0000
0100
0000
0000
0100
0000
0010
0100
0000
,
0001
0000
0000
0001
0000
0001
0100
0000
0010
0000
0000
0010
0000
0010
1000
0000
,
0001
0000
0000
0001
0000
0000
1000
0000
0010
0000
0100
0000
0001
0000
0100
0000
,
0010
0000
0000
0010
0000
0100
0010
0000
1000
0000
0000
1000
0000
0010
1000
0000
,
0001
0000
0000
0001
0000
0100
0001
0000
1000
0000
0000
1000
0000
0001
1000
0000
,
0010
0100
0001
0100
0010
0000
1000
0100
,
1000
0010
1000
0000
1000
0100
0010
0001
,
1000
0000
0000
1000
0000
0000
0100
0000
0001
0000
0000
0001
0000
0000
0100
0000
,
1000
0000
0000
1000
0000
0000
0010
0000
0001
0000
0000
0001
0000
0000
0010
0000
,
1000
0000
0000
1000
0000
1000
0100
0000
0010
0000
0000
0010
0000
0010
0001
0000
,
0100
0000
0000
0100
0000
0000
0010
0000
1000
0000
0100
0000
0010
0000
0001
0000
,
1000
0000
1001
0000
0110
0000
1000
0001
,
1000
0100
1000
0010
1000
0100
0010
0001
,
1000
0000
0000
0000
0001
0000
0000
0000
0100
0000
0000
0100
0000
0000
1000
0000
,
2002
0000
3003
0000
1000
0001
1001
0000
,
1000
0000
0000
1000
0000
0000
1000
0000
0010
0100
0000
0000
0100
0000
0001
0000
,
0100
0000
0000
0100
0000
0000
0100
0000
0010
1000
0000
0000
1000
0000
0001
0000
,
0100
0000
0000
0100
0000
0000
0100
0000
0001
1000
0000
0000
1000
0000
0010
0000
,
0100
0000
0000
0100
0000
0000
0100
0000
0001
0100
0000
0000
0001
0000
1000
0000
,
0010
0000
0000
0010
0000
0000
0010
0000
1000
0010
0000
0000
0100
0000
0001
0000
,
1000
0000
0000
1000
0000
0000
1000
0000
0001
1000
0000
0000
0010
0000
0100
0000
,
0001
1000
0010
1000
0100
0000
1000
0001
,
1000
0010
1000
0000
0001
0010
0100
1000
,
0010
0000
0000
0010
0000
0000
0010
0000
0100
0010
0000
0000
1000
0000
0100
0000
,
0000
1000
0001
0000
1000
0000
0001
0100
,
0001
0000
0000
0001
0000
0000
1000
0000
0001
1000
0000
0000
0001
0000
1000
0000
,
0010
0000
0000
0010
0000
0000
1000
0000
0100
0000
0010
0000
0001
0000
0100
0000
,
0002
1000
0000
1000
0000
1003
0001
0100
,
0001
1000
0010
1000
0100
1000
0010
0100
,
0001
1000
0100
0000
1000
0001
0100
0000
,
0001
0010
0100
1000
0010
0100
0010
1000
,
2002
0000
0000
0000
,
3003
0000
0000
0000
;

//---------------dance-single - ----------------
#NOTES:
     dance-single:
     :
     Medium:
     8:
     0.423803,0.531121,0.210534,0.392359,0.004785,310.000000,288.000000,22.000000,41.000000,0.000000,0.000000,0.423803,0.531121,0.210534,0.392359,0.004785,310.000000,288.000000,22.000000,41.000000,0.000000,0.000000:
0000
0000
0000
0000
,
0000
0000
0000
0000
,
0000
0000
0000
0000
,
0000
0000
0000
0000
,
0000
0000
0000
0000
,
1000
0100
0010
0001
,
1000
0010
0100
0001
,
1000
0010
1000
0000
0001
0100
0001
0000
,
2000
3200
0320
0031
,
1000
0000
0000
0001
1000
0000
0010
0000
,
0100
0110
1000
1001
,
0001
0000
0000
0100
0010
0000
1000
0000
,
0001
1001
0100
0110
,
1000
0000
0000
0001
0010
0000
0100
0000
,
1000
1010
0001
0101
,
0010
0000
0000
1000
0001
0000
0100
0000
,
1010
1010
0202
0303
,
2000
0000
3200
0000
,
0320
0000
0032
0000
,
0203
0000
0320
0000
,
2030
0000
3000
0000
,
0002
0000
0203
0000
,
2300
0000
3020
0000
,
0130
0000
0100
0000
0100
0000
0000
0001
,
0000
0002
0000
0003
,
1000
0000
1001
0000
,
0010
0000
0110
0000
,
0001
0000
1001
0000
,
1000
0000
1000
0100
,
0020
0000
0001
0000
0031
0000
0000
0100
,
0000
0010
0000
0100
0000
0000
0010
0000
,
2000
0001
0001
3001
,
2002
0000
3003
0000
,
0010
0000
0100
0000
,
0001
0000
1000
0000
,
0001
0000
0100
0000
,
0010
0000
1000
0000
,
0001
0100
1000
1001
,
1000
0100
0001
1001
,
0110
0110
1001
1001
,
0020
0230
0302
1003
,
1000
0010
1000
0000
0001
0100
0001
0000
,
1000
0100
1000
0000
0001
0100
0001
0000
,
1000
0010
1000
0010
1000
0010
1000
0000
,
0001
0100
0001
0100
0001
0100
0001
0000
,
1000
1000
0010
0000
0100
0100
0001
0000
,
1000
1000
0100
0000
0010
0010
0001
0000
,
0100
0010
0100
0010
0100
0000
0001
1000
,
0000
0001
0100
0000
0001
1000
0100
0010
,
0001
0000
0100
0001
0100
0000
0001
1000
,
0001
0000
1000
0010
1000
0000
0010
0100
,
0010
0000
1000
0100
1000
0000
0001
0100
,
0001
0000
0100
0000
0001
1000
0001
1000
,
0010
0000
0100
0000
0001
0000
1000
0100
,
0000
0010
0000
0001
0000
0100
0001
1000
,
0001
0000
0000
0000
1000
0000
0000
0000
0100
0000
0000
0100
0000
0000
0001
0000
,
2000
0000
0002
3003
,
1000
0010
2000
0000
3001
0100
0002
0000
,
1003
0010
0200
0000
0310
0100
0002
0000
,
1003
0010
1000
0010
0100
0010
0100
0000
,
0001
0100
0001
0100
0010
0100
0010
0000
,
1000
1000
0002
0000
0103
0100
0020
0000
,
1030
1000
0200
0000
0310
0010
0002
0000
,
0103
0010
0100
0010
0100
0000
1000
0001
,
0000
1000
0010
0000
1000
0100
0010
0001
,
1001
0000
0000
0000
0010
0100
0010
0100
,
0000
0001
1000
0000
0010
0000
0010
0000
,
1000
0100
1000
0000
0001
0100
0001
0000
,
1000
0010
1000
0000
0001
0100
0010
0100
,
0002
0000
1000
0000
1003
0000
0000
1000
,
0000
0100
0000
0010
0000
0000
1000
0000
,
0002
0103
2000
3100
,
0220
0000
0000
0330
,
2002
0000
0000
0000
,
3003
0000
0000
0000
;

//---------------dance-single - ----------------
#NOTES:
     dance-single:
     :
     Easy:
     5:
     0.226940,0.318672,0.057418,0.315802,0.000000,166.000000,160.000000,6.000000,33.000000,0.000000,0.000000,0.226940,0.318672,0.057418,0.315802,0.000000,166.000000,160.000000,6.000000,33.000000,0.000000,0.000000:
0000
0000
0000
0000
,
0000
0000
0000
0000
,
0000
0000
0000
0000
,
0000
0000
0000
0000
,
0000
0000
0000
0000
,
0010
0000
0100
0000
,
0001
0000
1000
0000
,
0010
0100
0001
1000
,
0020
0000
0000
0030
,
1000
0000
0001
0000
,
1000
0100
0010
0001
,
1000
0000
0001
0000
,
0010
0010
0100
0100
,
0001
0000
1000
0000
,
0001
0010
0100
1000
,
0010
0000
0100
0000
,
0001
1000
1001
0000
,
0010
0000
1000
0000
,
0100
0000
0010
0000
,
0001
0000
1000
0000
,
0001
0000
0000
0000
,
0001
0000
0100
0000
,
0010
0000
1000
0000
,
0001
1000
0001
0000
,
1000
0001
1000
0000
,
0002
0000
0203
0000
,
2300
0000
3200
0000
,
0302
0000
0203
0000
,
0310
0000
1000
0001
,
2000
0000
3000
0000
,
0002
0000
0003
0000
,
0020
0000
0030
0000
,
2002
0000
3003
0000
,
1000
0000
0001
0000
,
0100
0000
0010
0000
,
1000
0000
0100
0000
,
0010
0000
0001
0000
,
1000
0100
0001
0000
,
1000
0010
0001
0000
,
1000
0100
0010
0001
,
2002
0000
3003
0000
,
0010
0000
0100
0000
,
0001
0000
1000
0000
,
0010
0010
0010
0000
,
0100
0100
0100
0000
,
0100
0000
0010
0000
,
1000
0000
0001
0000
,
1000
1000
1000
0000
,
0001
0001
0001
0000
,
1000
0000
0010
0000
,
0001
0000
0100
0000
,
0010
1000
0010
0000
,
0100
0001
0100
0000
,
0010
0000
1000
0000
,
0001
1000
0001
1000
,
0010
0000
0100
0000
,
2002
0000
3003
0000
,
0020
0000
0032
0000
,
0203
0000
2300
0000
,
3010
0100
0010
0000
,
0100
0010
0100
0000
,
2000
0000
3200
0000
,
0320
0000
0032
0000
,
1003
0100
1000
0000
,
0001
0100
0001
0100
,
0020
0000
0130
0100
,
0000
1001
0000
0000
,
0002
0000
2003
0000
,
3020
0000
1030
0100
,
0020
0000
0031
0000
,
1000
0100
0010
0001
,
2000
0000
3002
0000
,
0103
0000
0000
0000
,
2002
0000
0000
0000
,
3003
0000
0000
0000
;

//---------------dance-single - ----------------
#NOTES:
     dance-single:
     :
     Beginner:
     3:
     0.142179,0.212448,0.019139,0.076558,0.000000,104.000000,102.000000,2.000000,8.000000,0.000000,0.000000,0.142179,0.212448,0.019139,0.076558,0.000000,104.000000,102.000000,2.000000,8.000000,0.000000,0.000000:
// measure 0
0000
0000
0000
0000
,  // measure 1
0000
0000
0000
0000
,  // measure 2
0000
0000
0000
0000
,  // measure 3
0000
0000
0000
0000
,  // measure 4
0000
0000
0000
0000
,  // measure 5
1000
0000
0000
0000
,  // measure 6
0100
0000
0000
0000
,  // measure 7
0010
0000
0000
0000
,  // measure 8
0001
0000
0000
0000
,  // measure 9
1000
0000
1000
0000
,  // measure 10
0001
0000
0001
0000
,  // measure 11
1000
0000
1000
0000
,  // measure 12
1000
0000
0000
0000
,  // measure 13
0001
0000
0001
0000
,  // measure 14
1000
0000
1000
0000
,  // measure 15
0001
0000
0001
0000
,  // measure 16
0001
0000
0000
0000
,  // measure 17
0100
0000
0000
0000
,  // measure 18
0010
0000
0000
0000
,  // measure 19
1000
0000
0000
0000
,  // measure 20
0000
0000
0000
0000
,  // measure 21
0010
0000
0000
0000
,  // measure 22
0100
0000
0000
0000
,  // measure 23
0001
0000
0000
0000
,  // measure 24
0000
0000
0000
0000
,  // measure 25
1000
0000
0000
0000
,  // measure 26
0001
0000
0000
0000
,  // measure 27
0100
0000
0000
0000
,  // measure 28
0010
0000
0000
0000
,  // measure 29
1000
0000
0000
0000
,  // measure 30
0001
0000
0000
0000
,  // measure 31
1000
0000
1000
0000
,  // measure 32
1000
0000
0000
0000
,  // measure 33
0001
0000
0000
0000
,  // measure 34
0100
0000
0000
0000
,  // measure 35
0010
0000
0000
0000
,  // measure 36
1000
0000
0000
0000
,  // measure 37
0001
0000
0001
0000
,  // measure 38
1000
0000
1000
0000
,  // measure 39
0010
0000
0010
0000
,  // measure 40
0010
0000
0000
0000
,  // measure 41
1000
0000
1000
0000
,  // measure 42
0001
0000
0001
0000
,  // measure 43
0100
0000
0010
0000
,  // measure 44
0100
0000
0010
0000
,  // measure 45
0001
0000
0001
0000
,  // measure 46
1000
0000
1000
0000
,  // measure 47
0010
0000
0010
0000
,  // measure 48
0100
0000
0001
0000
,  // measure 49
1000
0000
1000
0000
,  // measure 50
0001
0000
0100
0000
,  // measure 51
0001
0000
0001
0000
,  // measure 52
1000
0000
0100
0000
,  // measure 53
0020
0000
0030
0000
,  // measure 54
0200
0000
0300
0000
,  // measure 55
0002
0000
0003
0000
,  // measure 56
2000
0000
3000
0000
,  // measure 57
0001
0000
0001
0000
,  // measure 58
1000
0000
1000
0000
,  // measure 59
0010
0000
0100
0000
,  // measure 60
0010
0000
0100
0000
,  // measure 61
1000
0000
1000
0000
,  // measure 62
0001
0000
0001
0000
,  // measure 63
0100
0000
0010
0000
,  // measure 64
0100
0000
0010
0000
,  // measure 65
1000
0000
0000
0000
,  // measure 66
0001
0000
0000
0000
,  // measure 67
1000
0000
0100
0000
,  // measure 68
0010
0000
0001
0000
,  // measure 69
0100
0000
0100
0000
,  // measure 70
0010
0000
0010
0000
,  // measure 71
1000
0000
0001
0000
,  // measure 72
2002
0000
3003
0000
,  // measure 73
2002
0000
0000
0000
,  // measure 74
3003
0000
0000
0000
;
