#TITLE:Our Faith;
#SUBTITLE:(takdrive remix);
#ARTIST:takdrive;
#TITLETRANSLIT:;
#SUBTITLETRANSLIT:;
#ARTISTTRANSLIT:;
#GENRE:;
#CREDIT:Toxsa Dalton;
#BANNER:Our Faith (takdrive remix).png;
#BACKGROUND:Our Faith (takdrive remix)-bg.png;
#LYRICSPATH:;
#CDTITLE:;
#MUSIC:Our Faith (takdrive remix).ogg;
#OFFSET:1.495001;
#SAMPLESTART:12.000105;
#SAMPLELENGTH:12.000000;
#LASTBEATHINT:1.320002;
#SELECTABLE:YES;
#BPMS:0.000000=160.000000
,100.000000=80.000000
,156.000000=160.000000
;
#STOPS:
;
#BGCHANGES:;
#KEYSOUNDS:;
#ATTACKS:;

//---------------dance-single - ----------------
#NOTES:
     dance-single:
     :
     Hard:
     13:
     0.498894,0.628104,0.117246,0.251242,0.464797,417.000000,403.000000,14.000000,30.000000,0.000000,0.000000,0.498894,0.628104,0.117246,0.251242,0.464797,417.000000,403.000000,14.000000,30.000000,0.000000,0.000000:
0000
0000
0000
0000
,
0000
0000
0000
0000
,
0000
0000
0000
0000
,
0000
0000
0000
0000
,
0000
0000
0000
0000
,
1000
0100
0010
0001
,
1000
0010
0100
0001
,
1000
0001
1000
0001
0100
0010
0100
0010
,
1000
0000
2002
3003
,
1000
0000
0000
1000
0000
0000
1000
0000
0001
0000
0000
0001
0000
0000
0001
0000
,
0100
0000
0000
0100
0000
0000
0100
0000
0010
0000
1000
0010
0000
1000
0010
0000
,
0100
0000
0000
0100
0000
0000
0001
0000
1000
0000
0001
1000
0000
0001
1000
0000
,
0010
0000
0000
0010
0000
0000
1000
0000
0001
0000
0100
0001
0000
0100
0001
0000
,
1000
0000
0000
1000
0000
0000
1000
0000
0010
0000
0000
0010
0000
0000
0010
0000
,
0100
0000
0000
0100
0000
0000
0100
0000
0001
0000
1000
0001
0000
1000
0001
0000
,
0100
0000
0000
0100
0000
0000
0100
0000
0001
0000
1000
0001
0000
1000
0001
0000
,
0010
0000
0000
0010
0000
0000
1000
0000
1001
0000
0000
1001
0000
0000
1001
0000
,
0010
0000
0000
0010
0000
0000
0100
0000
0001
0000
0000
0001
0000
0000
1000
0000
,
0010
0000
1000
0010
0000
1000
0010
0000
0100
0000
0001
0100
0000
0001
0100
0000
,
0001
0000
0000
0001
0000
0000
1000
0000
0010
0000
0100
0010
0000
0100
0010
0000
,
1000
0000
0000
1000
0000
0000
0001
0000
1000
0000
0100
0000
0010
0000
0001
0000
,
1000
0000
0010
1000
0000
0010
1000
0000
0001
0000
0100
0001
0000
0100
0001
0000
,
1000
0010
1000
0001
1000
0100
1000
0010
,
0100
0000
0000
0100
0000
0000
0100
0000
0001
0000
0000
0001
0000
0000
1000
0000
,
2002
0000
3003
0000
0002
0000
2000
3003
,
0001
0000
0000
1000
0000
0000
2002
0000
0000
3003
0000
0000
0001
0000
0000
1000
0000
0000
0001
0010
0001
0010
0000
0000
,
1000
0000
0000
0000
0000
0000
0000
0000
0010
0000
0000
0000
0000
0000
0000
0000
1000
0000
0000
0000
0000
0000
0000
0000
0010
0000
0000
0000
0000
0000
0000
0000
1000
0000
0000
0000
0000
0000
0000
0000
0010
0000
0000
0000
0000
0000
0000
0000
1000
0000
0000
0000
0000
0000
0000
0000
0000
0000
0000
0000
0000
0000
0000
0000
0000
0000
0000
0000
0000
0000
0000
0000
0001
0000
0000
0000
0000
0000
0000
0000
0000
0000
0000
0000
0000
0000
0000
0000
0000
0000
0000
0000
0000
0000
0000
0000
0100
0000
0000
0000
0000
0000
0000
0000
0000
0000
0000
0000
0000
0000
0000
0000
0000
0000
0100
0000
0000
0000
0000
0000
0000
0000
0000
0000
0000
0000
0000
0000
0000
0000
0000
0000
0100
0000
0000
0000
0000
0000
0000
0000
0000
0000
0000
0000
0010
0000
0000
0000
0000
0000
0000
0000
0000
0000
0000
0000
0000
0000
0000
0000
0000
0000
0000
0000
0000
0000
0000
0000
1000
0000
0000
0000
0000
0000
0000
0000
0000
0000
0000
0000
0000
0000
0000
0000
0000
0000
0000
0000
0000
0000
0000
0000
,
0001
0000
0000
0000
0001
0000
0000
0000
0100
0000
0000
0000
0020
0000
0000
0000
0000
0000
0000
0000
0000
0000
0000
0000
1030
0000
0000
0000
0000
0000
0100
0000
0000
0000
0000
0000
0020
0000
0000
0000
0000
0000
0000
0000
0000
0031
0000
0000
,
0000
1000
0000
0001
1000
0000
0000
0010
0000
0100
0010
0000
0100
0000
0001
1000
,
0002
0000
0000
0000
0000
0003
1001
0000
1000
0000
1000
0010
0100
0000
0001
0000
,
1000
0000
0000
0000
0000
0000
0000
0000
0100
0000
0000
0000
0000
0000
0000
0000
1000
0000
0000
0000
0000
0000
0000
0000
0100
0000
0000
0000
0000
0000
0000
0000
1000
0000
0000
0000
0000
0000
0000
0000
0100
0000
0000
0000
0000
0000
0000
0000
1000
0000
0000
0000
0000
0000
0000
0000
0000
0000
0000
0000
0000
0000
0000
0000
0000
0000
0000
0000
0000
0000
0000
0000
0010
0000
0000
0000
0000
0000
0000
0000
0000
0000
0000
0000
0000
0000
0000
0000
0000
0000
0000
0000
0000
0000
0000
0000
0100
0000
0000
0000
0000
0000
0000
0000
0000
0000
0000
0000
0000
0000
0000
0000
0000
0000
0100
0000
0000
0000
0000
0000
0000
0000
0000
0000
0000
0000
0000
0000
0000
0000
0000
0000
0100
0000
0000
0000
0000
0000
0000
0000
0000
0000
0000
0000
0001
0000
0000
0000
0000
0000
0000
0000
0000
0000
0000
0000
0000
0000
0000
0000
0000
0000
1000
0000
0000
0000
0000
0000
0000
0000
0000
0000
0000
0000
0000
0000
0000
0000
0000
0000
0001
0000
0000
0000
0000
0000
0000
0000
0000
0000
0000
0000
,
2000
0000
3002
0000
0103
0000
0000
0010
0100
0000
0100
0000
0001
0000
1000
0001
,
0000
1000
0000
0010
1000
0000
0000
0001
0000
0010
0001
0000
1000
0000
0010
0000
,
0200
0302
0023
2030
,
3200
2300
3020
0030
,
0002
0023
2030
3200
,
1300
0000
0100
0000
0010
0000
0000
1000
0000
0001
1000
0000
0010
0000
0100
0000
,
0001
0000
0010
0000
0011
0000
0000
1000
1000
0000
0100
0000
1100
0000
0000
0000
,
0010
0000
0100
0000
0110
0000
0000
1000
1000
0000
0001
0000
1000
0010
1000
0010
,
2000
0000
0001
0000
0001
0000
0000
3001
,
0000
1000
0000
0001
0000
1000
0000
0001
,
0100
0010
0100
0000
0010
0100
0010
0000
,
1000
0001
1000
0001
0100
0010
0100
0010
,
2000
0000
0002
3003
,
1000
0000
1000
0100
0000
0000
1000
0000
0001
0000
0001
0100
0000
0000
0001
0000
,
1000
0000
1000
0010
0000
0000
1000
0000
0001
0000
0001
0010
0000
0001
0010
0000
,
0001
0000
0001
1000
0000
0000
1000
0000
0010
0000
1000
0010
0000
0000
0010
0000
,
0100
0000
0010
0100
0000
0000
0100
0000
0001
0000
1000
0001
0000
1000
0001
0000
,
1000
0000
1000
0010
0000
0000
1000
0000
0001
0000
0001
0100
0000
0000
0001
0000
,
1000
0000
0001
1000
0000
0000
1000
0000
0001
0000
1000
0001
0000
0000
0001
0000
,
0100
0000
0010
0100
0000
0010
0100
0000
0010
0000
1000
0010
0000
1000
0010
0000
,
1000
0000
0001
1000
0000
0000
0001
0000
1001
0000
0000
1001
0000
0000
1001
0000
,
1000
0000
0010
1000
0000
0010
1000
0000
0001
0000
0100
0001
0000
0100
0001
0000
,
1000
0000
0010
0100
0000
0010
0100
0000
0001
0000
0100
0010
0000
0100
0010
0000
,
1000
0000
0001
0100
0000
0001
0100
0000
0001
0000
1000
0010
0000
1000
0010
0000
,
0100
0000
0000
0100
0000
0000
0100
0000
0001
0000
1000
0000
0010
0000
0100
0000
,
0001
0000
0001
1000
0000
0000
0010
0000
0010
0000
1000
0010
0000
0000
1000
0000
,
0100
0010
0001
0100
0010
1000
0001
0100
,
0010
0000
1000
0010
0000
0000
0010
0000
0100
0000
0001
0100
0000
0000
0100
0000
,
0020
0000
0030
0000
2000
0000
0002
3003
,
1001
0000
0000
0000
;

//---------------dance-single - ----------------
#NOTES:
     dance-single:
     :
     Medium:
     9:
     0.349345,0.351738,0.075372,0.167494,0.171682,292.000000,283.000000,9.000000,20.000000,0.000000,0.000000,0.349345,0.351738,0.075372,0.167494,0.171682,292.000000,283.000000,9.000000,20.000000,0.000000,0.000000:
0000
0000
0000
0000
,
0000
0000
0000
0000
,
0000
0000
0000
0000
,
0000
0000
0000
0000
,
0000
0000
0000
0000
,
0001
0100
0010
1000
,
0001
0010
0100
1000
,
0001
1000
0001
1000
0001
1000
0001
1000
,
0010
0000
0220
0330
,
1000
0000
0000
1000
0000
0000
1000
0000
0010
0000
0000
0010
0000
0000
0010
0000
,
0100
0000
0000
0100
0000
0000
0100
0000
0001
0000
0000
0001
0000
0000
0001
0000
,
1000
0000
0000
1000
0000
0000
1000
0000
0010
0000
0000
0010
0000
0000
0010
0000
,
1000
0000
0000
1000
0000
0000
1000
0000
0001
0000
0000
0001
0000
0000
0001
0000
,
0100
0000
0000
0100
0000
0000
0100
0000
0001
0000
0000
0001
0000
0000
0001
0000
,
0010
0000
0000
0010
0000
0000
0010
0000
0001
0000
0000
0001
0000
0000
0001
0000
,
1000
0000
0000
1000
0000
0000
1000
0000
0010
0000
0000
0010
0000
0000
0010
0000
,
0100
0000
0000
0100
0000
0000
0100
0000
0001
0000
0000
1000
0000
0000
0001
0000
,
1000
0001
1000
0000
0001
0100
0010
0000
,
0001
1000
0001
0000
1000
0010
0100
0000
,
0001
0100
0010
0000
1000
0001
1000
0000
,
0010
1000
0100
0000
1000
0001
1000
0001
,
0200
0000
0310
0000
2000
0000
0000
3001
,
0000
0010
0000
0100
0000
1000
0000
0001
,
0200
0310
2000
3001
,
1001
0000
2000
3001
,
0100
0000
0001
0000
1000
0100
0010
0000
,
0002
0000
1003
0000
0001
0100
0020
0000
,
1030
0000
0000
0000
0002
0000
0000
0000
1003
0000
0010
0000
0100
0000
0000
1000
,
0000
0100
0000
0010
0000
0000
0000
1000
0000
0000
0001
0000
1000
0000
0001
0000
,
0200
0000
0000
0310
1000
1000
0001
0000
,
1000
1000
1001
0000
0010
0000
0100
0000
,
0002
0000
0000
0000
1003
0000
0000
0000
0001
0000
0100
0000
0010
0000
0000
0001
,
0000
0010
0000
0100
0000
0000
0000
1000
0000
0000
0001
0000
1000
0000
0001
0000
,
1000
0100
0010
0001
,
0100
0010
1000
0000
,
0001
0010
0100
1000
,
0001
0000
1000
0000
0001
0000
0000
1000
0000
0000
1000
0000
1000
0000
0000
0000
,
0001
0100
0010
1000
,
0001
1000
0020
0030
,
2000
0000
0000
0000
3000
0000
0000
0001
,
0000
0010
0000
0100
0000
1000
0000
0001
,
1000
0001
1000
0001
0100
0010
0100
0010
,
1000
0001
0100
0010
,
2002
0000
3003
0000
,
1000
0000
0000
1000
0000
0000
1000
0000
0001
0000
0000
0001
0000
0000
0001
0000
,
0100
0000
0000
0100
0000
0000
0100
0000
0010
0000
0000
0010
0000
0000
0010
0000
,
1000
0000
0000
1000
0000
0000
1000
0000
0100
0000
0000
0100
0000
0000
0100
0000
,
0010
0000
0000
0010
0000
0000
0010
0000
0001
0000
0000
0001
0000
0000
0001
0000
,
1000
0000
0000
1000
0000
0000
0001
0000
1000
0000
0000
1000
0000
0000
0010
0000
,
1000
0000
0000
1000
0000
0000
0100
0000
1000
0000
0000
1000
0000
0000
0001
0000
,
0001
0000
0000
0001
0000
0000
0100
0000
0001
0000
0000
0001
0000
0000
0010
0000
,
0001
0000
0000
0001
0000
0000
1000
0000
0001
0000
0000
1000
0000
0000
0001
0000
,
0100
0010
0100
0000
0001
0100
0001
0000
,
0010
1000
0100
0000
1000
0010
0100
0000
,
0010
0001
0100
0000
0010
1000
0001
0000
,
1000
0001
1000
0000
1000
0100
0001
0100
,
2000
0000
0010
0000
3010
0000
0100
0001
,
0000
1001
0000
1100
0000
1001
0000
0001
,
0200
0310
0002
1003
,
1001
0000
2000
3001
,
1001
0000
0000
0000
;

//---------------dance-single - ----------------
#NOTES:
     dance-single:
     :
     Easy:
     5:
     0.241670,0.276366,0.050248,0.301490,0.000000,202.000000,196.000000,6.000000,36.000000,0.000000,0.000000,0.241670,0.276366,0.050248,0.301490,0.000000,202.000000,196.000000,6.000000,36.000000,0.000000,0.000000:
0000
0000
0000
0000
,
0000
0000
0000
0000
,
0000
0000
0000
0000
,
0000
0000
0000
0000
,
0000
0000
0000
0000
,
1000
0100
0010
0001
,
1000
0010
0100
0001
,
1000
1000
0001
0001
,
1001
0000
0020
0000
,
1030
1000
0001
0001
,
1000
0100
0010
0001
,
1000
1000
0001
0001
,
0100
0010
0001
1000
,
0001
0001
1000
1000
,
0001
0010
0100
1000
,
0010
0010
0100
0100
,
0002
0003
2002
3003
,
2000
3100
0020
0031
,
2000
3010
0200
0301
,
0200
1300
0200
0301
,
0200
0310
1000
0001
,
2000
3010
0200
0301
,
0200
0010
0010
0310
,
0002
0103
0020
1030
,
0010
0000
1001
0000
,
1000
0000
0001
0000
1000
0001
1000
0000
,
0001
0000
1000
0000
0001
1000
0001
0000
,
1000
0010
0100
0001
,
0200
0310
0020
0130
,
0001
0000
0100
0000
0001
1000
0001
0000
,
1000
0000
0100
0000
1000
0001
1000
0000
,
0001
0010
0100
1000
,
0002
0103
2000
3100
,
2002
0000
3003
0000
,
0010
0000
1000
0000
,
0100
0000
0001
0000
,
0010
0000
1000
0000
,
0001
0001
1000
1000
,
0010
0100
0010
0000
,
2000
0000
3000
0000
,
0002
0000
0003
0000
,
0100
0100
0010
0010
,
1000
0100
0010
0001
,
0000
0000
0000
0000
,
0001
1000
0001
1000
,
0010
0010
0100
0100
,
0001
1000
0100
0010
,
0001
1000
0010
0100
,
0001
0001
1000
1000
,
0010
0100
0001
1000
,
0001
0010
0100
1000
,
0001
0100
2002
3003
,
2000
3001
0200
0310
,
2000
3100
0020
0031
,
2000
3001
0002
1003
,
2000
3010
0100
0001
,
0200
0010
0310
1000
,
0002
0010
0013
0100
,
0020
1000
1030
0001
,
1000
0000
0001
0000
,
1001
0000
0000
0000
;

//---------------dance-single - ----------------
#NOTES:
     dance-single:
     :
     Beginner:
     2:
     0.123228,0.175869,0.025124,0.000000,0.000000,103.000000,100.000000,3.000000,0.000000,0.000000,0.000000,0.123228,0.175869,0.025124,0.000000,0.000000,103.000000,100.000000,3.000000,0.000000,0.000000,0.000000:
// measure 0
0000
0000
0000
0000
,  // measure 1
0000
0000
0000
0000
,  // measure 2
0000
0000
0000
0000
,  // measure 3
0000
0000
0000
0000
,  // measure 4
0000
0000
0000
0000
,  // measure 5
1000
0000
0000
0000
,  // measure 6
0001
0000
0000
0000
,  // measure 7
0100
0000
0100
0000
,  // measure 8
0100
0000
0000
0000
,  // measure 9
0001
0000
1000
0000
,  // measure 10
0001
0000
1000
0000
,  // measure 11
0010
0000
0010
0000
,  // measure 12
0100
0000
0100
0000
,  // measure 13
1000
0000
0001
0000
,  // measure 14
1000
0000
0001
0000
,  // measure 15
0100
0000
0100
0000
,  // measure 16
0010
0000
0010
0000
,  // measure 17
0001
0000
0100
0000
,  // measure 18
1000
0000
0100
0000
,  // measure 19
0001
0000
1000
0000
,  // measure 20
0001
0000
0000
0000
,  // measure 21
1000
0000
0000
0000
,  // measure 22
0001
0000
1000
0000
,  // measure 23
0001
0000
0000
0000
,  // measure 24
0100
0000
0000
0000
,  // measure 25
0010
0000
1000
0000
,  // measure 26
0100
0000
0001
0000
,  // measure 27
0010
0000
0001
0000
,  // measure 28
0100
0100
0100
0100
,  // measure 29
0001
0000
1000
0000
,  // measure 30
0010
0000
0100
0000
,  // measure 31
0001
0000
1000
0000
,  // measure 32
0010
0010
0010
0010
,  // measure 33
0100
0000
0000
0000
,  // measure 34
0001
0000
1000
0000
,  // measure 35
0010
0000
0100
0000
,  // measure 36
0001
0000
1000
0000
,  // measure 37
0010
0000
0100
0000
,  // measure 38
0001
0000
1000
0000
,  // measure 39
0001
0000
0000
0000
,  // measure 40
1000
0000
0000
0000
,  // measure 41
0010
0000
0000
0000
,  // measure 42
0100
0000
0000
0000
,  // measure 43
1001
0000
0000
0000
,  // measure 44
0001
0000
0001
0000
,  // measure 45
1000
0000
1000
0000
,  // measure 46
0010
0000
0100
0000
,  // measure 47
0010
0000
0100
0000
,  // measure 48
1000
0000
1000
0000
,  // measure 49
0001
0000
0001
0000
,  // measure 50
0100
0000
0100
0000
,  // measure 51
1001
0000
0000
0000
,  // measure 52
0010
0000
0010
0000
,  // measure 53
0001
0000
0001
0000
,  // measure 54
0100
0000
0100
0000
,  // measure 55
1000
0000
1000
0000
,  // measure 56
0010
0000
1000
0000
,  // measure 57
0100
0000
0001
0000
,  // measure 58
1000
0000
0001
0000
,  // measure 59
1000
0000
0000
0000
,  // measure 60
1001
0000
0000
0000
;
