#TITLE:Oppress;
#SUBTITLE:;
#ARTIST:BEMANI Sound Team "SYUNN";
#TITLETRANSLIT:;
#SUBTITLETRANSLIT:;
#ARTISTTRANSLIT:;
#GENRE:;
#CREDIT:;
#MENUCOLOR:;
#METERTYPE:DDR;
#BANNER:Oppress.png;
#BACKGROUND:Oppress-bg.png;
#LYRICSPATH:;
#CDTITLE:;
#MUSIC:Oppress.ogg;
#OFFSET:-3.020;
#SAMPLESTART:33.015;
#SAMPLELENGTH:12.000;
#SELECTABLE:YES;
#LISTSORT:;
#BPMS:0.000=128.000;
#STOPS:;
#BGCHANGES:;
#ATTACKS:;

//---------------dance-single - ----------------
#NOTES:
     dance-single:
     :
     Hard:
     13:
     0.587,0.625,0.278,0.023,0.443:
0000
0000
0000
0000
,
0000
0000
0000
0000
,
0000
0000
0000
0000
,
0000
0000
0000
0000
,
1000
0000
0000
0100
1000
0000
0001
0000
1000
0000
0000
0001
0100
0000
0001
0000
,
1000
0000
0000
0001
0010
0000
0001
0000
0100
0001
0000
0001
0100
0000
0001
0000
,
0010
0000
0100
0001
0100
0000
0010
0000
1000
0000
0001
1000
0001
0000
0100
0000
,
1000
0100
1000
0010
0200
0000
0301
0000
,
1000
0000
0001
0000
1000
0000
0100
0000
1000
0000
0000
0010
0100
0000
0010
0000
,
1000
0001
0000
0000
0101
0000
0000
0001
1000
0000
0010
0000
0100
0010
0100
0000
,
0001
0000
1000
0000
0010
0000
1000
0000
0001
0000
0000
0001
0100
0000
0001
0000
,
0100
0010
0000
0000
1010
0000
0000
0010
0100
0000
0001
0000
1000
0001
1000
0000
,
0010
0000
0100
0000
0001
0000
1000
0000
0010
0000
0000
0100
0010
0000
1000
0000
,
0001
0100
0000
0000
0101
0000
0000
0001
1000
0000
0010
0000
0100
0000
0001
0000
,
1000
0000
0100
0000
0010
0000
0001
0000
0100
0000
0000
0001
1000
0000
0001
0000
,
0100
0001
0000
0000
0101
0000
0000
1100
0000
0000
0010
0000
0100
0000
0001
0000
,
1000
0000
1000
0000
0001
0000
0100
0000
0001
0000
0000
1000
0010
0000
1000
0000
,
0001
0100
0000
0000
1001
0000
0000
0100
0001
0000
1000
0000
1010
0000
1000
0000
,
0001
0000
0100
0000
0110
0000
0100
0000
0001
0000
0000
1000
0100
0000
1000
0000
,
0010
0100
0000
0000
0110
0000
0000
0001
0100
0000
0010
0000
0110
0000
0010
0000
,
1000
0000
0010
0000
0110
0000
0100
0000
0001
0000
0000
1000
0100
0000
1000
0000
,
0001
0100
0000
0000
0101
0000
0000
0001
0010
0000
0001
0000
0101
0000
0001
0000
,
0100
0000
0010
0000
1010
0000
0010
0000
0100
0000
0000
0001
1000
0000
0100
0000
,
1000
0001
0000
0000
0101
0000
0000
0100
0001
0000
1000
0000
0001
0000
1000
0000
,
2002
0000
0000
0000
,
0000
0000
0000
0000
0000
0000
0000
3003
,
0000
0001
0000
1000
0000
0001
0000
1000
,
0000
0010
0000
0100
0000
0010
0000
1000
,
0001
0000
0000
0100
0001
0000
0100
0000
0001
0000
0000
1000
0001
0000
1000
0000
,
0001
0000
0000
0010
0001
0000
0100
0000
0010
0100
0000
0100
0010
0000
1000
0000
,
0001
0000
0000
0100
0010
0000
0100
0000
0001
0000
0000
1000
0001
0000
1000
0000
,
0010
0000
0000
1000
0100
0000
1000
0000
0010
0100
0000
0100
0010
0000
1000
0000
,
0001
0000
0001
0000
0001
0000
0001
0000
0001
0000
0100
0001
0100
0000
0001
0000
,
1000
0001
1000
0000
0001
0000
1000
0100
1000
0000
0010
0000
0010
0000
0010
0000
,
0100
0000
0100
0000
0100
0000
0100
0000
0100
0000
0001
1000
0001
0000
0100
0000
,
0001
1000
0001
0000
0100
0000
0001
0010
0001
0000
1000
0000
1000
0000
1000
0000
,
0010
0000
0010
0000
0100
0000
0100
0000
0001
0000
1000
0001
1000
0000
0001
0000
,
1000
0100
1000
0000
0010
0000
1000
0100
1000
0000
0010
0000
0100
0000
0001
0000
,
1000
0001
1000
0000
0001
1000
0001
0000
1000
0001
1000
0000
0001
1000
0001
0000
,
1000
0001
1000
0000
0001
0000
1000
0001
1000
0000
0001
0000
1001
0000
0100
0000
,
0110
0000
0000
0010
1000
0000
1000
0010
0100
0000
0001
0000
0101
0000
0001
0000
,
1000
0000
0000
0010
0100
0000
0010
0100
0001
0000
0100
0000
0110
0000
0010
0000
,
1000
0000
0000
0001
1000
0000
0001
1000
0100
0000
1000
0000
1001
0000
0001
0000
,
0100
0000
0000
0010
1000
0000
0010
1000
0100
0000
1000
0000
1100
0000
1000
0000
,
0010
0000
0001
1000
0100
0000
1000
0000
0001
1000
0001
0000
1000
0000
0010
0000
,
0100
0000
0001
1000
0100
0000
1000
0000
0001
1000
0001
0000
0010
0000
1000
0000
,
0100
0000
0001
0100
0001
0000
1000
0000
0010
0100
0010
0000
1000
0000
0001
0000
,
0100
0000
0000
0110
0000
0000
0110
0000
0000
1100
0000
0000
0100
0000
0100
0000
,
1001
0000
0000
0010
0100
0000
0001
1000
0001
1000
0001
0000
0001
0000
0100
0000
,
1000
0000
0000
0001
0100
0000
0001
1000
0010
1000
0001
0000
0100
0000
1000
0000
,
1001
0000
0000
0001
0100
0000
0001
0100
0010
1000
0010
0000
1010
0000
0001
0000
,
0101
0000
0000
0001
0100
0000
0010
1000
0010
0100
0010
0000
1010
0000
0010
0000
,
1001
0000
0000
1000
0001
0000
1000
0100
1000
0100
1000
0000
0010
0000
0100
0000
,
0101
0000
0000
0100
0010
0000
1000
0001
1000
0001
1000
0000
0010
0000
0100
0000
,
0101
0000
0000
1000
0100
0000
0010
0001
0010
0001
0100
0000
0010
1000
0100
0000
,
1000
0010
0000
0000
0110
0000
0000
0010
0000
0000
1000
0000
0101
0000
0101
0000
,
1000
0000
0001
0000
1000
0000
0001
0000
1000
0000
0000
0001
0100
0000
0001
0000
,
1000
0010
0000
0010
0100
0000
0010
1000
0000
1000
0001
0000
1000
0000
0010
0000
,
0100
0000
0001
0000
0100
0000
0001
0000
0010
0000
0000
0001
1000
0000
0010
0000
,
1000
0001
0000
0001
1000
0000
0010
1000
0000
1000
0010
0000
0100
0000
0001
0000
,
1000
0000
0100
0000
0010
0000
0001
0000
1000
0000
0000
0001
1000
0000
0010
0000
,
0100
0001
0000
0001
0100
0000
0010
1000
0000
1000
0010
0000
0100
0000
0001
0000
,
1000
0000
0010
0000
0100
0000
0001
0000
0100
0000
0000
0010
0100
0000
0001
0000
,
1000
0001
0000
0001
1000
0000
0010
0100
0000
0100
0010
0000
1000
0000
0001
0000
,
1001
0000
0000
0000
;

//---------------dance-double - ----------------
#NOTES:
     dance-double:
     :
     Hard:
     13:
     0.518,0.553,0.210,0.023,0.394:
00000000
00000000
00000000
00000000
,
00000000
00000000
00000000
00000000
,
00000000
00000000
00000000
00000000
,
00000000
00000000
00000000
00000000
,
10000000
00000000
00000000
00010000
01000000
00000000
00010000
00000000
10000000
00000000
00000000
00010000
01000000
00000000
00010000
00000000
,
00100000
00000000
00000000
00001000
00010000
00000000
00001000
00000000
00100000
00001000
00000000
00001000
00010000
00000000
00000010
00000000
,
00001000
00000000
00000000
00000001
00000100
00000000
00000001
00000000
00001000
00000000
00000000
00000001
00000100
00000000
00000001
00000000
,
00001000
00000000
00000000
00000010
00001000
00000000
00000100
00000000
00002000
00000000
00000000
00000000
00003100
00000000
00000000
00000000
,
00000010
00000000
00001000
00000000
00000100
00000000
00010000
00000000
00001000
00000000
00000000
01000000
00000000
00000000
00100000
00000000
,
00000000
10000000
00000000
00000000
00010000
00000000
00000000
00100000
00000000
00000000
00001000
00000000
00010000
00000000
00000010
00000000
,
00001000
00000000
00000010
00000000
00000001
00000000
00000010
00000000
00001000
00000000
00000000
00000100
00000000
00000000
00010000
00000000
,
00000000
01000000
00000000
00000000
00100000
00000000
00000000
10000000
00000000
00000000
00100000
00000000
01000000
00000000
00001000
00000000
,
00010000
00000000
00000100
00000000
00010000
00000000
00001000
00000000
00010000
00000000
00000000
00000010
00000000
00000000
00001000
00000000
,
00000000
00000001
00000000
00000000
00001000
00000000
00000000
00000100
00000000
00000000
00010000
00000000
00001000
00000000
01000000
00000000
,
00100000
00000000
10000000
00000000
01000000
00000000
00100000
00000000
00001000
00000000
00000000
00010000
00000000
00000000
00000010
00000000
,
00000000
00001000
00000000
00000000
00000001
00000000
00000000
00001000
00000000
00000000
00000100
00000000
00010100
00000000
00000000
00000000
,
00010000
00000000
00001000
00000000
00100000
00000000
00001000
00000000
00100000
00000000
00000000
00010000
01000000
00000000
00100000
00000000
,
01000000
00010000
00000000
00000000
00100000
00000000
00000000
10000000
00000000
00000000
10010000
00000000
00010000
00000000
01000000
00000000
,
00100000
00000000
10000000
00000000
01000000
00000000
00100000
00000000
00001000
00000000
00000000
00010000
00000100
00000000
00010000
00000000
,
00000100
00001000
00000000
00000000
00000010
00000000
00000000
00001000
00000000
00000000
00000100
00000000
00000010
00000000
00000110
00000000
,
00000100
00000000
00000001
00000000
00000010
00000000
00001000
00000000
00000100
00000000
00000000
00010000
00000100
00000000
00010000
00000000
,
00001000
01000000
00000000
00000000
01100000
00000000
00000000
00100000
10000000
00000000
01000000
00000000
10000000
00000000
00100000
00000000
,
01000000
00000000
00010000
00000000
00100000
00000000
00001000
00000000
00010000
00000000
00000000
00000100
00001000
00000000
00000010
00000000
,
00000100
00000001
00000000
00000000
00001001
00000000
00000000
00001100
00000000
00000000
00001010
00000000
00001100
00000000
00001010
00000000
,
00002020
00000000
00000000
00000000
,
00000000
00000000
00000000
00000000
00000000
00000000
00000000
00003030
,
00000000
00000001
00000000
00000100
00000000
00001000
00000000
00010000
,
00000000
01000000
00000000
10000000
00000000
00100000
00010000
01000000
,
00100000
00000000
00000000
10000000
00100000
00000000
01000000
00000000
00100000
00000000
00000000
01000000
00001000
00000000
00010000
00000000
,
00001000
00000000
00000000
00010000
00000100
00000000
00001000
00000000
00000010
00001000
00000000
00001000
00000001
00000000
00000100
00000000
,
00000010
00000000
00000000
00001000
00000100
00000000
00010000
00000000
00001000
00000000
00000000
00010000
00001000
00000000
01000000
00000000
,
00010000
00000000
00000000
10000000
00100000
00000000
10000000
00000000
00010000
01000000
00000000
01000000
00100000
00000000
10000000
00000000
,
01000000
00000000
00100000
00000000
00010000
00000000
00100000
00000000
01000000
00000000
00000000
00001000
00000000
00000000
00010000
00000000
,
00000000
00001000
00000000
00000000
00010000
00000000
00000000
00000100
00000000
00000000
00001000
00000000
00000010
00000000
00000100
00000000
,
00000001
00000000
00000100
00000000
00000010
00000000
00001000
00000000
00000100
00000000
00000000
00010000
00000000
00000000
00001000
00000000
,
00000000
01000000
00000000
00000000
00100000
00000000
00000000
10000000
00000000
00000000
01000000
00000000
00100000
00000000
00010000
00000000
,
01000000
00000000
00001000
00000000
00001000
00000000
00001000
00000000
00010000
00000000
00001000
00010000
00001000
00000000
00010000
00000000
,
00000100
00001000
00000100
00000000
00001000
00000000
00000010
00000100
00000010
00000000
00000100
00000000
00000001
00000010
00000100
00000000
,
00000001
00001000
00000001
00000000
00001000
00000100
00001000
00000000
00000010
00001000
00000010
00000000
00001000
00000100
00010000
00000000
,
00001000
00010000
00000000
00000000
00011000
00000000
00000000
00010000
00001000
00000000
00100000
00000000
00110000
00000000
00010000
00000000
,
01000000
00000000
00000000
00100000
10000000
00000000
00100000
10000000
01000000
00000000
10000000
00000000
00100000
00000000
01000000
00000000
,
00010000
00000000
00000000
00100000
00010000
00000000
00100000
00001000
00010000
00000000
00001000
00000000
00010000
00000000
00000100
00000000
,
00001000
00000000
00000000
00000010
00001000
00000000
00000001
00001000
00000100
00000000
00001000
00000000
00000010
00000000
00001000
00000000
,
00000100
00000000
00000000
00010000
00000100
00000000
00010000
00001000
00010000
00001000
00010000
00000000
00001000
00000000
00000000
00000000
,
00100000
00000000
00000000
00010000
01000000
00000000
00100000
10000000
00100000
00000000
01000000
00000000
00010000
00000000
10000000
00000000
,
01000000
00000000
00000000
00100000
00001000
00000000
00100000
00001000
00010000
00000000
00001000
00000000
00010000
00000000
00000100
00000000
,
00001000
00000000
00000000
00000010
00001000
00000000
00000100
00001000
00000100
00000000
00001000
00000000
00000010
00000000
00000100
00000000
,
00000001
00000010
00000000
00000000
00000011
00000000
00000000
00000110
00000000
00000000
00001000
00000000
00001100
00000000
00000000
00000000
,
00000100
00000000
00000000
00001000
00000100
00000000
00010000
00000000
00000100
00000000
00010000
00000000
00001000
00000000
01000000
00000000
,
00010000
00000000
00000000
10000000
00100000
00000000
10000000
00000000
00100000
00000000
01000000
00000000
00001000
00000000
00010000
00000000
,
00000100
00000000
00000000
00001000
00000001
00000000
00001000
00000000
00000010
00000000
00001000
00000000
00000100
00000000
00010000
00000000
,
00001000
00000000
00000000
00010000
00001000
00000000
00100000
00000000
00010000
01000000
00010000
00000000
01100000
00000000
00000000
00000000
,
10010000
00000000
00000000
10000000
01000000
00000000
10000000
01000000
10000000
00000000
00010000
00000000
00100000
00000000
00001000
00000000
,
00010000
00000000
00000000
00000100
00001000
00000000
00000100
00001000
00000100
00000000
00001000
00000000
00000010
00000000
00000100
00000000
,
00000001
00000000
00000000
00001000
00000100
00000000
00000001
00001000
00000100
00000000
00010000
00000000
00001000
00000000
01000000
00000000
,
00100000
10000000
00000000
00000000
10100000
00000000
00000000
01100000
00000000
00000000
01000000
00000000
01010000
00000000
00000000
00000000
,
10000000
00000000
00100000
00000000
01000000
00000000
00010000
00000000
00100000
00000000
00001000
00100000
00000000
00100000
00001000
00000000
,
00010000
00000100
00000000
00000100
00010000
00000000
00001000
00100000
00000000
00000000
00100000
00000000
00001000
00000000
00010000
00000000
,
00000100
00000000
00001000
00000000
00000010
00000000
00000100
00000000
00000001
00000000
00000001
00001000
00000000
00001000
00000100
00000000
,
00000100
00001000
00000000
00001000
00000001
00000000
00000001
00001000
00000000
00000000
00000100
00000000
00010000
00000000
00001000
00000000
,
01000000
00000000
00100000
00000000
10000000
00000000
01000000
00000000
00100000
00000000
00000000
00010000
00000000
00000000
00100000
00000000
,
00001000
00010000
00000000
00010000
00001000
00000000
00001000
00010000
00000000
00000000
00010000
00000000
00000100
00000000
00001000
00000000
,
00000010
00000000
00000100
00000000
00000001
00000000
00001000
00000000
00000100
00000000
00000000
00010100
00000000
00000000
00011000
00000000
,
00000000
01001000
00000000
00000000
00011000
00000000
00000000
00010010
00000000
00000000
00011000
00000000
00010100
00000000
00000000
00000000
,
00011000
00000000
00000000
00000000
;

//---------------dance-double - ----------------
#NOTES:
     dance-double:
     :
     Medium:
     9:
     0.374,0.409,0.165,0.361,0.000:
00000000
00000000
00000000
00000000
,
00000000
00000000
00000000
00000000
,
00000000
00000000
00000000
00000000
,
00000000
00000000
00000000
00000000
,
00010000
00000000
00100000
00010000
00100000
00000000
00010000
01000000
,
00010000
00000000
10000000
00010000
10000000
00000000
00010000
00100000
,
00010000
00000000
00100000
00010000
01000000
00000000
00100000
10000000
,
01000000
00100000
00002000
00013000
,
00010000
00000000
00000100
00000000
00010000
00000000
00000100
00001000
,
00000010
00000000
00001000
00000000
00000001
00000000
00001000
00000100
,
00010000
00000000
00001000
00000000
00010000
00000000
00001000
00100000
,
00010000
00000000
10000000
00000000
00010000
00000000
00100000
01000000
,
00010000
00000000
00100000
00000000
00010000
00000000
00100000
00001000
,
00010000
00000000
00000100
00000000
00010000
00000000
00000100
00001000
,
00000010
00000000
00001000
00000000
00000001
00000000
00001000
00000100
,
00010000
00001000
00100000
10010000
,
02000000
00100000
00100000
03100000
,
10000000
00100000
10000000
00000000
00010000
01000000
00010000
00000000
,
00200000
00001000
00001000
00301000
,
00010000
00000000
00001000
00000000
00010000
00000100
00001000
00000000
,
00000020
00000100
00000100
00000130
,
00001001
00000000
00001100
00000000
00000100
00010000
00001000
00000000
,
00200000
00010000
00010000
00310000
,
01100000
00000000
10010000
00000000
00100000
10000000
01000000
00000000
,
20020000
00000000
00000000
00000000
,
00000000
00000000
00000000
00000000
,
00000000
00000000
00000000
00000000
,
30030000
00000000
00000000
00000000
,
00100000
00000000
01000000
00010000
01000000
00000000
00100000
10000000
,
00100000
00000000
01000000
00001000
01000000
00000000
00001000
00010000
,
00000100
00000000
00001000
00000001
00000100
00000000
00000001
00001000
,
00000100
00001000
00000001
00001001
,
00000020
00000000
00001000
00000000
00000100
00000000
00020000
00000030
,
00001000
00000100
00032000
01000000
,
00023000
00000100
00001000
00032000
,
01000000
02003000
00010000
00100000
,
03020000
10000000
01000000
00230000
,
00001000
00302000
00023000
00030200
,
00002300
00000010
00000001
00003200
,
00000320
00001000
00000130
00001001
,
00000010
00000000
00001000
00000000
00000100
00001000
00000100
00000000
,
00010000
00000000
00001000
00000000
01000000
00010000
01000000
00000000
,
00010000
00000000
10000000
00000000
00100000
10000000
00100000
00000000
,
01000000
00001000
00010000
00011000
,
00010000
00000000
00000100
00000000
00001000
00000001
00000100
00000000
,
00000001
00000000
00001000
00000000
00000100
00010000
00001000
00000000
,
01000000
00000000
10100000
00000000
01000000
00010000
00100000
00000000
,
00101000
00011000
00010100
00001001
,
00000002
00000000
00002003
00000000
00003100
00010000
00002000
00000000
,
00203000
00000000
00320000
00000000
01030000
00100000
20000000
00000000
,
30020000
00000000
00230000
00000000
00301000
00010000
00002000
00000000
,
00023000
00000000
00030020
00000000
00001030
00000100
00000001
00000000
,
00001001
00000000
00001100
00000000
00000100
00010000
00001000
00000000
,
01010000
00000000
10010000
00000000
00100000
10000000
00010000
00000000
,
00110000
00000000
00010100
00000000
00001000
00000010
00000100
00000000
,
00002001
00000100
00000001
00003100
,
00000010
00001000
00000010
00001000
00000020
00000000
00020030
00000000
,
00031000
01000000
00001000
01000000
00002000
00000000
02003000
00000000
,
03100000
10000000
01000000
00100000
00020000
00000000
00230000
00000000
,
00301000
00010000
00000100
00010000
00002000
00000000
00023000
00000000
,
00030010
00001000
00000100
00000010
00000002
00000000
00002003
00000000
,
00003100
00010000
00000100
00010000
00002000
00000000
02003000
00000000
,
03010000
00100000
00010000
00100000
00010000
01000000
00010000
01000000
,
00200000
20300000
32000000
03010000
,
10010000
00000000
00000000
00000000
;

//---------------dance-single - ----------------
#NOTES:
     dance-single:
     :
     Medium:
     9:
     0.387,0.409,0.180,0.421,0.000:
0000
0000
0000
0000
,
0000
0000
0000
0000
,
0000
0000
0000
0000
,
0000
0000
0000
0000
,
0001
0000
1000
0001
1000
0000
0001
0100
,
0001
0000
1000
0001
1000
0000
0001
0010
,
0001
0000
0010
0001
0100
0000
0010
1000
,
0100
0001
2000
3001
,
0001
0100
0001
0100
,
0010
0000
1000
0000
0001
0000
1000
0001
,
1000
0001
0100
0010
,
1000
0000
0001
0000
1000
0000
0010
0100
,
0001
0000
0010
0000
0001
0000
0010
0001
,
1000
0000
0100
0000
0001
0000
0100
0001
,
1000
0000
0001
0000
1000
0000
0010
0100
,
0001
1000
0010
1001
,
0200
0010
0010
0310
,
1000
0010
1000
0000
0001
0100
0001
0000
,
0020
1000
1000
1030
,
0001
0000
1000
0000
0001
0100
0010
0000
,
0020
0100
0100
0130
,
1001
0000
0101
0000
0100
0001
1000
0000
,
0002
0100
0100
0103
,
0110
0000
1001
0000
0010
1000
0100
0000
,
2002
0000
0000
0000
,
0000
0000
0000
0000
,
0000
0000
0000
0000
,
3003
0000
0000
0000
,
0010
0000
0100
0001
0100
0000
0010
1000
,
0010
0000
1000
0100
1000
0000
1001
0000
,
0010
0000
1000
0001
0100
0000
0001
1000
,
0100
1000
0001
1001
,
0100
0010
0100
0010
0200
0000
0302
0000
,
0203
2300
3200
0302
,
1003
0010
1000
0010
2000
0000
3200
0000
,
0302
0203
2300
3020
,
0130
0001
0100
0010
0200
0000
0320
0000
,
2030
3002
0203
0320
,
1030
0100
1000
0100
2000
0000
3002
0000
,
0203
0020
0000
0330
,
0010
0000
1000
0000
0100
1000
0100
0000
,
1000
0000
0001
0000
0100
0001
0100
0000
,
0001
0000
1000
0000
0010
1000
0010
0000
,
0100
0001
1000
1001
,
0001
0000
0100
0000
1000
0001
0100
0000
,
0001
0000
1000
0000
0100
1000
0001
0000
,
0100
0000
1010
0000
0100
0001
0010
0000
,
0011
1001
1100
1001
,
0002
0000
2003
0000
3100
1000
0002
0000
,
0023
0000
0032
0000
0103
0010
2000
0000
,
3002
0000
0023
0000
0031
0100
0020
0000
,
2030
0000
3002
0000
1003
0100
0010
0000
,
0011
1100
0101
1010
,
0101
0000
1001
0000
0010
1000
0001
0000
,
0011
0000
0101
0000
1000
0010
0100
0000
,
2001
0100
0001
3100
,
0010
1000
0010
1000
0020
0000
2030
0000
,
3001
0100
0001
0100
0002
0000
0203
0000
,
0310
1000
0100
0010
0002
0000
0023
0000
,
0031
0100
0010
1000
0020
0000
0230
0000
,
0301
1000
0100
0010
0002
0000
2003
0000
,
3001
0100
0001
0100
0020
0000
0230
0000
,
0301
0010
0001
0010
0001
0100
0001
0100
,
0020
2030
3200
0301
,
1001
0000
0000
0000
;

//---------------dance-single - ----------------
#NOTES:
     dance-single:
     :
     Easy:
     5:
     0.256,0.312,0.120,0.180,0.000:
0000
0000
0000
0000
,
0000
0000
0000
0000
,
0000
0000
0000
0000
,
0000
0000
0000
0000
,
0001
1000
0001
1000
,
0010
0100
0010
0100
,
0001
0010
0100
1000
,
0100
0001
2002
3003
,
0001
0100
0001
0100
,
0010
1000
0100
0001
,
1000
0010
1000
0010
,
1000
0100
0001
0010
,
0100
0010
0100
0010
,
0001
0100
0001
0100
,
1000
0100
1000
0100
,
0001
0010
1000
1001
,
0200
0010
0010
0310
,
1000
1000
0001
0001
,
0020
0100
0100
0130
,
0001
0001
1000
1000
,
0200
1000
0010
0310
,
0001
1000
0100
1000
,
0002
0100
0100
0103
,
0110
1001
0010
0100
,
2002
0000
0000
0000
,
0000
0000
0000
0000
,
0000
0000
0000
0000
,
3003
0000
0000
0000
,
0010
1001
0000
1001
,
0000
0110
0000
1001
,
0000
0101
0000
1010
,
0000
0010
0100
1001
,
1000
1000
0200
0300
,
0002
0003
0200
0300
,
0001
0001
0200
0300
,
2000
3000
0200
0300
,
0010
0010
0200
0300
,
0001
0001
2000
3000
,
0010
0100
2002
3003
,
2002
0000
0000
3003
,
0010
1000
0100
0100
,
1000
0001
0100
0100
,
0001
1000
0010
0010
,
0100
0001
1000
1001
,
0001
0100
1000
0000
,
1000
0100
0001
0000
,
1000
0010
0001
0000
,
0001
0010
1000
0000
,
0001
1000
0001
1000
,
0010
0010
0010
0010
,
1000
0001
1000
0001
,
0010
0010
0010
0010
,
0001
0100
1000
0100
,
0001
1000
0001
1000
,
0001
0010
1000
0010
,
0001
1000
0001
1000
,
0010
0010
0010
0010
,
0100
0100
0100
0100
,
0001
0010
0200
0300
,
1000
0100
0020
0030
,
0001
0100
0020
0030
,
1000
0100
0020
0030
,
0001
0001
0001
0001
,
0010
1000
0100
0001
,
1001
0000
0000
0000
;

//---------------dance-double - ----------------
#NOTES:
     dance-double:
     :
     Easy:
     6:
     0.278,0.409,0.255,0.225,0.000:
00000000
00000000
00000000
00000000
,
00000000
00000000
00000000
00000000
,
00000000
00000000
00000000
00000000
,
00000000
00000000
00000000
00000000
,
00100000
00100000
00010000
00010000
,
01000000
01000000
10000000
10000000
,
00100000
00100000
00001000
00001000
,
00000100
00000100
00000001
00000001
,
00002000
00003000
00000002
00000003
,
00000100
00000100
00000010
00000010
,
00002000
00003000
00000200
00000300
,
00010000
00010000
00001000
00001000
,
00200000
00300000
00020000
00030000
,
01000000
01000000
10000000
10000000
,
02000000
03000000
00020000
00030000
,
00100000
00001000
00020000
00030000
,
00001000
00001000
00001000
00001000
,
00020000
00030000
00000200
00000300
,
00001000
00001000
00001000
00001000
,
00000002
00000003
00000200
00000300
,
00000010
00000010
00000010
00000010
,
00002000
00003000
00020000
00030000
,
00100000
00100000
00100000
00100000
,
00020000
00030000
00002000
00003000
,
00022000
00000000
00000000
00000000
,
00000000
00000000
00000000
00000000
,
00033000
00000000
00000000
00000000
,
00000000
00000000
00000000
00000000
,
00100000
10010000
00000000
10010000
,
00000000
00110000
00000000
00110000
,
00000000
00010100
00000000
00010100
,
00000000
00001001
00000000
00001001
,
00000010
00000010
00000001
00000001
,
00000100
00000100
00001000
00001000
,
00010000
00010000
00100000
00100000
,
10000000
10000000
01000000
01000000
,
00010000
00100000
10000000
01000000
,
00010000
00001000
00000100
00000001
,
00000010
00001000
00010000
00001000
,
00020000
00000000
00002000
00033000
,
00010000
00010000
00100000
10010000
,
10000000
10000000
01000000
10010000
,
00100000
00100000
00001000
00011000
,
00010000
00010000
00000100
00001001
,
00000010
00000010
00001000
00001100
,
00000010
00000010
00000001
00000101
,
00000010
00001000
00000100
00011000
,
00100000
00010000
01000000
00011000
,
01000000
01000000
10010000
01100000
,
00100000
00100000
00011000
00010100
,
00001000
00001000
00000110
00001001
,
00001000
00001000
00001100
00011000
,
00100000
00010000
02000000
03100000
,
00100000
10000000
00020000
00130000
,
00110000
00110000
00010100
00010100
,
00001001
00001001
00000220
00000330
,
00000010
00001000
00000100
00000001
,
00000020
00000030
00020000
00030000
,
00001000
00010000
00001000
01000000
,
00200000
00300000
20020000
30030000
,
10000000
01000000
00100000
00010000
,
00100000
01000000
10000000
00010000
,
01000000
00001000
00010000
00000100
,
00001000
00000001
00001000
00000100
,
00011000
00000000
00000000
00000000
;

//---------------dance-single - ----------------
#NOTES:
     dance-single:
     :
     Beginner:
     4:
     0.143,0.192,0.023,0.023,0.000: // measure 1
0000
0000
0000
0000
,  // measure 2
0000
0000
0000
0000
,  // measure 3
0000
0000
0000
0000
,  // measure 4
0000
0000
0000
0000
,  // measure 5
0001
0000
0001
0000
,  // measure 6
0010
0000
0010
0000
,  // measure 7
0100
0000
0100
0000
,  // measure 8
1000
0000
1000
0000
,  // measure 9
0001
0000
0001
0000
,  // measure 10
0100
0000
0100
0000
,  // measure 11
0010
0000
0010
0000
,  // measure 12
1000
0000
1000
0000
,  // measure 13
0001
0000
0010
0000
,  // measure 14
0100
0000
1000
0000
,  // measure 15
0001
0000
0100
0000
,  // measure 16
0010
0000
1000
0000
,  // measure 17
0100
0000
0010
0000
,  // measure 18
0100
0000
0010
0000
,  // measure 19
1000
0000
0001
0000
,  // measure 20
1000
0000
0001
0000
,  // measure 21
0100
0100
0100
0000
,  // measure 22
0010
0010
0010
0000
,  // measure 23
1000
1000
1000
0000
,  // measure 24
0001
0001
0001
0000
,  // measure 25
2002
0000
0000
0000
,  // measure 26
0000
0000
0000
0000
,  // measure 27
0000
0000
0000
0000
,  // measure 28
3003
0000
0000
0000
,  // measure 29
0000
0001
0000
0001
,  // measure 30
0000
1000
0000
1000
,  // measure 31
0000
0100
0000
0100
,  // measure 32
0000
0010
0000
0010
,  // measure 33
0010
0000
0010
0000
,  // measure 34
0001
0000
0001
0000
,  // measure 35
1000
0000
1000
0000
,  // measure 36
0100
0000
0100
0000
,  // measure 37
0001
0000
0001
0000
,  // measure 38
1000
0000
1000
0000
,  // measure 39
0010
0010
0010
0010
,  // measure 40
0020
0000
0030
0000
,  // measure 41
0010
0000
0100
0100
,  // measure 42
0000
0000
0100
0100
,  // measure 43
0000
0000
0010
0010
,  // measure 44
0000
0000
0010
0010
,  // measure 45
0000
0000
1000
1000
,  // measure 46
0000
0000
0001
0001
,  // measure 47
0000
0000
1000
1000
,  // measure 48
0000
0001
0000
1001
,  // measure 49
0000
0010
0000
0010
,  // measure 50
0000
0100
0000
0100
,  // measure 51
0000
0001
0000
0001
,  // measure 52
0000
1000
0000
1000
,  // measure 53
0000
0001
0001
0001
,  // measure 54
0000
1000
1000
1000
,  // measure 55
0000
0010
0010
0010
,  // measure 56
0000
0100
0100
0000
,  // measure 57
0001
0000
0010
0000
,  // measure 58
0100
0000
1000
0000
,  // measure 59
0001
0000
0100
0000
,  // measure 60
0010
0000
1000
0000
,  // measure 61
0001
0001
0001
0000
,  // measure 62
1000
1000
1000
0000
,  // measure 63
0010
0010
0010
0000
,  // measure 64
0100
0100
0100
0000
,  // measure 65
1001
0000
0000
0000
;
