#TITLE:One More Reason;
#SUBTITLE:;
#ARTIST:GUHROOVY;
#TITLETRANSLIT:;
#SUBTITLETRANSLIT:;
#ARTISTTRANSLIT:;
#GENRE:;
#CREDIT:Toxsa Dalton;
#BANNER:One More Reason.png;
#BACKGROUND:One More Reason-bg.png;
#LYRICSPATH:;
#CDTITLE:;
#MUSIC:One More Reason.ogg;
#OFFSET:2.180000;
#SAMPLESTART:86.179886;
#SAMPLELENGTH:12.000000;
#LASTBEATHINT:2.163333;
#SELECTABLE:YES;
#DISPLAYBPM:110.000000:440.000000;
#BPMS:0.000000=110.000000
,52.000000=124.000000
,53.000000=133.000000
,54.000000=144.000000
,55.000000=155.000000
,56.000000=167.000000
,57.000000=189.000000
,58.000000=209.000000
,59.000000=240.000000
,60.000000=275.000000
,61.000000=300.000000
,62.000000=325.000000
,63.000000=350.000000
,64.000000=380.000000
,65.000000=410.000000
,66.000000=440.000000
,68.000000=530.000000
,70.000000=560.000000
,73.000000=600.000000
,76.000000=650.000000
,80.000000=700.000000
,82.000000=750.000000
,84.000000=800.000000
,88.000000=880.000000
,110.000000=440.000000
,240.000000=110.000000
,256.000000=220.000000
,320.000000=110.000000
,334.000000=440.000000
,464.000000=110.000000
;
#STOPS:109.000000=0.800000,
334.000000=0.818000
;
#BGCHANGES:;
#KEYSOUNDS:;
#ATTACKS:;

//---------------dance-single - ----------------
#NOTES:
     dance-single:
     :
     Challenge:
     18:
     0.854628,1.617346,0.882649,0.351425,0.281957,732.000000,624.000000,108.000000,43.000000,0.000000,0.000000,0.854628,1.617346,0.882649,0.351425,0.281957,732.000000,624.000000,108.000000,43.000000,0.000000,0.000000:
0000
0000
0000
0000
,
0000
0000
0000
0000
,
0000
0000
0000
0000
,
0000
0000
0000
0000
,
0000
0000
0000
0000
,
0002
0000
2003
0000
,
3020
0000
0000
0030
,
2000
0000
3002
0000
,
0203
0000
0000
0000
0000
0000
0000
0000
0000
0000
0000
0000
0300
1000
0100
0010
,
0001
0000
0001
0010
0100
0010
0000
0001
1000
0000
0000
0000
0000
0001
0100
0010
,
1000
0000
1000
0001
0100
0010
0000
0010
1000
0000
0000
0000
0000
0001
0010
0001
,
1000
0000
1000
0100
0010
0001
0000
0100
1000
0000
0000
0000
0000
0001
0010
0100
,
1000
0000
1000
0010
0100
0001
0000
0100
1000
0000
0000
0000
0000
0000
0000
0000
,
2002
0000
0000
0000
,
0000
0000
0000
0000
,
0000
0000
0000
0000
,
0000
0000
0000
0000
,
0000
0000
0000
0000
,
0000
0000
0000
0000
,
0000
0000
0000
0000
,
0000
0000
0000
0000
,
0000
0000
0000
0000
,
0000
0000
0000
0000
,
0000
0000
0000
0000
,
0000
0000
0000
0000
,
0000
0000
0000
0000
,
0000
0000
0000
0000
,
3003
0000
1001
0000
,
2000
3001
0100
0001
,
1000
0001
0100
0000
0001
0000
1000
0000
,
0001
1000
0100
0000
1000
0100
1000
0000
,
0001
1000
0100
0000
0001
1000
0001
0010
,
0002
0000
1003
0001
,
1000
0010
1000
0000
0001
0000
0100
0000
,
0001
1000
0010
0000
1000
0001
0100
0000
,
0001
0100
1000
0000
0020
0000
0230
0000
,
0302
1000
1003
0001
,
1000
0001
0100
0000
0001
0000
1000
0000
,
0001
0010
0100
0000
0010
0100
1000
0000
,
0001
0100
0010
0000
1000
0000
0001
0000
,
2000
0010
3010
0001
,
1000
0010
0100
0000
0001
0000
1000
0000
,
0010
0100
0010
0100
0001
1000
0001
1000
,
0020
0000
0130
0000
,
0002
0103
0010
1000
,
0002
1000
0013
0000
1000
0000
0001
0000
,
2000
0100
3010
0000
0001
0100
0010
0000
,
2000
0001
3100
0000
0001
1000
0010
0000
,
2000
0100
3010
0000
0200
0010
0301
0000
,
2000
0001
3100
0001
1000
0000
0010
0000
,
0200
0001
1300
0001
0200
0000
0310
0000
,
2000
0010
3100
0000
2002
0000
3003
0000
,
0200
0001
0310
0001
0100
0000
0001
0000
,
2000
0001
3010
0001
1000
0000
0001
1000
,
0020
1000
0031
0000
1000
0000
0001
0100
,
0020
0100
0031
0100
0010
0000
1000
0001
,
2000
3000
0200
0310
,
0020
0031
0002
1003
,
2002
0000
3003
0000
,
1000
0100
0010
0001
1000
0100
0010
0001
,
1001
0000
0000
0001
1010
0000
0101
0000
1010
0000
0000
1000
0101
0000
1010
0001
,
0101
0000
0000
0000
0000
0000
0010
0000
0110
0000
0000
0000
1001
0000
0000
0000
0110
0000
0000
0000
0000
0000
1000
0000
0100
0000
0100
0000
0000
0000
1000
0001
,
1000
0000
0000
1000
1010
0000
0101
0000
0011
0000
0000
0001
1010
0000
0001
1000
,
1001
0000
0000
0000
0000
0000
0010
0000
1100
0000
0000
0000
0010
0000
0001
1000
0002
0000
0000
0000
0000
0000
0000
0000
0003
0000
0000
0000
1001
0000
0000
0000
,
0100
0010
1000
1001
0000
1001
0000
0001
,
0100
0010
1000
1010
0000
0101
0000
1000
,
0100
0010
0001
0101
0000
1010
0000
0001
,
0100
1000
0100
0101
0000
1001
0000
0010
,
1000
0100
0010
0011
0000
1100
0000
0110
,
0010
1000
0001
0101
0000
1010
0000
0010
,
1000
0010
0001
1000
0100
0001
0100
1000
,
0100
0001
1000
0010
0000
0101
0000
1000
,
1001
0000
0100
0000
0010
0000
0001
0000
1000
0100
0010
0001
1000
0000
0100
0000
,
1000
0000
0100
0000
0010
0000
0001
0000
0100
0001
1000
0010
0100
0000
0001
0000
,
1000
0010
0001
0010
1000
1010
0001
0101
,
1000
0100
0001
0100
1000
1100
0010
0011
,
1000
0000
0100
0000
0010
0000
0001
0000
1000
0100
0010
0100
1000
0100
0001
0100
,
1000
0000
0010
0000
0100
0000
0001
0000
1000
0010
0100
0001
0100
0010
0100
0001
,
1000
0000
1000
0000
0001
0000
0100
0000
0010
1000
0001
0010
1000
0010
0001
1000
,
0001
0100
0001
0100
0000
1001
0000
0000
,
1001
0000
0001
0100
1000
0000
0010
0000
0110
0000
1000
0100
0001
0000
1000
0000
,
0101
0000
0010
1000
0100
0000
0010
0000
0101
0000
0001
1000
0100
0000
0010
0000
,
1001
0000
0100
0010
1010
0000
0100
0000
0011
0000
0100
0010
0110
0000
0001
0000
,
1100
0000
0010
0001
0011
0000
1000
0000
0000
0000
0000
0000
0000
0000
0000
0000
,
0001
0101
1000
1100
,
0010
0000
0011
0000
1000
0100
0010
0001
,
1000
1010
0001
0011
,
0100
0000
0110
0000
1000
0010
0100
0001
,
1000
1100
0010
0011
,
0100
0000
0110
0000
0001
0100
0010
1000
,
0001
1100
0010
1001
,
1000
0000
1100
0000
0010
0001
0100
0010
,
1000
1100
1100
0011
,
1000
0010
1000
0010
0100
0001
0100
0010
,
1000
1010
1010
0101
,
1000
0001
0100
0001
0010
0001
1000
0100
,
0010
0011
0101
1001
,
1000
0010
0100
0001
1000
0100
0010
0001
,
2000
3002
0203
0320
,
2030
3001
1001
0000
,
1000
0010
1000
0100
0010
0001
1000
0000
,
0001
1001
1000
1010
,
0001
0100
0010
1000
0001
0010
1000
0000
,
0001
0101
1000
1100
,
0010
1000
0001
0100
1000
0001
0100
0000
,
0010
0011
1000
1100
,
0001
0010
0100
1000
0001
0010
0100
0000
,
0001
1001
1000
1010
,
0001
0100
0010
1000
0001
0100
0010
1000
,
0001
0010
0011
0000
1000
0100
1100
0000
,
1000
0100
0010
0001
1000
0001
0100
0010
,
1000
0010
1010
0000
0001
0100
0101
0000
,
1000
0010
1000
0010
1000
0100
0010
0000
,
0010
0001
0100
0001
0100
0010
1000
0000
,
0001
0010
0100
1000
,
0001
1001
0000
0110
,
1100
0000
0000
0011
0100
0000
0011
0000
1000
0000
0000
0011
0100
0000
1001
0000
,
1010
0000
0000
0101
0010
0000
1001
0000
1000
0000
0000
0011
1000
0000
0101
1000
,
1000
0000
0000
1001
1100
0000
0011
0000
1100
0000
0000
1001
0011
0000
1100
0000
,
0110
0000
0000
0101
1001
0000
1010
0000
1000
0100
0001
1000
0010
0001
1000
0100
;

//---------------dance-single - ----------------
#NOTES:
     dance-single:
     :
     Hard:
     18:
     0.670159,1.225901,0.335080,0.106245,0.081727,574.000000,533.000000,41.000000,13.000000,0.000000,0.000000,0.670159,1.225901,0.335080,0.106245,0.081727,574.000000,533.000000,41.000000,13.000000,0.000000,0.000000:
0000
0000
0000
0000
,
0000
0000
0000
0000
,
0000
0000
0000
0000
,
0000
0000
0000
0000
,
0000
0000
0000
0000
,
0020
0000
2030
0000
,
3200
0000
0000
0300
,
0020
0000
0032
0000
,
0203
0000
0000
0300
,
0001
1000
0100
0000
1001
0000
0000
0000
,
1000
0001
0100
0000
1001
0000
0000
0000
,
0001
0010
1000
0000
1001
0000
0000
0000
,
0001
0100
1000
0000
1001
0000
0000
0000
,
2002
0000
0000
0000
,
0000
0000
0000
0000
,
0000
0000
0000
0000
,
0000
0000
0000
0000
,
0000
0000
0000
0000
,
0000
0000
0000
0000
,
0000
0000
0000
0000
,
0000
0000
0000
0000
,
0000
0000
0000
0000
,
0000
0000
0000
0000
,
0000
0000
0000
0000
,
0000
0000
0000
0000
,
0000
0000
0000
0000
,
0000
0000
0000
0000
,
0000
3003
1001
0000
,
1000
0100
0010
0001
,
1000
0010
0100
0001
,
1000
0100
0010
0001
,
1000
0001
1000
0000
0001
0000
1000
0000
,
0001
0010
0100
1000
,
0001
0100
0010
1000
,
0001
0010
0100
1000
,
0001
1000
0001
0000
1000
0000
0000
0000
,
1000
0010
1000
0010
1000
0000
0001
0000
,
1000
0100
0010
0001
,
1000
0010
1000
0000
0010
0000
0100
0000
,
0001
0010
0001
0000
0100
0000
0010
0000
,
1000
0001
0010
0001
1000
0000
0010
0000
,
0100
0000
0001
0000
1000
0001
0010
0000
,
0010
0010
0010
0020
,
1030
0000
1001
0000
,
1000
0010
1000
0010
1000
0000
0000
0000
,
0001
0010
0100
0010
0001
0000
0000
0000
,
1000
0100
0010
0100
1000
0000
1000
0000
,
0001
0100
0010
0100
0001
0000
0001
0000
,
1000
0010
1000
0000
0001
0100
0001
0000
,
1000
0100
1000
0010
1000
0000
0000
0000
,
1000
0010
1000
0000
0010
0100
0010
0000
,
1000
0001
1000
0000
1001
0000
1001
0000
,
1000
0010
0100
0010
1000
0000
0001
0000
,
0100
0001
1000
0001
0100
0000
0010
0000
,
1000
0001
0010
0001
1000
0000
0010
0000
,
1000
0100
0010
0100
1000
0000
0001
0000
,
0100
0010
0100
0000
0010
0100
0010
0000
,
1000
0100
1000
0000
0001
0100
0001
0000
,
1000
0000
0001
0000
,
1001
0000
0000
0000
,
1001
0000
0000
1000
0100
0000
0010
0000
0011
0000
0000
1000
0010
0000
0100
0000
,
0101
0000
0000
1000
0010
0000
0100
0000
1001
0000
0000
0001
0100
0000
0010
0000
,
1001
0000
0000
1000
0100
0000
0011
0000
0110
0000
0000
0001
0100
0000
1010
0000
,
0110
0000
0000
1000
0010
0000
0100
0000
2002
0000
0000
0000
3003
0000
0000
0000
,
0010
0000
1000
0100
0000
0100
0000
0010
,
0001
0000
0001
0100
0000
0100
0000
0010
,
1000
0000
0100
0010
0000
1010
0000
0001
,
0100
0000
0100
0010
0000
1001
0000
0100
,
0010
1000
0100
0010
0000
0101
0000
0001
,
0100
0010
1000
0100
0000
1001
0000
1000
,
0100
0010
0001
0100
0000
1001
0000
0001
,
0010
0100
1000
0010
0000
0110
0000
1000
,
0001
1000
0001
1000
0100
0010
0001
1000
,
0010
1000
0010
1000
0100
0010
0001
0100
,
0010
0100
0010
1000
0100
0010
0001
1000
,
0010
1000
0010
0001
0010
1000
0100
0010
,
0001
0100
0001
0100
1000
0100
0001
1000
,
0100
0010
0001
1000
0010
0001
0010
1000
,
0100
0010
0001
1000
0000
1001
0000
0001
,
0100
0010
1000
0001
0000
1001
0000
0000
,
0001
0000
0001
0010
1000
0000
0001
0000
0100
0000
1000
0000
0001
0000
0010
0000
,
0100
0000
1000
0010
0001
0000
1000
0000
0100
0000
0001
0000
1000
0000
0010
0000
,
0100
0000
0001
0100
1000
0000
0001
0000
0010
0000
1000
0000
0100
0000
0010
0000
,
0001
0000
1000
0100
0001
0000
1000
0000
0000
0000
0000
0000
0000
0000
0000
0000
,
0001
1000
0001
0000
1000
0000
0100
0000
,
1000
0001
1000
0010
,
1000
0010
1000
0000
0001
0000
0100
0000
,
0001
1000
0001
0010
,
0001
1000
0001
1000
0001
0000
1000
0000
,
0100
0010
0001
1000
,
0001
1000
0001
1000
0001
0000
1000
0000
,
0010
0100
0010
1000
,
0001
0010
0001
0000
0100
0000
0010
0000
,
1000
0100
0010
0001
,
1000
0100
1000
0000
0001
0000
0100
0000
,
0001
0100
0010
1000
,
0010
0100
0010
1000
0010
0000
0100
0000
,
0001
1000
0100
0001
,
1000
0100
1000
0010
0100
0000
0001
0000
,
1000
0001
1001
0000
,
0010
0010
0010
0010
,
0010
1000
0010
0000
0010
1000
0010
0000
,
0100
0100
0100
0100
,
0100
0001
0100
0000
0100
0001
0100
0000
,
0001
0010
0001
0010
0001
1000
0010
0000
,
1000
0010
1000
0010
1000
0001
0100
0000
,
0001
0010
0001
0010
0100
1000
0100
1000
,
0001
0010
0001
0000
1000
0000
0000
0000
,
1000
0010
0001
0010
,
1000
0100
0001
0100
,
1000
0010
0100
0001
1000
0000
1000
0000
,
0001
0100
0010
1000
0001
0000
0001
0000
,
1000
0010
0100
0000
0001
1000
0010
0000
,
1000
0001
0100
0000
0001
0010
0100
0000
,
1000
0100
0010
0000
0100
0010
0001
0000
,
0000
1001
0000
0100
,
0110
0000
0000
0010
1100
0000
0010
0000
0101
0000
0000
0001
1100
0000
0010
0000
,
0110
0000
0000
1000
0101
0000
1000
0000
0110
0000
0000
0001
1000
0010
0000
0010
,
0010
0000
0000
1000
0101
0000
1000
0000
0110
0000
0000
0001
1100
0000
0001
0000
,
0110
0000
0000
0001
1000
0000
0100
0000
2000
0000
0000
0000
3002
0000
0000
0000
,
0003
0000
0000
0000
;

//---------------dance-single - ----------------
#NOTES:
     dance-single:
     :
     Medium:
     15:
     0.542899,0.931685,0.057209,0.081727,0.098072,465.000000,458.000000,7.000000,10.000000,0.000000,0.000000,0.542899,0.931685,0.057209,0.081727,0.098072,465.000000,458.000000,7.000000,10.000000,0.000000,0.000000:
0000
0000
0000
0000
,
0000
0000
0000
0000
,
0000
0000
0000
0000
,
0000
0000
0000
0000
,
0000
0000
0000
0000
,
2000
0000
3002
0000
,
2003
0000
3000
0000
,
0002
0000
2003
0000
,
3002
0000
0003
0000
,
1000
0010
0001
0000
,
1000
0100
0001
0000
,
0001
0010
1000
0000
,
0001
0100
1000
0000
,
2002
0000
0000
0000
,
0000
0000
0000
0000
,
0000
0000
0000
0000
,
0000
0000
0000
0000
,
0000
0000
0000
0000
,
0000
0000
0000
0000
,
0000
0000
0000
0000
,
0000
0000
0000
0000
,
0000
0000
0000
0000
,
0000
0000
0000
0000
,
0000
0000
0000
0000
,
0000
0000
0000
0000
,
0000
0000
0000
0000
,
0000
0000
0000
0000
,
0000
3003
0000
0000
,
1000
0000
0001
0000
,
1000
0001
1000
0000
,
0001
0100
0010
1000
,
0001
0100
0010
0000
,
1000
0000
0001
0000
,
1000
0100
0010
0000
,
1000
0100
0001
0100
,
1000
0000
1001
0000
,
0001
1000
0010
1000
,
0001
0100
0010
1000
,
0001
0010
0100
1000
,
0100
0010
0001
1000
,
0001
1000
0100
0010
,
0001
0010
0100
1000
,
0001
1000
0001
0000
1000
0000
0010
0000
,
0100
0000
1001
0000
,
1000
0100
1000
0000
0000
0000
0000
0000
,
0001
0100
0001
0000
0000
0000
0000
0000
,
1000
0010
1000
0000
0000
0000
0000
0000
,
0001
0100
0001
0000
0000
0000
0000
0000
,
1000
0001
1000
0000
1000
0000
0001
0000
,
1000
1000
1000
0000
,
0001
1000
0001
0000
1000
0000
0001
0000
,
0001
1000
1000
0001
,
0001
0100
0001
0000
0000
0000
0000
0000
,
1000
0010
1000
0000
0000
0000
0000
0000
,
0001
0010
0001
0000
0000
0000
0000
0000
,
1000
0010
1000
0000
0000
0000
0000
0000
,
0001
0100
0001
0000
1000
0001
1000
0000
,
0001
0010
0001
0000
1000
0001
1000
0000
,
0010
0000
0100
0000
,
1001
0000
0000
0000
,
0010
0000
0000
0001
0100
0000
1000
0000
0010
0000
0000
1000
0100
0000
0001
0010
,
0100
0000
0000
1000
0100
0000
0010
0000
0001
0000
0000
0001
0010
0100
0000
0100
,
1000
0000
0000
0100
0001
0000
0010
0000
0001
0000
0000
0100
1000
0000
0010
1000
,
0001
0000
0000
0001
0100
0000
0010
0000
1000
0000
0000
0000
0000
0000
0000
0000
,
0010
0000
1000
0010
0000
0010
0000
0100
,
0001
0000
1000
0010
0000
0010
0000
1000
,
0001
0000
1000
0100
0000
0100
0000
0010
,
0001
0000
1000
0010
0000
0010
0000
0100
,
0001
1000
0001
0100
0000
0001
0000
1000
,
0010
1000
0100
1000
0000
0001
0000
0100
,
0001
0010
0001
0100
0000
0010
0000
1000
,
0001
1000
0100
1000
0000
0010
0000
0010
,
1000
0100
1000
0010
1000
0010
1000
0000
,
0001
0100
0001
0010
0001
0010
0001
0000
,
1000
0100
0010
0001
0100
0010
0100
0000
,
0001
0010
0100
1000
0010
0100
0010
0000
,
1000
0010
1000
0010
1000
0010
0001
0010
,
1000
0100
1000
0100
0001
0100
0001
0100
,
1000
0100
1000
0100
0010
0001
0010
0001
,
0010
1000
0010
0001
0000
1001
0000
0010
,
0100
0000
0000
0100
0001
0000
1000
0000
0001
0000
0000
0001
0100
0000
0000
0000
,
0010
0000
0000
0010
1000
0000
0001
0000
0100
0000
0000
0100
0010
0000
0000
0000
,
1000
0000
0000
1000
0100
0000
0010
0000
0001
0000
0000
0001
1000
0000
0000
0000
,
0001
0100
0010
1000
0000
0000
0000
0000
,
0001
0010
0001
0000
1000
0000
0001
0000
,
1000
0100
1000
0010
,
1000
0001
1000
0000
0010
0000
0100
0000
,
0001
1000
0100
0010
,
0001
0100
0001
0000
0100
0000
0010
0000
,
1000
0100
0010
0001
,
1000
0010
1000
0000
0001
0000
0100
0000
,
0010
1000
0100
0010
,
0001
1000
0010
1000
,
0100
1000
0010
1000
,
0001
0100
0001
0000
1000
0000
0010
0000
,
1000
0100
0010
0001
,
1000
0010
1000
0000
0001
0000
1000
0000
,
0100
0010
0001
0100
,
0010
0010
0100
0100
,
0001
0000
1001
0000
,
1000
0100
0010
0001
,
1000
0000
0001
0000
1000
0001
1000
0000
,
1000
0100
0010
0001
,
0100
0000
0010
0000
0100
0010
0100
0000
,
0001
0010
0100
1000
,
0010
0000
0100
0000
0001
0100
0001
0000
,
1000
0100
0010
0001
,
1000
0000
0010
0000
0100
0010
0100
0000
,
0001
0100
0001
0100
0001
0000
1000
0000
,
0100
0010
0001
0000
,
1000
0100
1000
0100
1000
0000
1000
0000
,
0100
0010
0001
0000
,
0100
0010
0100
0000
0010
0100
0010
0000
,
1000
0001
1000
0000
0001
1000
0001
0000
,
1000
0100
0010
0001
,
0000
1001
0000
1000
,
0001
0000
0000
0100
1000
0000
0010
0000
1000
0000
0000
0100
0001
0000
0010
0000
,
0001
0000
0000
1000
0100
0000
0010
0000
0001
0000
0000
0001
0010
0000
0100
0000
,
1000
0000
0000
0010
1000
0000
0100
0000
0001
0000
0000
0010
0001
0000
0100
0000
,
1000
0000
0000
0010
0100
0000
0001
0000
2000
0000
0000
0000
3002
0000
0000
0000
,
0003
0000
0000
0000
;

//---------------dance-single - ----------------
#NOTES:
     dance-single:
     :
     Easy:
     12:
     0.421476,0.882649,0.269698,0.138935,0.061295,361.000000,328.000000,33.000000,17.000000,0.000000,0.000000,0.421476,0.882649,0.269698,0.138935,0.061295,361.000000,328.000000,33.000000,17.000000,0.000000,0.000000:
0000
0000
0000
0000
,
0000
0000
0000
0000
,
0000
0000
0000
0000
,
0000
0000
0000
0000
,
0000
0000
0000
0000
,
1000
0000
0001
0000
,
2000
0000
3000
0000
,
0001
0000
1000
0000
,
0002
0000
0003
0000
,
1000
0000
0010
0000
,
0001
0000
0100
0000
,
0001
0000
0010
0000
,
1000
0000
0100
0000
,
2002
0000
0000
0000
,
0000
0000
0000
0000
,
0000
0000
0000
0000
,
0000
0000
0000
0000
,
0000
0000
0000
0000
,
0000
0000
0000
0000
,
0000
0000
0000
0000
,
0000
0000
0000
0000
,
0000
0000
0000
0000
,
0000
0000
0000
0000
,
0000
0000
0000
0000
,
0000
0000
0000
0000
,
0000
0000
0000
0000
,
0000
0000
0000
0000
,
0000
3003
0000
0000
,
0001
0000
1000
0100
,
0010
0001
0000
0001
,
0001
0000
0001
0010
,
0100
1000
0000
1000
,
1000
0000
0001
0100
,
0010
1000
0000
1000
,
1000
0000
0010
0100
,
0010
0100
0010
0000
,
1000
0000
0001
0100
,
0010
1000
0000
0001
,
0001
0000
1000
0010
,
0100
0001
0000
1000
,
1000
0000
0001
0100
,
0010
1000
0000
0001
,
0001
0000
1000
0000
,
0010
0000
1001
0000
,
0001
0010
0100
0000
,
1000
0010
0100
0000
,
0001
0010
0100
0000
,
1000
0100
0010
0000
,
1000
0100
0010
0001
,
0010
0100
1000
0000
,
0001
0010
0100
1000
,
0100
0010
0001
0000
,
1000
0001
1000
0000
,
0001
1000
0001
0000
,
1000
0100
0010
0000
,
0100
0010
0001
0000
,
1000
0100
0010
0001
,
0100
0010
0100
0000
,
2000
0000
3002
0000
,
0203
0000
0300
0000
,
1010
0000
0000
0000
1010
0000
0000
0000
1010
0000
0000
0000
1010
0000
0000
1000
,
0100
0000
0000
0000
0101
0000
0000
0000
0101
0000
0000
0000
0100
0001
0000
0001
,
1000
0000
0000
0000
1010
0000
0000
0000
1010
0000
0000
0000
1000
0010
0000
0010
,
0100
0000
0000
0000
0100
0000
0000
0100
0100
0000
0000
0000
0000
0000
0000
0000
,
0002
0000
0000
0003
,
2000
0000
0000
3000
,
0020
0000
0000
0030
,
0200
0000
0000
0300
,
0001
0100
0001
0100
0000
0000
0000
0000
,
1000
0100
1000
0100
0000
0000
0000
0000
,
0010
0100
0010
0100
0000
0000
0000
0000
,
0100
0010
0100
0010
0000
0000
0000
0000
,
1000
0000
1000
0000
1000
0000
0001
0100
,
0010
0000
0010
0000
0010
0000
1000
0100
,
0010
0000
0010
0000
0010
0000
0100
0010
,
0001
0000
0001
0000
0001
0000
1000
0010
,
0100
0000
0001
0000
0001
0000
0100
0010
,
1000
0000
0001
0000
0001
0000
1000
0001
,
0100
0000
0100
0000
0010
0000
0001
1000
,
2002
0000
3003
0000
,
0010
0000
0000
1000
0010
0000
0000
0000
0100
0000
0000
0001
0100
0000
0000
0000
,
1000
0000
0000
0001
1000
0000
0000
0000
0001
0000
0000
1000
0001
0000
0000
0000
,
1000
0000
0000
0100
0001
0000
0000
0000
1000
0000
0000
0010
0001
0000
0000
0000
,
0001
0000
0000
0100
1000
0000
0000
0000
0000
0000
0000
0000
0000
0000
0000
0000
,
1000
0100
0010
0001
,
0000
1001
0000
1000
,
0001
0100
0010
1000
,
0000
1001
0000
0100
,
0010
1000
0001
0100
,
0000
1001
0000
1000
,
0100
0010
0001
1000
,
0000
0101
0000
0010
,
1000
0100
0010
0001
,
0000
1001
0000
0100
,
0001
0010
0100
1000
,
0000
1001
0000
1000
,
0100
0010
0001
1000
,
0000
1001
0000
0010
,
0001
0100
0010
1000
,
0100
0010
0001
0000
,
1000
0100
1000
0100
,
0010
0001
0010
0001
,
1000
0100
0010
0001
,
0100
0010
0100
0010
,
0001
0100
1000
0100
,
0001
0100
1000
0100
,
0001
0010
1000
0010
,
0001
0000
1001
0000
,
1000
0100
0010
0001
,
1000
0010
0001
0010
,
1000
0100
0010
0001
,
1000
0100
0001
0100
,
1000
0001
1000
0001
,
0100
0010
0100
0010
,
2002
0000
0000
0000
,
3003
0000
0000
0000
,
1001
1100
0011
1100
,
1001
0000
0000
0000
0101
0000
0000
0000
1010
0000
0000
0000
0001
0100
0000
0100
,
0010
1100
0110
0011
,
0101
1010
2002
0000
,
3003
0000
0000
0000
;

//---------------dance-single - ----------------
#NOTES:
     dance-single:
     :
     Beginner:
     9:
     0.273201,0.490360,0.049036,0.122590,0.000000,234.000000,228.000000,6.000000,15.000000,0.000000,0.000000,0.273201,0.490360,0.049036,0.122590,0.000000,234.000000,228.000000,6.000000,15.000000,0.000000,0.000000:
// measure 0
0000
0000
0000
0000
,  // measure 1
0000
0000
0000
0000
,  // measure 2
0000
0000
0000
0000
,  // measure 3
0000
0000
0000
0000
,  // measure 4
0000
0000
0000
0000
,  // measure 5
0001
0000
0100
0000
,  // measure 6
1000
0000
0000
0000
,  // measure 7
1000
0000
0100
0000
,  // measure 8
0001
0000
0000
0000
,  // measure 9
0010
0000
0000
0000
,  // measure 10
0100
0000
0000
0000
,  // measure 11
0001
0000
0000
0000
,  // measure 12
1000
0000
0000
0000
,  // measure 13
2002
0000
0000
0000
,  // measure 14
0000
0000
0000
0000
,  // measure 15
0000
0000
0000
0000
,  // measure 16
0000
0000
0000
0000
,  // measure 17
0000
0000
0000
0000
,  // measure 18
0000
0000
0000
0000
,  // measure 19
0000
0000
0000
0000
,  // measure 20
0000
0000
0000
0000
,  // measure 21
0000
0000
0000
0000
,  // measure 22
0000
0000
0000
0000
,  // measure 23
0000
0000
0000
0000
,  // measure 24
0000
0000
0000
0000
,  // measure 25
0000
0000
0000
0000
,  // measure 26
0000
0000
0000
0000
,  // measure 27
0000
3003
0000
0000
,  // measure 28
0001
0000
0001
0000
,  // measure 29
1000
0000
1000
0000
,  // measure 30
0001
0000
1000
0000
,  // measure 31
0001
1000
0001
0000
,  // measure 32
0100
0000
0100
0000
,  // measure 33
0010
0000
0010
0000
,  // measure 34
0100
0000
0010
0000
,  // measure 35
0100
0010
0100
0000
,  // measure 36
1000
0000
1000
0000
,  // measure 37
0100
0000
0100
0000
,  // measure 38
0010
0000
0001
0000
,  // measure 39
1000
0100
1000
0000
,  // measure 40
0001
0000
0001
0000
,  // measure 41
0100
0000
0100
0000
,  // measure 42
0001
0000
0100
0000
,  // measure 43
2002
0000
3003
0000
,  // measure 44
1000
0000
0001
0000
,  // measure 45
1000
0000
0001
0000
,  // measure 46
0100
0000
0010
0000
,  // measure 47
0100
0010
0100
0000
,  // measure 48
0001
0000
0100
0000
,  // measure 49
1000
0000
0000
0000
,  // measure 50
0001
0000
0010
0000
,  // measure 51
1000
0000
0000
0000
,  // measure 52
0001
0000
0100
0000
,  // measure 53
0010
0000
1000
0000
,  // measure 54
0001
0000
1000
0000
,  // measure 55
0001
1000
0001
0000
,  // measure 56
1000
0000
0100
0000
,  // measure 57
0001
0000
0000
0000
,  // measure 58
1000
0000
0010
0000
,  // measure 59
0001
0000
0000
0000
,  // measure 60
0100
0100
0100
0100
,  // measure 61
0001
0001
0001
0001
,  // measure 62
0010
0010
0010
0010
,  // measure 63
1000
1000
1000
0000
,  // measure 64
2002
3003
0000
0000
,  // measure 65
2000
3000
0000
0000
,  // measure 66
0002
0003
0000
0000
,  // measure 67
0200
0300
0000
0000
,  // measure 68
0010
0010
0010
0000
,  // measure 69
0100
0100
0100
0000
,  // measure 70
0001
0001
0001
0000
,  // measure 71
2000
0000
3000
0000
,  // measure 72
0001
0100
0001
0100
,  // measure 73
1000
0100
1000
0100
,  // measure 74
0001
0100
1000
0100
,  // measure 75
0001
0010
1000
0010
,  // measure 76
0001
1000
0010
1000
,  // measure 77
0010
0001
0010
0001
,  // measure 78
1000
0100
0010
0001
,  // measure 79
0200
0000
0310
0000
,  // measure 80
0001
1000
0010
0100
,  // measure 81
1000
0100
0010
0001
,  // measure 82
1000
0001
0100
0010
,  // measure 83
0001
1000
1001
0000
,  // measure 84
0010
0000
0010
0000
,  // measure 85
0010
0000
1000
0001
,  // measure 86
1000
0000
0010
0000
,  // measure 87
0010
0000
0001
1000
,  // measure 88
0001
0000
0100
0000
,  // measure 89
0100
0000
1000
0001
,  // measure 90
1000
0000
0100
0000
,  // measure 91
0100
0000
1000
0000
,  // measure 92
0001
0000
0001
0000
,  // measure 93
1000
0000
0001
1000
,  // measure 94
0001
0000
0001
0000
,  // measure 95
1000
0000
1000
0000
,  // measure 96
0001
1000
0001
0000
,  // measure 97
1000
0000
1000
0000
,  // measure 98
0001
0000
0100
0000
,  // measure 99
0010
0000
1000
0000
,  // measure 100
0001
0000
0001
0000
,  // measure 101
1000
0000
1000
0000
,  // measure 102
0010
0000
0010
0000
,  // measure 103
0100
0000
0100
0000
,  // measure 104
0001
0000
0010
0000
,  // measure 105
0100
0000
1000
0000
,  // measure 106
0001
0000
0010
0000
,  // measure 107
0100
0000
1000
0000
,  // measure 108
0100
0000
0100
0000
,  // measure 109
0010
0000
0000
0000
,  // measure 110
0010
0000
0010
0000
,  // measure 111
0100
0000
0000
0000
,  // measure 112
1000
0000
0100
0000
,  // measure 113
0010
0000
0001
0000
,  // measure 114
2002
0000
0000
0000
,  // measure 115
3003
0000
0000
0000
,  // measure 116
0010
0010
0010
0010
,  // measure 117
1000
1000
1000
1000
,  // measure 118
0100
0100
0100
0100
,  // measure 119
0001
0001
2002
0000
,  // measure 120
3003
0000
0000
0000
;
