#TITLE:On Your Mark;
#SUBTITLE:;
#ARTIST:MIKOTO;
#TITLETRANSLIT:;
#SUBTITLETRANSLIT:;
#ARTISTTRANSLIT:;
#GENRE:;
#CREDIT:;
#MENUCOLOR:;
#METERTYPE:DDR;
#BANNER:On Your Mark.png;
#BACKGROUND:On Your Mark-bg.png;
#LYRICSPATH:;
#CDTITLE:;
#MUSIC:On Your Mark.ogg;
#OFFSET:1.325;
#SAMPLESTART:47.215;
#SAMPLELENGTH:14.426;
#SELECTABLE:YES;
#LISTSORT:;
#BPMS:0.000=183.000;
#STOPS:;
#BGCHANGES:;
#ATTACKS:;

//---------------dance-double - ----------------
#NOTES:
     dance-double:
     :
     Hard:
     11:
     0.634,0.632,0.468,0.122,0.000:
00000000
00000000
00000000
00000000
,
00000000
00000000
00000000
00000000
,
00000000
00000000
00000000
00000000
,
00000000
00000000
00000000
00000000
,
00000000
00000000
00000000
00000000
,
00000000
00000000
00000000
00000000
,
00010000
00001000
00010000
00001000
00000000
00010100
00000000
00001000
,
00000010
00000100
00000010
00001000
00000000
00000010
00001000
00000001
,
00000000
00001000
00000010
00000100
00000000
00001000
00000100
00010000
,
00000000
00001000
00010000
00000000
00100000
00010000
01000000
00100000
,
00000000
10100000
00000000
00110000
00000000
01010000
00000000
00022000
,
00000000
00033000
00000000
00000000
,
00000010
00000010
00000000
00001010
00000000
00000001
00000100
00000010
,
00000000
00001000
00000100
00000000
00010000
00001000
00100000
00010000
,
00000000
01000000
00100000
00000000
10000000
00010000
00000000
00100000
,
00000000
00001000
00010000
00000000
00000100
00001000
00000010
00000100
,
00000000
00000001
00001000
00000000
00000100
00001000
00000000
00010100
,
00000000
00001000
00100000
00000000
00010000
01000000
00000000
10010000
,
00000000
00100000
00010000
00000000
00001000
00010000
00000100
00002000
,
00000000
00000000
00000000
00000000
,
00003001
00000100
00000000
00001010
00000000
00000100
00010000
00001000
,
00000000
00001000
00010000
00000000
00100000
00001000
01000000
00010000
,
00000000
10000000
00100000
10000000
00010000
00100000
00000000
00101000
,
00000000
00010000
00000100
00000000
00001000
00000010
00000100
00000001
,
00000000
00001000
00000100
00010000
00001000
00010000
00000000
00100000
,
00000000
00010000
01000000
00100000
10000000
00100000
00000000
01010000
,
00000000
00001000
00010000
00000000
00000100
00001000
00000010
00000100
,
00000000
00001000
00000010
00000000
00010000
00000100
00010000
00000000
,
00001000
00000000
00100000
00010000
01000000
00010000
00000000
00100000
,
00000000
10010000
00000000
00110000
00000000
00100000
00001000
00000000
,
00010000
00000000
00000100
00001000
00000010
00001000
00000000
00000101
,
00000000
00001010
00000000
00001100
00000000
00000100
00010000
00000000
,
00001000
00000000
00100000
00010000
01000000
00000000
00100000
10000000
,
00010000
00000000
00100000
00001000
00010000
00000000
00000100
00001000
,
00000010
00000000
00001000
00000001
00000000
00001000
00000100
00020000
,
00000000
00031000
00100000
00020000
00000000
00000000
00000000
01030000
,
00000000
01010000
00000000
20020000
00000000
00000000
30030000
00000000
,
00100000
00000000
10000000
00010000
00000000
00100000
00001000
00010000
,
00000000
00010000
00000010
00001000
00000000
00000001
00000100
00000010
,
00000000
00001000
00001000
00000100
00001000
00000100
00000000
00010000
,
00000000
00001000
00100000
00010000
00000000
01010000
00000000
00000000
,
00100000
00000000
10000000
00010000
00000000
00110000
00000000
00001000
,
00000000
00010000
00000000
00010100
00000000
00000010
00001000
00000010
,
00001000
00000000
00000001
00001000
00000100
00000000
00000100
00010000
,
00000000
00000000
00011000
00000000
00100000
00001000
00100000
00000000
,
01010000
00000000
10000000
00100000
00000000
01010000
00000000
00110000
,
00000000
00100000
00001000
00010000
00000000
00010000
00000100
00001000
,
00000000
00000001
00001000
00000002
00000000
00001003
00000001
00001000
,
00000000
00000100
00010000
00001000
00000000
00022000
00000000
00033000
,
00100000
00010000
01000000
00100000
00000000
10000000
00000000
00110000
,
00000000
00100000
00001000
00010000
00000000
00010000
00000100
00001000
,
00000020
00000000
00000130
00000001
00000001
00000000
00001000
00000100
,
00000010
00000100
00001000
00000100
00010000
00001000
00100000
00010000
,
01000000
00100000
10000000
00100000
00000000
10010000
00000000
00100000
,
00001000
00010000
00001000
00010000
00000000
00010000
00000100
00000000
,
00000100
00001000
00000010
00000100
00000000
00000001
00001000
00000100
,
00000000
00001100
00000000
00010100
00000000
00011000
00000000
00001000
,
00100000
00010000
01000000
00100000
00000000
10010000
00000000
00100000
,
00001000
00010000
00000100
00001000
00000000
00001010
00000000
00000001
,
00000100
00000010
00001000
00000100
00000000
00010100
00000000
00011000
,
00000000
00101000
00000000
00110000
00000000
01010000
00000000
00000000
,
00100000
10000000
00100000
10000000
00010000
01000000
00010000
01000000
,
00001000
00010000
00001000
00010000
00000100
00001000
00000100
00001000
,
00000001
00000100
00000010
00001000
00000000
00001100
00000000
00010100
,
00000000
00011000
00000000
00101000
00000000
01010000
00000000
00010000
,
10000000
00100000
01000000
00010000
00000000
00100000
00001000
00010000
,
00000000
00010000
00000100
00001000
00000000
00000010
00001000
00000001
,
00001000
00000000
00000100
00010000
00001000
00010000
00000000
00011000
,
00000000
00101000
00000000
01001000
00000000
00010000
10000000
00000000
,
00100000
10000000
00100000
10000000
00010000
00100000
00010000
00100000
,
00001000
00010000
00001000
00010000
00000010
00001000
00000010
00001000
,
00000001
00000100
00000001
00000100
00000010
00001000
00000010
00001000
,
00000100
00010000
00000100
00010000
00001000
00100000
00010000
01000000
,
00100000
10000000
01000000
10000000
00100000
01000000
00010000
01000000
,
00010000
00100000
00001000
00100000
00001000
00010000
00000100
00001000
,
00000010
00000100
00000001
00001000
00000100
00010000
00001000
00100000
,
00010000
10000000
01000000
00100000
00010000
01000000
00001000
00010000
,
00000100
00000100
00000000
00011000
00000000
01001000
00000000
00011000
,
00000000
00000000
00000000
00022000
00000000
00000000
00000000
00000000
,
00000000
00000000
00033000
00000000
;

//---------------dance-single - ----------------
#NOTES:
     dance-single:
     :
     Hard:
     11:
     0.644,0.632,0.468,0.290,0.000:
0000
0000
0000
0000
,
0000
0000
0000
0000
,
0000
0000
0000
0000
,
0000
0000
0000
0000
,
0000
0000
0000
0000
,
0000
0000
0000
0000
,
1000
0001
1000
0010
0000
0110
0000
0001
,
0100
0010
1000
0010
0000
0110
0000
0001
,
1000
0010
0100
0001
0000
1100
0000
0011
,
0000
0100
0001
1000
0001
0100
0010
1010
,
0000
0101
0000
0110
0000
1001
0000
0220
,
0000
0000
0330
0000
,
0001
1000
0100
1000
0000
0001
0010
0100
,
0000
1000
0010
0100
0000
0001
1000
0001
,
0000
1000
0100
0010
0001
0100
0000
1001
,
0000
0100
0010
0000
1000
0001
0100
0010
,
0000
0010
1000
0001
0010
0010
0000
1001
,
0000
0010
1000
0001
0100
0100
0000
0010
,
0000
1000
0001
0000
1000
0100
0010
0002
,
0000
0000
0000
0000
,
1003
0010
0000
0110
0000
0001
0100
0010
,
0000
1000
0001
0100
0010
1000
0001
0001
,
0000
1000
0100
0010
0001
0100
0000
0101
,
0000
1000
0010
1000
0001
0010
0001
0100
,
0000
0010
1000
0001
1000
0010
1000
0100
,
0000
1000
0001
0100
0010
1000
0001
0020
,
0000
0000
0031
0000
0100
0010
1000
0200
,
0000
1000
1300
0000
0010
0100
0001
0000
,
2000
0000
3001
0000
0001
0100
0010
1000
,
0000
0100
0000
0011
0000
0100
0000
1000
,
0010
0000
0100
0001
1000
0010
0000
1000
,
0000
0100
0000
1001
0000
0100
0000
1000
,
0020
0000
0100
0000
1030
0000
0001
0100
,
0020
0000
1000
0000
0130
0000
1000
0001
,
0200
0000
0310
2000
0000
0000
3001
0200
,
0000
0000
0000
0020
0000
0330
0000
1001
,
0000
1100
0000
0202
0000
0000
0303
0000
,
1001
0000
1000
0001
0000
0011
0000
1100
,
0000
0001
0100
0010
0000
1000
0001
0100
,
0000
0010
1000
0020
0000
0130
0001
1000
,
0000
0001
0100
0010
0000
1001
0000
0000
,
0100
0010
1000
0010
0000
1100
0000
0011
,
0000
0100
0001
1000
0000
0010
1000
0100
,
2000
0000
0000
3002
0000
0000
0103
0010
,
0000
1000
0001
0100
0000
1001
0000
0000
,
0001
0010
0100
1000
0000
0001
0100
0020
,
0000
1030
0001
0200
0000
0301
1000
0001
,
0000
0010
0010
0002
0000
0103
0010
1000
,
0000
0001
0100
0010
0000
1001
0000
0000
,
1000
0100
0010
0001
0000
1000
0001
0100
,
0000
0001
1000
0100
0000
1000
0100
0010
,
0002
0000
0103
0010
2000
0000
0000
3002
,
0000
0000
1003
0100
0000
1100
0000
0010
,
0001
0100
0001
0100
0000
1001
0000
0010
,
1000
0010
0100
0001
0000
1000
0001
1000
,
0000
0001
0010
0100
1000
0010
0000
0101
,
0000
1010
0000
0101
0000
1010
0000
0001
,
0100
0010
1000
0010
0000
0101
0000
1000
,
0100
0010
0001
0100
0000
1001
0000
0010
,
1000
0001
0100
0010
0000
1100
0000
0011
,
0000
0110
0000
1001
0000
0110
0000
0000
,
1000
0100
1000
0100
0000
1001
0000
0001
,
0010
0001
0010
0100
0000
1100
0000
0001
,
0100
0010
1000
0020
0000
0100
0000
1000
,
0000
0100
0000
1030
0000
1001
0000
0001
,
0100
0010
1000
0002
0000
0103
0000
0010
,
1000
0100
0010
0002
0000
0103
0000
0010
,
1000
0001
0100
0020
0000
1000
0000
0001
,
0000
1000
0000
0130
0000
1001
0000
0000
,
0001
0010
0001
0010
0100
1000
0100
1000
,
0001
0100
0001
0100
0010
1000
0010
1000
,
0001
0100
0010
1000
0001
0100
0010
1000
,
0001
0010
0001
0010
0100
1000
0100
1000
,
0001
0010
0001
0010
1000
0010
1000
0010
,
0001
0100
0001
0100
1000
0100
1000
0100
,
0001
0010
0100
1000
0001
0010
0100
1000
,
0000
0001
0100
0010
0000
1001
0000
0100
,
0110
0110
0000
1100
0000
0110
0000
0022
,
0000
0033
0000
2002
0000
0000
0000
0000
,
0000
0000
3003
0000
;

//---------------dance-double - ----------------
#NOTES:
     dance-double:
     :
     Medium:
     9:
     0.452,0.446,0.234,0.168,0.000:
00000000
00000000
00000000
00000000
,
00000000
00000000
00000000
00000000
,
00000000
00000000
00000000
00000000
,
00000000
00000000
00000000
00000000
,
00000000
00000000
00000000
00000000
,
00000000
00000000
00000000
00000000
,
00010000
00000100
00001000
00000001
,
00001000
00000100
00010000
00001000
,
00100000
00010000
01000000
00000000
00100000
10000000
01000000
00000000
,
00100000
00000000
00001000
00000000
00010000
00000000
00000000
00000100
,
00000000
00001000
00000000
00000100
00000000
00000010
00000000
00002002
,
00000000
00000000
00000000
00003003
,
00000020
00001000
00000000
00000130
,
00001000
00000100
00010000
00000000
00001000
00000000
00100000
00020000
,
00000000
01000000
00000000
01030000
,
00100000
10000000
01000000
00000000
00100000
00000000
00001000
00020000
,
00000000
00000000
00000100
00000000
00000000
00000000
00030100
00002000
,
00000000
00000000
00000001
00000000
00000000
00000000
00003001
00000200
,
00000000
00000000
00000010
00000000
00000310
00000000
00000000
00002002
,
00000000
00000000
00003003
00000000
,
00000010
00001000
00000000
00000100
00000000
00010000
00000000
00001000
,
00000000
00100000
00010000
00000000
01000000
00100000
10000000
00010000
,
00000000
00100000
00000000
00001000
00000000
00010000
00000000
00000010
,
00000000
00001000
00000001
00000000
00001000
00000000
00000100
00010000
,
00000000
00000000
00001000
00000000
00100000
00000000
00010000
01000000
,
00000000
00000000
00100000
00000000
10000000
00000000
00010000
00200000
,
00000000
00000000
00000000
00000000
00000000
00000000
00000000
00302000
,
00000000
00013000
00000100
00001000
,
00000001
00000000
00001000
00000000
00000100
00000000
00000000
00010000
,
00000000
00001000
00000000
00010000
00000000
00001000
00000000
00000000
,
00100000
00000000
00010000
00000000
01000000
00000000
00000000
10000000
,
00000000
01000000
00000000
00100000
00000000
00010000
00000000
00000000
,
10000000
00000000
00010000
00000000
00100000
00000000
00000000
00001000
,
00000000
00010000
00000020
00000000
,
00002030
00000000
00000000
00000020
00000000
00003030
00000001
00002000
,
00000000
00000000
00000000
00000200
00000000
00000000
00003300
00001001
,
00000000
00001001
00000000
00001001
00000000
00000000
00000000
00000000
,
00001010
00000000
00000100
00001000
00000000
00000100
00000000
00010000
,
00000000
00001000
00000000
00100000
00000000
00010000
00000000
01000000
,
00000000
00100000
10000000
00010000
,
00100000
00001000
00010000
00000010
,
00001001
00000000
00001000
00000010
00000000
00001000
00000000
00000100
,
00000000
00010000
00000000
00001000
00000000
01000000
00000000
00000000
,
00100000
10000000
00010000
00000000
,
00100000
00001000
00010000
00000000
,
00011000
00000000
00010000
00000010
00000000
00001000
00000000
00000001
,
00000000
00000100
00000000
00000010
00000000
00001000
00000100
00001000
,
00000000
00000100
00010000
00000100
00000000
00010000
00000000
00001000
,
00000000
00100000
00000000
00010000
00000000
01000000
00000000
00000000
,
00100000
00000000
10000000
01000000
00000000
00100000
00000000
00001000
,
00000000
00000001
00000000
00000100
00000000
00000010
00001000
00000000
,
00000100
00000000
00000000
00000100
00010000
00000000
00000000
00010000
,
00001000
00100000
00010000
10010000
,
10000000
00100000
01010000
10100000
,
00010000
00100000
00001000
00011000
,
00010000
00000010
00001010
00000101
,
00000010
00000000
00001000
00000000
00000100
00001000
00000100
00000000
,
00001000
00000000
00000100
00000000
00010000
00001000
00010000
00000000
,
00001000
00000000
00100000
00000000
00010000
01000000
00010000
00000000
,
00100000
10000000
01000000
00100000
,
00010000
00000000
01000000
00000000
00100000
01000000
00100000
00000000
,
10000000
00010000
10000000
00010000
00000000
00100000
00000000
00000000
,
00001000
00010000
00001000
00010000
00000000
00000100
00000000
00000000
,
00001000
00000010
00001000
00000010
00000000
00000100
00000000
00000001
,
00000000
00001001
00000000
00000110
00000000
00001001
00000000
00000000
,
00000010
00001000
00000010
00001000
00000000
00000100
00000000
00000000
,
00010000
00001000
00010000
00001000
00000000
00100000
00000000
00000000
,
00010000
01000000
00010000
01000000
00000000
00100000
00000000
10010000
,
00000000
01100000
00000000
10010000
00000000
01100000
00000000
00000000
,
10000000
00100000
01000000
00010000
,
00001000
00010000
00001000
00010000
00001000
00010000
00001000
00000000
,
00010000
00000010
00001000
00000001
,
00000100
00000010
00000100
00000010
00000100
00000010
00000100
00000000
,
00000001
00001000
00000100
00010000
,
00001000
00010000
00001000
00010000
00001000
00010000
00001000
00000000
,
00100000
00000000
00010000
00000000
01000000
00000000
00100000
10000000
,
00000000
00100000
00000000
01000000
00000000
00001000
00000000
00010000
,
00000100
00001000
00000000
00001010
00000000
00001001
00000000
00001100
,
00000000
00000000
00000000
00022000
00000000
00000000
00000000
00000000
,
00000000
00000000
00033000
00000000
;

//---------------dance-single - ----------------
#NOTES:
     dance-single:
     :
     Medium:
     9:
     0.466,0.483,0.309,0.159,0.000:
0000
0000
0000
0000
,
0000
0000
0000
0000
,
0000
0000
0000
0000
,
0000
0000
0000
0000
,
0000
0000
0000
0000
,
0000
0000
0000
0000
,
0001
0100
1000
0100
,
0001
1000
0001
1000
,
1000
0001
0100
0000
0001
1000
0100
0000
,
0010
0000
1000
0000
0001
0000
0000
0001
,
0000
1000
0000
0100
0000
0010
0000
2002
,
0000
0000
0000
3003
,
0020
0100
0000
0130
,
0001
0100
0001
0000
1000
0000
1000
0002
,
0000
0100
0000
0103
,
0010
0100
0010
0000
1000
0000
1000
0002
,
0000
0000
0100
0000
0100
0000
0000
2003
,
0000
0000
0010
0000
0010
0000
0000
3020
,
0000
0000
0100
0000
0130
0000
0000
2002
,
0000
0000
3003
0000
,
0010
0100
0000
0001
0000
1000
0000
1001
,
0000
1000
0001
0000
0100
0010
1000
0001
,
0000
0010
0000
0001
0000
1000
0000
0010
,
0000
1000
0001
0000
1000
0000
0100
0010
,
0000
0000
0001
0000
0100
0000
0010
1000
,
0000
0000
0010
0000
0100
0000
0001
2000
,
0000
0000
0000
0000
0000
0000
0000
0002
,
0000
3003
0010
0100
,
0001
0000
1000
0000
0100
0000
0000
0010
,
0000
0001
0000
1000
0000
1001
0000
0000
,
0010
0000
0001
0000
0100
0000
0000
1000
,
0000
0100
0000
0010
0000
0001
0000
0000
,
1000
0000
0001
0000
0010
0000
0000
1000
,
0000
0001
0020
0000
,
0032
0000
0000
0010
0000
0003
1000
0002
,
0000
0000
0000
0200
0000
0000
0303
1001
,
0000
1001
0000
1001
0000
0000
0000
0000
,
1001
0000
0100
0010
0000
1000
0000
1001
,
0000
0110
0000
1001
0000
0001
1000
0001
,
0000
1000
0001
1000
0000
0010
0000
1000
,
0000
0100
0000
0010
0000
1001
0000
0000
,
1001
0000
1000
0010
0000
0100
0000
0001
,
0000
1000
0000
0010
0000
0100
0010
0100
,
0010
1000
0001
0000
,
0010
0001
1000
0000
,
1001
0000
1000
0100
0000
0010
0000
0001
,
0000
0100
0000
0010
0000
1000
0010
1000
,
0000
0001
0100
0001
0000
1000
0000
0001
,
0000
0100
0000
0010
0000
0110
0000
0000
,
0010
0000
1000
0001
0000
0100
0000
0010
,
0000
0100
0000
0001
0000
1000
0001
1000
,
0010
0000
0000
0100
0001
0000
0000
0001
,
1000
0010
0001
1001
,
1000
0010
0101
1010
,
0001
1000
1010
0101
,
0010
0100
1001
0110
,
0010
0000
1000
0000
0100
1000
0100
0000
,
1000
0000
0100
0000
0001
1000
0001
0000
,
1000
0000
0010
0000
0001
0100
0001
0000
,
0010
1000
0100
0010
,
0001
0000
0100
0000
0010
0100
0010
0000
,
1000
0001
1000
0001
0000
0010
0000
0000
,
1000
0001
1000
0001
0000
0100
0000
0000
,
1000
0010
1000
0010
0000
0100
0000
0001
,
0000
1001
0000
0110
0000
1001
0000
0000
,
0010
1000
0010
1000
0000
0100
0000
0000
,
0001
1000
0001
1000
0000
0010
0000
0000
,
0001
0100
0001
0100
0000
0010
0000
1001
,
0000
0110
0000
1001
0000
0110
0000
0000
,
1000
0010
0100
0001
,
1000
0001
1000
0001
1000
0001
1000
0000
,
0001
0010
0100
1000
,
0001
1000
0001
1000
0001
1000
0001
0000
,
0010
1000
0100
0001
,
1000
0001
1000
0001
1000
0001
1000
0000
,
0010
0000
0001
0000
0100
0000
1000
0001
,
0000
0010
0000
0100
0000
1000
0000
0001
,
0100
0010
0000
0110
0000
1001
0000
0110
,
0000
0000
0000
2002
0000
0000
0000
0000
,
0000
0000
3003
0000
;

//---------------dance-double - ----------------
#NOTES:
     dance-double:
     :
     Easy:
     4:
     0.233,0.260,0.075,0.094,0.000:
00000000
00000000
00000000
00000000
,
00000000
00000000
00000000
00000000
,
00000000
00000000
00000000
00000000
,
00000000
00000000
00000000
00000000
,
00000000
00000000
00000000
00000000
,
00000000
00000000
00000000
00000000
,
00000000
00100000
00000000
00100000
,
00000000
00001000
00000000
00010000
,
00000000
00000010
00000000
00000010
,
00000000
00010000
00000000
00001000
,
00002000
00000000
00000000
00000000
,
00003000
00000000
00000000
00000000
,
00100000
00000000
00010000
00000000
,
01000000
00000000
00100000
00000000
,
10000000
00000000
01000000
00000000
,
00100000
00000000
00001000
00000000
,
00010000
00000000
00000100
00000000
,
00001000
00000000
00000001
00000000
,
00001000
00000000
00000020
00000000
,
00000030
00000000
00000000
00000000
,
00001001
00000000
00000110
00000000
,
00000010
00000000
00001000
00000000
,
00000100
00000000
00010000
00000000
,
00001000
00000000
01000000
00000000
,
10010000
00000000
01100000
00000000
,
10000000
00000000
00010000
00000000
,
00200000
00000000
00300000
00000000
,
00002000
00000000
00003000
00000000
,
00010000
00000000
00001000
00000000
,
00010000
00000000
00000010
00000000
,
00001000
00000000
00000001
00000000
,
00001000
00000000
00000100
00000000
,
00010000
00000000
00010000
00000000
,
00001000
00000000
00001000
00000000
,
00200000
00000000
00000000
00000000
,
02000000
00000000
00000000
00000000
03300000
00000000
00000000
10000000
,
00000000
00010000
00000000
10000000
00000000
00000000
00000000
00000000
,
00010000
00000000
00100000
00000000
,
00001000
00000000
00010000
00000000
,
00000100
00001000
00000001
00000000
,
00000100
00000001
00001000
00000000
,
00000010
00000000
00001000
00000000
,
00000100
00000000
00010000
00000000
,
00002000
00000000
00003000
00000000
,
02000000
00000000
03000000
00000000
,
10010000
00000000
01100000
00000000
,
01000000
00000000
00010000
00000000
,
00100000
00000000
00001000
00000000
,
00010000
00000000
00000010
00000000
,
00001000
00000000
00000010
00000000
,
00000001
00000000
00000100
00000000
,
00001000
00000000
00000100
00000000
,
00010000
00000000
00001000
00000000
,
00100000
00100000
00100000
00000000
,
00010000
01000000
10000000
00000000
,
00100000
00100000
00100000
00000000
,
10000000
01000000
00010000
00000000
,
00100000
00100000
00100000
00000000
,
00001000
00010000
00000100
00000000
,
00001000
00000000
00000010
00000000
,
00000001
00000000
00000100
00000000
,
00000010
00000010
00000010
00000000
,
00000001
00000100
00001000
00000000
,
00000010
00000010
00000010
00000000
,
00001000
00000100
00000001
00000000
,
00000010
00000000
00001000
00000000
,
00000100
00000000
00010000
00000000
,
00001000
00000000
01000000
00000000
,
00100000
10000000
01000000
00000000
,
00100000
00100000
00100000
00000000
,
01000000
01000000
01000000
00000000
,
00001000
00001000
00001000
00000000
,
00010000
00010000
00010000
00000000
,
00000010
00000010
00000100
00000000
,
00000001
00000001
00001000
00000000
,
00000100
00000000
00010000
00000000
,
00001000
00000000
01000000
00000000
,
10010000
00000000
00000000
01000000
00000000
00100000
00000000
00010000
,
00000000
00000000
00000000
00022000
00000000
00000000
00000000
00000000
,
00000000
00000000
00033000
00000000
;

//---------------dance-single - ----------------
#NOTES:
     dance-single:
     :
     Easy:
     4:
     0.273,0.335,0.084,0.196,0.000: // measure 1
0000
0000
0000
0000
,  // measure 2
0000
0000
0000
0000
,  // measure 3
0000
0000
0000
0000
,  // measure 4
0000
0000
0000
0000
,  // measure 5
0000
0000
0000
0000
,  // measure 6
0000
0000
0000
0000
,  // measure 7
0000
0010
0000
0010
,  // measure 8
0000
0100
0000
0100
,  // measure 9
0000
0001
0000
1000
,  // measure 10
0000
0001
0000
1000
,  // measure 11
2002
0000
0000
0000
,  // measure 12
3003
0000
0000
0000
,  // measure 13
0001
0000
0100
0000
,  // measure 14
1000
0000
0010
0000
,  // measure 15
1000
0000
0100
0000
,  // measure 16
0010
0000
0001
0000
,  // measure 17
1000
0000
0100
0000
,  // measure 18
0010
0000
0001
0000
,  // measure 19
1000
0000
0002
0000
,  // measure 20
0003
0000
0000
0000
,  // measure 21
1001
0000
0110
0000
,  // measure 22
0010
0000
1000
0000
,  // measure 23
0100
0000
0001
0000
,  // measure 24
0100
0000
1000
0000
,  // measure 25
1001
0000
0110
0000
,  // measure 26
1000
0000
0001
0000
,  // measure 27
0020
0000
0030
0000
,  // measure 28
0200
0000
0300
0000
,  // measure 29
0001
0000
1000
0000
,  // measure 30
0010
0000
0100
0000
,  // measure 31
1000
0000
0001
0000
,  // measure 32
1000
0000
0100
0000
,  // measure 33
0010
0000
0001
0000
,  // measure 34
1000
0000
0001
0000
,  // measure 35
0020
0000
0000
0000
,  // measure 36
0200
0000
0000
0000
0330
0000
0000
1000
,  // measure 37
0000
0001
0000
1000
0000
0000
0000
0000
,  // measure 38
0001
1000
0000
0010
,  // measure 39
0000
0100
0000
0001
,  // measure 40
0000
1000
1000
1000
,  // measure 41
0000
0001
0001
0001
,  // measure 42
1000
0010
0000
0100
,  // measure 43
0000
0001
0000
1000
,  // measure 44
2000
3000
0002
0003
,  // measure 45
0200
0300
0020
0030
,  // measure 46
1000
0100
1000
0000
,  // measure 47
0001
0100
0001
0000
,  // measure 48
0020
0030
0200
0300
,  // measure 49
0001
0100
1000
0000
,  // measure 50
0200
0300
0020
0030
,  // measure 51
1000
0100
0001
0000
,  // measure 52
0110
0000
1001
0000
,  // measure 53
0010
0010
0010
0000
,  // measure 54
0001
1000
0001
0000
,  // measure 55
1000
0001
1000
0000
,  // measure 56
0010
0100
0010
0100
,  // measure 57
0010
0100
0010
0000
,  // measure 58
2000
3000
0002
0003
,  // measure 59
2000
3000
0002
0003
,  // measure 60
0100
0010
0100
0000
,  // measure 61
0010
0100
0010
0000
,  // measure 62
1000
1000
1000
0000
,  // measure 63
0001
0001
0001
0000
,  // measure 64
0100
0000
0100
0000
,  // measure 65
0010
0000
0010
0000
,  // measure 66
1000
0001
1000
0000
,  // measure 67
0001
1000
0001
0000
,  // measure 68
0100
0000
0010
0000
,  // measure 69
1000
0000
0001
0000
,  // measure 70
1000
1000
1000
1000
,  // measure 71
0001
0001
0001
0001
,  // measure 72
0100
0100
0100
0100
,  // measure 73
0010
0010
0010
0010
,  // measure 74
1000
1000
0001
0001
,  // measure 75
0100
0100
0010
0010
,  // measure 76
1000
0001
0100
0010
,  // measure 77
1000
0100
0010
0000
,  // measure 78
1001
0000
0000
0100
0000
0010
0000
0001
,  // measure 79
0000
0000
0000
2002
0000
0000
0000
0000
,  // measure 80
0000
0000
3003
0000
;

//---------------dance-single - ----------------
#NOTES:
     dance-single:
     :
     Beginner:
     3:
     0.155,0.186,0.019,0.122,0.000: // measure 1
0000
0000
0000
0000
,  // measure 2
0000
0000
0000
0000
,  // measure 3
0000
0000
0000
0000
,  // measure 4
0000
0000
0000
0000
,  // measure 5
0000
0000
0000
0000
,  // measure 6
0000
0000
0000
0000
,  // measure 7
0010
0000
0000
0000
,  // measure 8
0100
0000
0000
0000
,  // measure 9
0001
0000
0000
0000
,  // measure 10
1000
0000
0000
0000
,  // measure 11
0020
0000
0000
0000
,  // measure 12
0030
0000
0000
0000
,  // measure 13
0100
0000
0100
0000
,  // measure 14
0100
0000
0000
0000
,  // measure 15
0010
0000
0010
0000
,  // measure 16
0010
0000
0000
0000
,  // measure 17
1000
0000
0000
0000
,  // measure 18
0001
0000
0000
0000
,  // measure 19
1000
0000
0000
0000
,  // measure 20
0000
0000
0000
0000
,  // measure 21
0010
0000
0010
0000
,  // measure 22
0010
0000
0000
0000
,  // measure 23
0100
0000
0100
0000
,  // measure 24
0100
0000
0000
0000
,  // measure 25
0001
0000
0001
0000
,  // measure 26
1000
0000
1000
0000
,  // measure 27
0002
0000
0003
0000
,  // measure 28
2000
0000
3000
0000
,  // measure 29
0010
0000
0000
0000
,  // measure 30
0100
0000
0000
0000
,  // measure 31
0001
0000
0000
0000
,  // measure 32
1000
0000
0000
0000
,  // measure 33
0010
0000
0010
0000
,  // measure 34
0100
0000
0100
0000
,  // measure 35
0002
0000
0003
0000
,  // measure 36
2000
0000
3000
0000
,  // measure 37
0000
0000
0000
0000
,  // measure 38
0000
0010
0000
0100
,  // measure 39
0000
0010
0000
0100
,  // measure 40
0000
0001
0000
0001
,  // measure 41
0000
1000
0000
1000
,  // measure 42
0000
0010
0000
0100
,  // measure 43
0000
0010
0000
0000
,  // measure 44
2000
0000
3000
0000
,  // measure 45
0002
0000
0003
0000
,  // measure 46
0000
1000
0000
1000
,  // measure 47
0000
0001
0000
0001
,  // measure 48
0000
0100
0000
0100
,  // measure 49
0000
0010
0000
0010
,  // measure 50
0000
1000
0000
0001
,  // measure 51
0000
0100
0000
0000
,  // measure 52
0020
0000
0030
0000
,  // measure 53
0200
0000
0300
0000
,  // measure 54
0001
0000
0000
0000
,  // measure 55
1000
0000
0000
0000
,  // measure 56
0010
0000
0000
0000
,  // measure 57
0100
0000
0000
0000
,  // measure 58
0001
0000
0001
0000
,  // measure 59
1000
0000
1000
0000
,  // measure 60
0010
0000
0010
0000
,  // measure 61
0100
0000
0100
0000
,  // measure 62
0001
0000
0000
0000
,  // measure 63
0010
0000
0000
0000
,  // measure 64
0100
0000
0000
0000
,  // measure 65
1000
0000
0000
0000
,  // measure 66
0001
0000
0010
0000
,  // measure 67
0100
0000
1000
0000
,  // measure 68
0002
0000
0003
0000
,  // measure 69
2000
0000
3000
0000
,  // measure 70
0010
0000
0010
0000
,  // measure 71
0100
0000
0100
0000
,  // measure 72
0001
0000
0001
0000
,  // measure 73
1000
0000
1000
0000
,  // measure 74
0010
0000
0100
0000
,  // measure 75
0001
0000
1000
0000
,  // measure 76
0001
0000
0100
0000
,  // measure 77
0010
0000
0000
0000
,  // measure 78
1001
0000
0000
0000
,  // measure 79
0000
0000
0000
2002
0000
0000
0000
0000
,  // measure 80
0000
0000
3003
0000
;
