#TITLE:おめでとう! おたんじょうび;
#SUBTITLE:;
#ARTIST:ウッチーズ;
#TITLETRANSLIT:Omedetou! Otanjoubi;
#SUBTITLETRANSLIT:;
#ARTISTTRANSLIT:Ucchies;
#GENRE:;
#CREDIT:;
#BANNER:Omedetou! Otanjoubi.png;
#BACKGROUND:Omedetou! Otanjoubi-bg.png;
#LYRICSPATH:;
#CDTITLE:;
#MUSIC:Omedetou! Otanjoubi.ogg;
#OFFSET:-0.016000;
#SAMPLESTART:60.860016;
#SAMPLELENGTH:12.000000;
#SELECTABLE:YES;
#BPMS:0.000000=160.000000
;
#STOPS:
;
#BGCHANGES:;
#KEYSOUNDS:;
#ATTACKS:;

//---------------dance-double - ----------------
#NOTES:
     dance-double:
     :
     Hard:
     13:
     0.659904,0.804906,0.354713,0.249911,0.181387,573.000000,529.000000,44.000000,31.000000,0.000000,0.000000,0.659904,0.804906,0.354713,0.249911,0.181387,573.000000,529.000000,44.000000,31.000000,0.000000,0.000000:
00000000
00000000
00000000
00000000
,
00000000
00000000
00000000
00000000
,
00000000
00000000
00000000
00000000
,
00000000
00000000
00000000
00000000
,
00000000
00000000
00000000
00000000
,
10000000
00100000
01000000
00001000
,
00010000
00000000
00000100
00010000
00000000
00000000
00000100
00000000
,
00001000
00000000
00000001
00000100
00000000
00000001
00001000
00000000
,
00000100
00000000
00000000
00000000
00010000
00000000
00000100
00000000
00000000
00000000
00010000
00000100
00010000
00000000
00000000
00000000
,
00001000
00010000
00001000
00100000
00001000
00010000
00001000
00100000
,
00010000
01000000
00100000
10000000
00000000
00100000
01000000
00010000
,
00100000
00001000
00100000
00010000
00100000
00001000
00100000
00001000
,
00010000
00000100
00001010
00000101
,
00000010
00001000
00000001
00000000
00000010
00000001
00001000
00000000
,
00000100
00000000
00000000
00000101
00000000
00000000
00001100
00000000
00000000
00000000
00000010
00000000
00010000
00000000
00002000
00000000
,
00000000
00000000
00103000
00000000
00010000
00000000
01000000
00010000
01000000
00000000
00100000
10000000
00100000
00000000
10010000
00000000
,
00000000
11000000
11000000
10010000
00000000
02200000
00000000
03300000
,
10010000
00000000
10000000
00100000
01000000
00010000
00100000
00002000
,
00000000
00013000
00000000
00000100
00001000
00000001
00001000
00000100
,
00001000
00000000
00000100
00010000
00001000
00000000
00010000
00001000
,
01000000
00000000
00010000
10000000
00100000
10000000
01000000
01000000
,
01000000
00000000
10000000
00010000
00100000
00010000
10000000
01000000
,
00100000
00000000
00001000
00010000
00001000
00010000
00000100
00001000
,
00000010
00000000
00001000
00000001
00000100
00000010
00001000
00001100
,
00000000
00000011
00000101
00001001
00000000
00000220
00000000
00000330
,
00000001
00000000
00001000
00000000
00000100
00000000
00010000
00000000
00001000
00000000
00010000
00000100
00000000
00000100
00010000
00000000
,
00001000
00000000
01000000
00000000
00010000
00000000
10000000
00000000
00100000
00000000
01000000
00010000
00000000
00010000
01000000
00000000
,
00100000
00000000
10000000
00000000
00010000
00000000
00100000
00000000
00001000
00000000
00010000
00000100
00000000
00000100
00010000
00000000
,
00001000
00000000
00100000
00000000
00010000
00000000
10000000
00000000
01000000
00000000
10000000
00010000
00000000
00010000
10000000
00000000
,
00100000
10000000
00100000
00000000
01000000
00000000
00010000
00000000
00100000
00000000
00001000
00100000
00000000
00100000
00001000
00000000
,
00010000
00000000
00000100
00000000
00001000
00000000
00000001
00000000
00000100
00000000
00000010
00001000
00000000
00001000
00000010
00000000
,
00000100
00000000
00000001
00000000
00001000
00000000
00000001
00000000
00000100
00000000
00000010
00001000
00000000
00001000
00000020
00000000
,
00000000
00001030
00000100
00001100
00000000
00010100
00000000
00010000
,
00011000
00000000
00001000
00100000
00010000
10000000
00010000
00100000
,
00001000
00000000
00010000
00000100
00001100
00000000
00000001
00001000
,
00000000
00000001
00000010
00001000
00000010
00000001
00001000
00001001
,
00000000
00001000
00000100
00010000
00001000
00010000
00000000
00001000
,
00001000
00000000
00100000
00010000
01000000
10000000
01000000
00010000
,
20000000
00000000
00000000
00000000
30010000
00000000
01000000
00010000
01000000
00000000
00100000
00000000
10000000
00000000
11000000
00000000
,
00000000
00000000
00010000
01000000
00010000
00000000
00100000
00001000
00100000
00000000
00001000
00010000
00001000
00000000
00000100
00000000
,
00000000
00001001
00000101
00000000
00000000
00000100
00000010
00002000
,
00000000
00003001
00001000
00000100
00010000
00001000
00010000
00000100
,
00010000
00001000
01000000
00020000
00000000
10030000
00100000
10000000
,
00010000
00100000
00110000
00000000
10000000
01000000
11000000
00000000
,
00010000
01000000
00010000
00000000
10000000
00010000
10000000
00000000
00100000
10000000
00100000
00000000
10000000
00000000
00010000
00000000
,
00100000
00001000
00001000
00000000
00010000
00000010
00000010
00000000
,
00001000
00000100
00000010
00000001
00000000
00001000
00001100
00000000
,
00000001
00000100
00000010
00000000
00001000
00000100
00010000
00001000
,
00011000
00001000
00100000
00110000
00000000
01000000
00010000
20000000
,
00000000
30100000
01000000
00010000
00000000
00100000
00001000
00010000
,
00001000
00100000
00010000
10000000
00000000
00100000
00001000
00010000
,
00000010
00001000
00001100
00000000
00000001
00000100
00000110
00000000
,
00001000
00000100
00001000
00000000
00000010
00001000
00000010
00000000
00001000
00000100
00010000
00000000
00001000
00000000
00100000
00000000
,
00010000
00100000
00010000
00000000
10000000
00100000
10100000
00000000
,
00010000
00100000
00001000
00010000
00000000
00000100
00010000
00001000
,
00000000
00010000
00000010
00001000
00000000
00000010
00001000
00000001
,
00000100
00000010
00001000
00001010
00000000
00001000
00000100
00010000
,
00001000
00000000
00000000
00001000
00100000
00000000
00000000
00100000
00010000
00000000
00000000
00010000
10000000
00000000
00000000
10000000
,
01000000
00000000
00000000
01000000
00100000
00000000
00000000
00100000
00001000
00000000
00000000
00001000
00010000
00000000
00000000
00010000
,
00000100
00000000
00001000
00000001
00001001
00002002
00003003
00000001
,
00001000
00000000
00000100
00001000
00001100
00002200
00003300
00000100
,
00020000
00000000
00031000
00100000
00020000
00000000
01030000
00100000
,
10000000
00100000
10000000
00010000
01000000
00010000
00100000
00001000
,
00020000
00000000
00000100
00030100
00001000
00000020
00000000
00001030
,
00000001
00000000
00000100
00000100
00000001
00002000
00000000
00003100
,
00020000
00000000
00031000
00100000
00010000
01000000
00100000
20000000
,
00000000
30010000
00100000
00010000
01000000
00001000
00010000
00001000
,
00010000
00000000
00000100
00000100
00001000
00002200
00003300
00001000
,
00000001
00000000
00000010
00000010
00000001
00000022
00000033
00000001
,
00000200
00000000
00000301
00002000
00000000
00003100
00010000
00002000
,
00000000
00103000
00010000
01000000
00010000
10000000
00010000
00100000
,
00001000
00000000
00010000
00000000
00000100
00000000
00010000
00001000
00010000
00000000
00000100
00000000
00001000
00000000
00000010
00000000
,
00000100
00000000
00000001
00000000
00000010
00000000
00000001
00001000
00000001
00000000
00001000
00000000
00000100
00000000
00010000
00000000
,
00001000
00000000
01000000
00000000
00010000
00000000
10000000
00010000
10000000
00000000
00100000
00000000
01000000
00000000
00010000
00000000
,
00200000
00001000
00301000
00000000
00020000
00001000
00031000
00010000
,
00000010
00001000
00000010
00000100
00000010
00001000
00000001
00000100
,
00000000
00000010
00001000
00000100
00010000
00000100
00010000
00001000
,
00100000
00000000
00010000
00000000
00100000
00010000
00100000
00000000
10000000
00000000
00010000
00000000
10000000
00010000
10000000
00000000
,
00010000
00000000
01000000
00000000
00100000
10000000
00100000
00000000
01000000
00001000
01000000
00000000
00001000
00010000
00001000
00000000
,
00011000
00010100
00011000
00000000
00101000
01001000
00000000
00011000
;

//---------------dance-single - ----------------
#NOTES:
     dance-single:
     :
     Hard:
     13:
     0.686392,0.708317,0.507884,0.298281,0.197511,596.000000,533.000000,63.000000,37.000000,0.000000,0.000000,0.686392,0.708317,0.507884,0.298281,0.197511,596.000000,533.000000,63.000000,37.000000,0.000000,0.000000:
0000
0000
0000
0000
,
0000
0000
0000
0000
,
0000
0000
0000
0000
,
0000
0000
0000
0000
,
0000
0000
0000
0000
,
0002
0103
2000
3100
,
0001
0100
0010
0100
0000
0001
1000
0000
,
0001
0010
0001
1000
0000
0100
1000
0000
,
0010
0000
1000
0000
0001
0000
1000
0000
0000
0000
0001
1000
0001
0000
0000
0000
,
1010
0000
0000
0000
0001
0000
1000
0000
0010
1000
0010
0000
1000
0000
0001
0000
,
1001
0000
0100
0101
0000
1000
1010
0000
,
0001
0000
0100
0000
0010
0000
1000
0000
0010
1000
0010
0000
0100
0000
0010
0000
,
1000
0001
1001
0000
0001
1000
1001
0000
,
0010
0000
1000
0000
0100
0000
1000
0100
1000
0000
0010
0000
0100
0000
0001
0000
,
1000
0000
0010
1000
0000
0010
2000
0000
0000
0000
3001
0000
0100
0000
0101
0000
,
0000
0000
0010
0000
1000
0010
1000
0000
0001
0100
0001
0000
0100
0000
0110
0000
,
0000
1001
1001
1010
0000
0202
0000
0303
,
1000
0010
1000
0010
0100
0001
0100
0001
,
1000
0100
1000
0100
0010
0001
0010
0001
,
1000
0010
1000
0100
1000
0001
1000
0010
,
0100
0001
0100
0010
0100
0010
1000
0010
,
1000
0100
1000
0010
0001
0010
1000
0100
,
0010
0001
0100
1000
0100
0001
1000
0001
,
1000
0100
1000
0010
0100
0010
1000
1001
,
0000
1010
1010
1001
0000
0101
0000
0000
,
0010
0000
1000
0000
0001
1000
0000
1000
0001
0000
0001
0010
0000
0010
0001
0000
,
0100
0000
0010
0000
1000
0010
0000
0010
1000
0000
1000
0001
0000
0001
0100
0000
,
0001
0000
0100
0000
0010
1000
0000
1000
0010
0000
0010
0100
0000
0100
0010
0000
,
1000
0000
0001
0000
0100
0001
0000
0001
0010
0000
0010
0001
0000
0001
1000
0000
,
1000
0001
1000
0000
0010
0000
0100
0000
0001
0000
1000
0100
0000
0100
1000
0000
,
0001
1000
0001
0000
1000
0000
0010
0000
0100
0000
0001
0100
0000
0100
0010
0000
,
1000
0000
0010
0000
1000
0010
0000
1000
0001
0000
1000
0010
0000
1000
0002
0000
,
0000
0103
0101
0101
0000
2002
0000
3003
,
0010
0000
1000
0100
0001
0100
1000
1010
,
0000
0001
0010
0011
0000
0100
0010
1010
,
0000
0001
1000
0010
1000
0010
1000
1100
,
0000
0100
0001
2002
0000
3003
1000
0000
,
0001
0000
1000
0001
0010
0001
1000
1001
,
0000
1000
0100
1100
0000
0001
0100
0101
,
0000
0010
1000
0001
1000
0100
1100
1100
,
0000
0101
1001
0000
0000
0001
1000
1002
,
0000
0103
0010
1010
0000
0100
0001
0020
,
0000
0031
0100
0020
0000
1030
0100
0010
,
0001
1000
0010
1000
0001
1000
0100
1000
,
0010
1000
0010
0000
0100
0001
0100
0000
0010
1000
0100
0000
1000
0000
0001
0000
,
2000
0100
3100
0000
0002
0010
0013
0000
,
0100
0010
1000
1001
0000
0010
0001
0100
,
0001
1000
1001
0000
0010
1000
0100
1000
,
0010
1000
0100
0110
0000
0100
0010
0120
,
0000
1030
0001
1001
0000
1000
0100
2100
,
0000
3010
0100
0002
0000
0013
0001
0100
,
0010
1000
0010
1000
0001
0010
0100
1000
,
0001
0100
0001
0000
1000
0010
1000
0000
0001
0100
0010
0000
1000
0000
0010
0000
,
1000
0100
0010
0001
0100
0010
1000
0010
,
0100
0001
0010
0011
0000
1000
0001
0101
,
0000
0001
1000
0010
0100
0010
1000
0000
,
0002
0000
0103
0020
0000
1030
0010
0100
,
0001
0000
0000
0001
1000
0000
0000
1000
0010
0000
0000
0010
0100
0000
0000
0100
,
0001
0000
0000
0001
1000
0000
0000
1000
0010
0000
0000
0000
0110
0000
0000
0000
,
0011
0000
1000
0001
0101
0102
0000
1003
,
0001
0000
0010
1000
1010
2010
0000
3010
,
0200
0000
0301
0100
2000
0000
3100
0001
,
2000
0000
3010
0100
0001
1000
1000
0001
,
1000
0000
0001
0100
0101
0102
0000
0013
,
0001
0000
1000
1001
0000
1001
0000
1000
,
0020
0000
0130
0001
2000
0000
3001
0010
,
0002
0000
0103
0010
1000
0010
0100
0001
,
1000
0000
0010
0010
0110
0110
0000
0001
,
1000
0000
0100
0100
0110
0110
0000
1000
,
0002
0000
0103
0010
2000
0000
3001
0010
,
0200
0000
1300
0100
0001
0100
1000
0010
,
0100
0001
1000
0010
0010
0020
1000
1030
,
0002
0000
1003
0100
0020
0000
0031
0100
,
0010
1000
0010
1000
0001
0100
0001
0100
,
0020
0000
1030
0100
0002
0000
1003
0010
,
0001
0100
0001
0100
0010
1000
0010
1010
,
0000
0010
0100
0110
0000
0001
1000
0010
,
0100
0000
0001
0100
0001
0000
1000
0000
0010
0000
1000
0010
1000
0000
0010
0000
,
0100
0000
0001
1000
0001
0000
0100
0000
0010
0000
1000
0000
0001
0000
0000
0000
,
0101
0101
1001
0000
0000
1010
0000
1001
;

//---------------dance-double - ----------------
#NOTES:
     dance-double:
     :
     Medium:
     9:
     0.405386,0.450747,0.040308,0.322466,0.000000,352.000000,347.000000,5.000000,40.000000,0.000000,0.000000,0.405386,0.450747,0.040308,0.322466,0.000000,352.000000,347.000000,5.000000,40.000000,0.000000,0.000000:
00000000
00000000
00000000
00000000
,
00000000
00000000
00000000
00000000
,
00000000
00000000
00000000
00000000
,
00000000
00000000
00000000
00000000
,
00000000
00000000
00000000
00000000
,
00100000
00000000
00010000
00000000
,
01000000
00000000
00000000
01000000
00000000
00000000
00000000
00000000
,
00100000
00000000
00000000
10000000
00000000
00000000
00000000
00000000
,
00010000
00000000
00100000
00000000
,
00001000
00001000
00010000
00001000
,
00010000
00000100
00001000
00000001
,
00001000
00001000
00000100
00010000
,
00001000
00001000
00100000
00010000
,
01000000
00100000
01000000
00000000
00100000
01000000
00100000
00000000
,
10000000
00000000
00010000
00100000
00000000
00001000
00010000
00001000
,
00000000
00000000
00010000
00000000
00000100
00000000
00001000
00000010
,
00000000
00000010
00000010
00000010
00000000
00001001
00000000
00000000
,
00000000
00000000
00000001
00001000
00000001
00001000
00000010
00000100
,
00000000
00001000
00000000
00001000
00000100
00001000
00000100
00020000
,
00000000
00000000
00031000
00200000
00000000
00000000
00310000
02000000
,
00000000
00000000
03100000
00000000
10000000
00010000
01000000
00020000
,
00000000
00000000
10030000
00100000
00000000
00100000
10000000
00100000
,
00000000
01000000
00010000
00100000
00000000
00000000
00000000
00100000
,
00001000
00100000
00001000
00010000
00001000
00010000
00000100
00001000
,
00000000
00000010
00000010
00000010
00000000
00001001
00000000
00000000
,
00000010
00000000
00001000
00000010
00001000
00000001
00001000
00000100
,
00000000
00010000
00000000
00001000
00100000
00001000
00100000
00010000
,
00000000
00010000
01000000
00100000
00000000
00100000
10000000
00200000
,
00000000
00000000
00300000
00000000
01000000
00010000
00100000
00020000
,
00000000
00000000
01030000
01000000
00000000
00010000
00100000
00010000
,
00000000
00100000
00001000
00020000
00000000
00000000
00030100
00001000
,
00000000
00001000
00000010
00000000
00000010
00000100
00000010
00000001
,
00000000
00001000
00001000
00001000
00000000
00001100
00000000
00000000
,
00000100
00000000
00010000
00001000
00010000
00001000
00010000
00000100
,
00010000
00000000
00001000
00010000
00000000
00001000
00100000
00010000
,
00000000
00010000
00100000
00010000
01000000
00010000
10000000
00010000
,
00000000
00100000
00100000
00200000
00000000
00000000
00310000
00000000
,
10000000
00000000
00010000
00100000
00010000
00100000
00001000
00200000
,
00000000
00000000
00301000
00010000
00000000
00000100
00001000
00000001
,
00000000
00000100
00000200
00000000
00000000
00000310
00000010
00000200
,
00000000
00000010
00000310
00000000
00000000
00001000
00000100
00002000
,
00000000
00000000
00000000
00003100
00000000
00010000
00000000
00002000
,
00000000
00000000
00100000
00103000
00000000
00010000
01000000
00010000
,
00000000
10000000
00100000
10000000
00000000
00010000
00000000
00100000
,
00000000
00001000
00010000
00002000
00000000
00000000
00013000
00000000
,
00000000
00010000
00010000
00000100
00010000
00010000
00001000
00002000
,
00000000
00000000
00013000
00000010
00000000
00001000
00000001
00000100
,
00000000
00000010
00000010
00000000
00000000
00000001
00000100
00000010
,
00000000
00001000
00000100
00001000
00000000
00000100
00010000
00020000
,
00000000
00000000
00000000
00031000
00000000
00100000
00000000
00020000
,
00000000
00000000
01030000
00200000
00000000
10300000
00100000
10000000
,
00000000
00010000
00100000
00010000
00000000
00100000
00001000
00001000
,
00000000
00010000
00000100
00020000
00000000
00000000
00030000
00000000
,
00000000
00000100
00001000
00000010
00001000
00000100
00000000
00002000
,
00000000
00000000
00003001
00001000
00000000
00000010
00001000
00000200
,
00000000
00000000
00000300
00000000
00000000
00010000
00001000
00010000
,
00000000
00000000
00001000
00100000
00000000
00010000
01000000
00100000
,
20000000
00010000
00010000
30010000
,
00200000
00301000
00020000
00031000
,
00000000
00000000
00010000
00000100
00010000
00000100
00000000
00000000
,
00001000
00000000
00000001
00000100
00000001
00000100
00000000
00000010
,
00002000
00000000
00000000
00003200
00000000
00000000
00000000
00020300
,
00000000
00001000
00001000
00031000
,
00001000
00000000
00100000
00010000
00100000
00010000
00000000
00000000
,
01000000
00000000
00100000
10000000
00100000
20000000
00000000
00000000
,
30020000
00000000
00000000
00230000
00000000
00000000
00000000
00302000
,
00000000
00010000
00010000
00013000
,
00000100
00000000
00001000
00000010
00000100
00000001
00000000
00000000
,
00001000
00000000
00000100
00010000
00001000
00100000
00000000
00010000
,
01000000
00000000
00100000
10000000
00000000
00010000
00100000
02000000
,
00000000
00100000
00010000
03100000
,
00010000
00000000
10000000
00100000
10000000
00100000
00000000
01000000
,
00020000
00230000
00302000
00023000
,
00030020
00000000
00001000
00000000
00001000
00000000
00001030
00000001
,
00000200
00000000
00000000
00000000
00000320
00000000
00000000
00001000
,
00002030
00000000
00000100
00000000
00000000
00000000
00000000
00000010
,
00000000
00000010
00000000
00003100
,
00010000
00001000
00100000
00010000
,
01000000
00100000
10000000
00010000
,
00100000
00100000
00100000
00000000
00000000
00011000
00000000
00011000
;

//---------------dance-single - ----------------
#NOTES:
     dance-single:
     :
     Medium:
     9:
     0.405386,0.450747,0.040308,0.354713,0.000000,352.000000,347.000000,5.000000,44.000000,0.000000,0.000000,0.405386,0.450747,0.040308,0.354713,0.000000,352.000000,347.000000,5.000000,44.000000,0.000000,0.000000:
0000
0000
0000
0000
,
0000
0000
0000
0000
,
0000
0000
0000
0000
,
0000
0000
0000
0000
,
0000
0000
0000
0000
,
0010
0000
0001
0000
,
0100
0000
0000
0100
0000
0000
0000
0000
,
0010
0000
0000
1000
0000
0000
0000
0000
,
0001
0000
0100
0000
,
0001
1000
0001
1000
,
0001
0010
0100
1000
,
0001
1000
0001
1000
,
0001
0010
0100
1000
,
0010
0100
0010
0000
0100
0010
0100
0000
,
0001
0000
1000
0100
0000
0010
0001
0010
,
0000
0000
0001
0000
0100
0000
0010
1000
,
0000
0010
0010
0010
0000
1001
0000
0000
,
0000
0000
0001
1000
0001
1000
0010
0100
,
0000
1000
0000
0001
1000
0001
1000
0002
,
0000
0000
1003
0020
0000
0000
1030
0200
,
0000
0000
0310
0000
0001
1000
0001
2000
,
0000
3001
0010
0001
0000
1000
0010
1000
,
0000
0010
0100
0002
0000
0000
0003
1000
,
0001
1000
0001
1000
0001
0000
1000
0010
,
0000
0100
0100
0100
0000
1001
0000
0000
,
0010
0000
0001
0100
0001
1000
0001
0010
,
0000
0010
0000
0001
0010
0001
0100
0001
,
0000
0001
0100
0010
0000
0010
1000
0020
,
0000
0000
0030
0000
0100
0001
0010
0002
,
0000
0000
0103
0100
0000
0001
0010
0001
,
0000
0010
0001
2000
0000
0000
3010
0100
,
0000
0100
0001
0000
1000
0010
0100
0010
,
0000
0100
0100
0100
0000
2002
0000
3003
,
0010
0000
0001
1000
0001
1000
0001
2000
,
0000
0000
3001
0100
0000
0100
0001
0100
,
0000
0001
0010
0001
0010
0001
0010
0001
,
0000
0010
0010
0020
0000
0000
0031
0000
,
1000
0000
0001
0010
0001
0010
0001
0020
,
0000
0000
0031
0001
0000
0100
0001
1000
,
0000
0010
0020
0000
0000
0100
0100
0230
,
0000
0010
0310
0000
0000
0001
1000
0020
,
0000
0000
0000
0130
0000
0001
0000
2000
,
0000
0000
0010
3010
0000
0001
0100
0001
,
0000
1000
0010
1000
0000
0001
0000
0010
,
0000
0001
1000
0002
0000
0000
1003
0000
,
0000
0001
0100
0001
0100
0001
0100
0002
,
0000
0000
1003
0001
0000
1000
0001
0100
,
0000
0010
0010
0000
0000
1000
0001
0010
,
0000
0001
1000
0001
0000
0100
0001
0002
,
0000
0000
0000
1003
0000
0010
0000
0200
,
0000
0000
0001
0302
0000
0103
0001
0100
,
0000
0001
1000
0001
0000
0010
0001
1000
,
0000
0001
1000
0002
0000
0000
0003
0000
,
0000
0100
0010
0100
0010
0100
0000
0002
,
0000
0000
1003
0001
0000
1000
0010
0200
,
0000
0000
0300
0000
0000
0001
0100
0001
,
0000
0000
0100
0010
0000
1000
0010
0100
,
0002
1000
1000
1003
,
0020
0031
2000
3001
,
1000
0000
0001
1000
0001
1000
0000
0000
,
0001
0000
0100
0001
0100
0001
0000
0100
,
0020
0000
0000
2030
0000
0000
0000
3002
,
0000
1000
1000
1003
,
1000
0000
0001
0100
0001
0100
0000
0000
,
0010
0000
1000
0010
1000
0020
0000
0000
,
2030
0000
0000
3020
0000
0000
0000
0230
,
0000
0001
0001
0301
,
0001
0000
0100
0010
0100
0010
0000
0000
,
1000
0000
0001
0100
0001
0100
0000
0001
,
0100
0000
0010
1000
0000
0001
0010
0200
,
0000
0010
0001
0310
,
0001
0000
1000
0010
1000
0010
0000
0100
,
0002
0023
0230
2300
,
3020
0000
0100
0000
0100
0000
0130
0001
,
2000
0000
0000
0000
3002
0000
0000
0010
,
0023
0000
0001
0000
0000
0000
0000
0001
,
0000
0001
0000
0031
,
0001
0100
0010
1000
,
0010
0100
0001
1000
,
0010
0010
0010
0000
0000
1001
0000
1001
;

//---------------dance-double - ----------------
#NOTES:
     dance-double:
     :
     Easy:
     4:
     0.192328,0.289766,0.120925,0.257973,0.000000,167.000000,152.000000,15.000000,32.000000,0.000000,0.000000,0.192328,0.289766,0.120925,0.257973,0.000000,167.000000,152.000000,15.000000,32.000000,0.000000,0.000000:
00000000
00000000
00000000
00000000
,
00000000
00000000
00000000
00000000
,
00000000
00000000
00000000
00000000
,
00000000
00000000
00000000
00000000
,
00000000
00000000
00000000
00000000
,
00100000
00000000
00000000
00000000
,
00010000
00000000
00000000
00000000
,
00001000
00000000
00000000
00000000
,
00000010
00000000
00000000
00000000
,
00000001
00000000
00000100
00000000
,
00000001
00000000
00001000
00000000
,
00000100
00000000
00010000
00000000
,
00001000
00000000
01000000
00000000
,
00010000
00000000
10000000
00000000
,
00010000
00000000
00000000
00100000
00000000
00000000
00000000
00000000
,
00010000
00000000
00000000
00000000
01000000
00000000
00000000
00100000
,
00000000
00100000
00000000
00100000
00000000
10010000
00000000
00000000
,
00100000
00000000
00010000
00000000
,
01000000
00000000
10000000
00000000
,
00100000
00000000
00001000
00000000
,
00010000
00000000
00000010
00000000
,
00001000
00000000
00000100
00000000
,
00000001
00000000
00000100
00000000
,
00001000
00000000
00000000
00000000
00000100
00000000
00000000
00010000
,
00000000
00001000
00000000
00010000
00000000
00011000
00000000
00000000
,
00010000
00000000
00001000
00000000
,
01000000
00000000
00010000
00000000
,
10000000
00000000
01000000
00000000
,
00010000
00000000
00100000
00000000
,
00001000
00000000
00010000
00000000
,
00000010
00000000
00001000
00000000
,
00000001
00000000
00000000
00000000
00000100
00000000
00000000
00000010
,
00000000
00000010
00000000
00000100
00000000
00001001
00000000
00000000
,
00000001
00000000
00001001
00000000
,
00001000
00000000
00011000
00000000
,
00010000
00000000
10010000
00000000
,
10000000
00000000
10010000
00000000
,
00010000
00000000
00011000
00000000
,
00001000
00000000
00001001
00000000
,
00000010
00000000
00000100
00000000
,
00002002
00003003
00000000
00000000
,
00002000
00000000
00003000
00000000
,
00020000
00000000
00030000
00000000
,
01000000
00100000
01000000
00000000
,
00100000
01000000
00100000
00000000
,
00200000
00300000
00002000
00003000
,
00020000
00030000
00000020
00000030
,
00000100
00000100
00000100
00000000
,
00000001
00000000
00001001
00000000
,
00002000
00000000
00003000
00000000
,
00020000
00000000
00030000
00000000
,
00100000
01000000
00100000
00000000
,
01000000
00100000
01000000
00000000
,
00200000
00300000
00020000
00030000
,
20000000
30000000
00020000
00030000
,
00010000
00000000
00100000
00000000
,
00001000
00000000
00010000
00000000
,
00000020
00000000
00000000
00000000
,
00002030
00000000
00003200
00000000
,
00010300
00000000
00010000
00000000
,
00001000
00000000
00001000
00000000
,
00200000
00000000
00320000
00000000
,
02030000
00000000
03000000
00000000
,
00100000
00000000
00100000
00000000
,
10000000
00000000
10000000
00000000
,
00200000
00000000
02300000
00000000
,
03002000
00000000
00023000
00000000
,
00030010
00000100
00000100
00000100
,
00000010
00001000
00001000
00001000
,
00000200
00000000
00020300
00000000
,
00032000
00000000
00203000
00000000
,
00310000
00000000
10000000
00000000
,
00010000
00000000
00100000
00000000
,
20020000
00000000
30030000
00000000
,
00100000
00000000
00001000
00000000
,
00022000
00000000
00000000
00000000
,
00000000
00000000
00033000
00000000
,
00010000
00000000
00000100
00000000
,
00001000
00000000
00100000
00000000
,
00010000
00000000
00001000
00000000
00000000
00011000
00000000
00011000
;

//---------------dance-single - ----------------
#NOTES:
     dance-single:
     :
     Easy:
     4:
     0.177356,0.321962,0.128986,0.266035,0.000000,154.000000,138.000000,16.000000,33.000000,0.000000,0.000000,0.177356,0.321962,0.128986,0.266035,0.000000,154.000000,138.000000,16.000000,33.000000,0.000000,0.000000:
0000
0000
0000
0000
,
0000
0000
0000
0000
,
0000
0000
0000
0000
,
0000
0000
0000
0000
,
0000
0000
0000
0000
,
0010
0000
0000
0000
,
0001
0000
0000
0000
,
0100
0000
0000
0000
,
1000
0000
0000
0000
,
0010
0000
0010
0000
,
0100
0000
0100
0000
,
0001
0000
0001
0000
,
1000
0000
1000
0000
,
0001
0000
1000
0000
,
0001
0000
0000
0001
0000
0000
0000
0000
,
1000
0000
0000
0000
0000
0000
0000
0010
,
0000
0010
0000
0010
0000
0010
0000
0000
,
0010
0000
0000
0000
,
0100
0000
0000
0000
,
0001
0000
0000
0000
,
1000
0000
0000
0000
,
0001
0000
0100
0000
,
1000
0000
0100
0000
,
0001
0000
0000
0000
1000
0000
0000
0001
,
0000
0001
0000
0001
0000
0001
0000
0000
,
0001
0000
0100
0000
,
1000
0000
0100
0000
,
0001
0000
0010
0000
,
1000
0000
0010
0000
,
0001
0000
0010
0000
,
0100
0000
1000
0000
,
0001
0000
0000
0000
0100
0000
0000
0010
,
0000
0010
0000
0010
0000
0010
0000
0000
,
0001
0000
1001
0000
,
1000
0000
1001
0000
,
0001
0000
1001
0000
,
1000
0000
1001
0000
,
0100
0000
0110
0000
,
0010
0000
0110
0000
,
0001
0000
1001
0000
,
2002
3003
0000
0000
,
0020
0000
0030
0000
,
0200
0000
0300
0000
,
0010
0010
0010
0000
,
0100
0100
0100
0000
,
0002
0003
0020
0030
,
0200
0300
2000
3000
,
1000
0001
1000
0000
,
0001
0000
1001
0000
,
0020
0000
0030
0000
,
0200
0000
0300
0000
,
0100
0100
0100
0000
,
0010
0010
0010
0000
,
2000
3000
0002
0003
,
2000
3000
0002
0003
,
0010
0000
0010
0000
,
0100
0000
0010
0000
,
2002
0000
3003
0000
,
0010
0000
0100
0000
,
0002
0000
0003
0000
,
2000
0000
3000
0000
,
0020
0000
0230
0000
,
0320
0000
0030
0000
,
0002
0000
0003
0000
,
2000
0000
3000
0000
,
0020
0000
0230
0000
,
0320
0000
0030
0000
,
0000
1000
1000
0000
,
0000
0001
0001
0000
,
2000
0000
3002
0000
,
2003
0000
3000
0000
,
0001
1000
0001
0000
,
0100
0000
0010
0000
,
2002
0000
3003
0000
,
0010
0000
0100
0000
,
2002
0000
0000
0000
,
0000
0000
3003
0000
,
0001
0000
0010
0000
,
0100
0000
1000
0000
,
1001
0000
1001
0000
0000
1001
0000
1001
;

//---------------dance-single - ----------------
#NOTES:
     dance-single:
     :
     Beginner:
     1:
     0.097892,0.160981,0.016123,0.032247,0.000000,85.000000,83.000000,2.000000,4.000000,0.000000,0.000000,0.097892,0.160981,0.016123,0.032247,0.000000,85.000000,83.000000,2.000000,4.000000,0.000000,0.000000:
// measure 0
0000
0000
0000
0000
,  // measure 1
0000
0000
0000
0000
,  // measure 2
0000
0000
0000
0000
,  // measure 3
0000
0000
0000
0000
,  // measure 4
0000
0000
0000
0000
,  // measure 5
0010
0000
0000
0000
,  // measure 6
0001
0000
0000
0000
,  // measure 7
0100
0000
0000
0000
,  // measure 8
1000
0000
0000
0000
,  // measure 9
0010
0000
0000
0000
,  // measure 10
0100
0000
0000
0000
,  // measure 11
0001
0000
0000
0000
,  // measure 12
1000
0000
0000
0000
,  // measure 13
0001
0000
0000
0000
,  // measure 14
0001
0000
0000
0000
,  // measure 15
1000
0000
0000
0000
0000
0000
0000
0020
,  // measure 16
0000
0000
0000
0000
0000
0030
0000
0000
,  // measure 17
0010
0000
0000
0000
,  // measure 18
0100
0000
0000
0000
,  // measure 19
0001
0000
0000
0000
,  // measure 20
1000
0000
0000
0000
,  // measure 21
0001
0000
0000
0000
,  // measure 22
1000
0000
0000
0000
,  // measure 23
0001
0000
0000
0000
0000
0000
0000
0002
,  // measure 24
0000
0000
0000
0000
0000
0003
0000
0000
,  // measure 25
0001
0000
0000
0000
,  // measure 26
1000
0000
0000
0000
,  // measure 27
0001
0000
0000
0000
,  // measure 28
1000
0000
0000
0000
,  // measure 29
0001
0000
0000
0000
,  // measure 30
0010
0000
0000
0000
,  // measure 31
0100
0000
0000
0000
0000
0000
0000
2000
,  // measure 32
0000
0000
0000
0000
0000
3000
0000
0000
,  // measure 33
1000
0000
0000
0000
,  // measure 34
0001
0000
0000
0000
,  // measure 35
1000
0000
0000
0000
,  // measure 36
0001
0000
0000
0000
,  // measure 37
0100
0000
0000
0000
,  // measure 38
0010
0000
0000
0000
,  // measure 39
0100
0000
0000
0000
,  // measure 40
1001
0000
0000
0000
,  // measure 41
0010
0000
0000
0000
,  // measure 42
0100
0000
0000
0000
,  // measure 43
0010
0000
0000
0000
,  // measure 44
0100
0000
0000
0000
,  // measure 45
0001
0000
0001
0000
,  // measure 46
0001
0000
0000
0000
,  // measure 47
1000
0000
1000
0000
,  // measure 48
1000
0000
0000
0000
,  // measure 49
0010
0000
0000
0000
,  // measure 50
0100
0000
0000
0000
,  // measure 51
0001
0000
0000
0000
,  // measure 52
1000
0000
0000
0000
,  // measure 53
0001
0000
0001
0000
,  // measure 54
0001
0000
0000
0000
,  // measure 55
1000
0000
0000
0000
,  // measure 56
1000
0000
0000
0000
,  // measure 57
1001
0000
0000
0000
,  // measure 58
0010
0000
0010
0000
,  // measure 59
0010
0000
0000
0000
,  // measure 60
0100
0000
0000
0000
,  // measure 61
0010
0000
0000
0000
,  // measure 62
0100
0000
0000
0000
,  // measure 63
0001
0000
0000
0000
,  // measure 64
1000
0000
0000
0000
,  // measure 65
0001
0000
0000
0000
,  // measure 66
1000
0000
0000
0000
,  // measure 67
0000
1000
1000
0000
,  // measure 68
0000
0001
0001
0000
,  // measure 69
1000
0000
1000
0000
,  // measure 70
1000
0000
0000
0000
,  // measure 71
0001
0000
0000
0000
,  // measure 72
0100
0000
0000
0000
,  // measure 73
1000
0000
0000
0000
,  // measure 74
0010
0000
0010
0000
,  // measure 75
0020
0000
0000
0000
,  // measure 76
0000
0000
0000
0000
,  // measure 77
0030
0000
0000
0000
,  // measure 78
0000
0000
0000
0000
,  // measure 79
1000
0000
1000
0000
0000
1000
0000
1000
;
