#TITLE:Oh Mama;
#SUBTITLE:;
#ARTIST:Run the Jewels;
#TITLETRANSLIT:;
#SUBTITLETRANSLIT:;
#ARTISTTRANSLIT:;
#GENRE:;
#CREDIT:;
#MENUCOLOR:;
#METERTYPE:DDR;
#BANNER:Oh Mama.png;
#BACKGROUND:Oh Mama-bg.png;
#LYRICSPATH:;
#CDTITLE:;
#MUSIC:Oh Mama.ogg;
#OFFSET:-0.120;
#SAMPLESTART:63.260;
#SAMPLELENGTH:12.000;
#SELECTABLE:YES;
#LISTSORT:;
#BPMS:0.000=76.000,98.000=78.000,99.167=76.000;
#DISPLAYBPM:76.000;
#STOPS:;
#BGCHANGES:0.000=Oh Mama.avi=1.000=0=0=0,
99999=-nosongbg-=1.000=0=0=0 // don't automatically add -songbackground-
;
#ATTACKS:;

//---------------dance-single - ----------------
#NOTES:
     dance-single:
     :
     Hard:
     10:
     0.426,0.406,0.125,0.167,0.435: // measure 1
0000
0000
0000
0000
,  // measure 2
0000
0000
0000
0000
,  // measure 3
0000
0000
0000
0000
,  // measure 4
0000
0000
0000
0000
,  // measure 5
0010
1000
0001
1000
0010
1000
0100
0010
,  // measure 6
0001
0100
0001
0100
0010
1000
0001
0100
,  // measure 7
0010
0010
1000
1000
0001
0100
0010
1000
,  // measure 8
0010
0010
0100
0100
0001
1000
0100
0000
,  // measure 9
1001
0000
1000
0000
0010
0000
1000
0010
0000
0010
1000
0000
0001
0000
0100
0000
,  // measure 10
0010
0000
0100
0000
0001
0000
1000
0001
0000
0001
1000
0000
0010
0100
0010
0000
,  // measure 11
1000
0000
0100
0000
0010
0000
0001
0100
0000
0100
0001
0000
0010
0000
1000
0000
,  // measure 12
0100
0000
1000
0000
0010
0000
0100
0001
0000
0001
0010
0000
0001
1000
0001
0000
,  // measure 13
0000
0010
1000
0010
1000
0100
0000
1000
0010
0000
0100
0000
0001
1000
0001
0000
,  // measure 14
0000
0100
0001
0100
0001
1000
0000
0010
0000
1000
0100
0000
0010
1000
0010
0000
,  // measure 15
1000
0000
1000
0000
0001
0100
0001
0000
1000
0000
1000
0000
0010
0100
0010
0000
,  // measure 16
1000
0000
0001
0000
1000
0001
0100
0000
0001
0000
1000
0000
0001
0010
0100
1000
,  // measure 17
0010
0000
0110
0000
1001
0000
0010
1000
0000
0010
0100
0010
1000
0000
0001
0100
,  // measure 18
0010
0000
1000
0000
0001
0000
1000
0001
0000
1000
0010
0000
0100
0001
1000
0001
,  // measure 19
0100
0000
0010
1000
0100
0000
1000
0001
0000
1000
0010
0100
0001
0000
0001
1000
,  // measure 20
0100
0000
1000
0010
1000
0010
1000
0001
0000
0001
0100
0001
0100
0000
0010
1000
,  // measure 21
0200
0000
0000
0000
0320
0000
0000
0000
1030
0001
1000
0001
0100
0010
0100
0010
,  // measure 22
1000
0000
0001
0000
1000
0001
0000
1000
0000
0010
0100
0010
1000
0010
0100
0001
,  // measure 23
1000
0000
0000
0000
0001
0100
0000
0010
0000
1000
0010
1000
0010
0100
0001
0100
,  // measure 24
0001
0000
0100
0000
0010
0100
0000
0010
0000
1000
0001
0000
1000
0100
0010
0001
,  // measure 25
0100
0000
0010
0000
1000
0000
0001
0000
1000
0100
1000
0100
0010
0001
0010
0001
,  // measure 26
0100
0000
0100
0000
0010
0000
0010
0000
1000
0010
1000
0010
0100
0001
0100
0001
,  // measure 27
1000
0000
1000
0000
0001
0000
0001
0000
1000
0001
1000
0001
0100
0010
0100
0010
,  // measure 28
1000
0000
1000
0000
0001
0000
0001
0000
0010
0001
0010
0001
1000
0100
1000
0100
,  // measure 29
1000
0000
0001
0000
2002
0000
3003
0010
0000
0010
0100
0000
2002
0000
0000
3003
,  // measure 30
0100
0000
0100
0000
2002
0000
3003
0010
0000
0010
0100
0000
2002
0000
0000
3003
,  // measure 31
0010
0000
0010
0000
1000
0100
0010
0001
0000
0100
0010
0000
1000
0010
0100
0001
,  // measure 32
1000
0000
1000
0000
0001
0100
0010
1000
0000
0010
0100
0000
0001
1000
0010
0100
,  // measure 33
0001
1000
0220
0330
1000
0001
0220
0330
,  // measure 34
0001
1000
0022
0033
0001
1000
2200
3300
,  // measure 35
0101
0000
1001
0000
0010
0100
0001
1000
0000
0010
0100
0000
1000
0100
0010
0001
,  // measure 36
0100
0000
0110
0000
0001
1000
0010
0100
0000
0001
1000
0000
2002
0000
0000
0000
,  // measure 37
3003
0000
0000
0000
;

//---------------dance-double - ----------------
#NOTES:
     dance-double:
     :
     Hard:
     10:
     0.369,0.376,0.075,0.167,0.196:
00000000
00000000
00000000
00000000
,
00000000
00000000
00000000
00000000
,
00000000
00000000
00000000
00000000
,
00000000
00000000
00000000
00000000
,
01000000
10000000
00100000
01000000
00010000
01000000
00001000
00010000
,
00000100
00001000
00000001
00000100
00000010
00010000
00001000
01000000
,
00010000
10000000
01000000
00100000
00001000
00010000
00000010
00010000
,
00001000
01000000
00010000
00100000
00001000
00010000
00000010
00000100
,
00000001
00001000
00000100
00010000
00001000
01000000
00010000
10000000
,
00010000
00000000
01000000
00000000
00001000
00000000
00100000
00000000
00001000
00000000
00010000
00000000
00000100
00000000
00001000
00000010
,
00001000
00000000
00000100
00000000
00010000
00000000
00001000
00000000
01000000
00000000
00100000
00000000
10000000
00010000
10000000
00000000
,
00010000
00100000
10000000
00100000
00001000
00010000
00000010
00001000
,
00000001
00000000
00000100
00000000
00000010
00000100
00001000
00000000
00000100
00000000
00010000
00000000
00001000
00100000
00010000
00000000
,
01000000
00000000
00100000
00000000
10000000
01000000
00100000
00000000
00001000
00000000
00010000
00000000
00000100
00001000
00000001
00000000
,
00000010
00000000
00001000
00000000
00000100
00010000
00001000
00000000
00100000
00000000
00010000
00000000
10000000
00100000
01000000
00000000
,
00010000
00000000
10000000
00000000
00010000
00000000
01000000
00000000
00001000
00000000
00010000
00000000
00000010
00001000
00000100
00000000
,
00010000
00001000
00100000
00010000
10000000
00010000
01000000
00001000
,
00010000
00000010
00001000
00000100
00001000
00000001
00001000
00000100
,
00010000
00001000
01000000
00010000
10000000
01000000
00010000
00001000
,
00000100
00000000
00000001
00000000
00000100
00000000
00001000
00000000
00000010
00000000
00010000
00000000
00001000
00100000
00010000
00000000
,
02000000
00000000
00000000
00000000
03200000
00000000
00000000
00000000
00300000
10000000
00100000
10000000
00010000
01000000
00010000
00000000
,
00100000
00000000
00001000
00000000
00010000
00000000
00000010
00000000
00000000
00000100
00000001
00000100
00000010
00001000
00000010
00000000
,
00000100
00000000
00010000
00000000
00001000
00000000
01000000
00000000
00000000
00010000
10000000
00100000
10000000
00010000
10000000
00000000
,
00100000
00000000
00001000
00000000
00010000
00000000
00000010
00000000
00000000
00000100
00000001
00001000
00000001
00000000
00001000
00000000
,
00000100
00000000
00010000
00000000
00001000
00000000
01000000
00000000
00000000
00010000
10000000
01000000
10000000
00010000
01000000
00000000
,
00100000
00000000
00001000
00000000
00000100
00000000
00000010
00000000
00000000
00000001
00001000
00000100
00001000
00000000
00000010
00000000
,
00010000
00000000
00001000
00000000
00100000
00000000
00010000
00000000
00000000
01000000
00100000
10000000
00100000
01000000
00100000
00000000
,
10000000
00000000
00100000
00000000
01000000
00000000
00001000
00000000
00000000
00010000
00001000
00010000
00000100
00001000
00000010
00000000
,
00000100
00001000
00022000
00033000
00100000
01000000
20020000
30030000
,
00100000
00001000
00022000
00033000
00000100
00000010
00000022
00000033
,
00000100
00000000
00000100
00000000
00000010
00001000
00000100
00001000
00000000
00010000
00001000
00000000
00100000
00010000
01000000
00000000
,
00100000
00000000
00100000
00000000
10000000
00010000
00100000
00001000
00000000
00010000
00000010
00000000
00001000
00000100
00000010
00000001
,
00000100
00000100
00002200
00003300
00010000
00010000
00202000
00303000
,
01000000
01000000
20020000
30030000
00100000
00100000
00022000
00033000
,
00010000
00000000
00000100
00000000
00001000
00000100
00000010
00000001
00000000
00001000
00000100
00000000
00010000
00000000
00001000
00000000
,
00100000
00000000
00010000
00000000
10000000
01000000
00100000
00010000
00000000
01000000
00001000
00000000
00022000
00000000
00000000
00000000
,
00033000
00000000
00000000
00000000
;

//---------------dance-single - ----------------
#NOTES:
     dance-single:
     :
     Medium:
     7:
     0.230,0.254,0.117,0.184,0.000:
0000
0000
0000
0000
,
0000
0000
0000
0000
,
0000
0000
0000
0000
,
0000
0000
0000
0000
,
0001
0000
1000
0000
0001
0001
0001
0000
,
1000
0000
0001
0000
1000
1000
1000
0000
,
0010
0000
0100
0000
0001
0001
0001
0000
,
0100
0000
0010
0000
1000
1000
1000
0000
,
0001
0101
1000
1100
,
0010
0000
0110
0000
1000
1000
0001
0000
,
0100
0110
1000
1100
,
0001
0000
0101
0000
0010
0010
0100
0000
,
0001
0001
0200
0300
1000
1000
0200
0300
,
1000
1000
0002
0003
1000
1000
0100
0010
,
0001
0001
0200
0300
0001
0001
2000
3000
,
0010
0010
0200
0300
0001
0100
1001
0000
,
0010
0000
1100
0000
0010
0001
0100
0000
,
0010
0000
0101
0000
0010
1000
0100
0100
,
2000
3000
0002
0003
0100
0100
0010
0010
,
0200
0300
0020
0030
1000
1000
0001
0001
,
0200
0300
0020
0030
,
2000
3000
0002
0003
,
1000
0000
0100
1000
0100
0000
1000
0001
,
1000
0000
0001
0010
0001
0000
0100
0000
,
1010
0100
0010
0001
,
0100
0010
1000
0001
,
1000
1000
0001
0001
0100
0000
0010
0000
,
1000
1000
0010
0010
0100
0000
0001
0000
,
0100
0002
0103
2000
,
3100
0002
0103
2000
,
3010
0000
0110
0000
1000
0010
0001
0000
,
0100
0000
0110
0000
0001
0010
1000
0000
,
0010
2000
3010
0002
,
0013
2000
3010
0002
,
0103
0000
0110
0000
1000
0100
0001
0000
,
0010
0000
0110
0000
0001
0010
1000
0000
;

//---------------dance-double - ----------------
#NOTES:
     dance-double:
     :
     Medium:
     7:
     0.204,0.239,0.042,0.184,0.000:
00000000
00000000
00000000
00000000
,
00000000
00000000
00000000
00000000
,
00000000
00000000
00000000
00000000
,
00000000
00000000
00000000
00000000
,
00100000
00000000
10000000
00000000
00100000
00000000
01000000
01000000
,
01000000
00000000
00100000
00000000
00010000
00000000
00001000
00001000
,
00001000
00000000
00010000
00000000
00000100
00000000
00001000
00001000
,
00001000
00000001
00000010
00000000
,
00001000
00000000
00000100
00000000
00010000
00000000
00001000
00001000
,
00100000
00000000
00010000
00000000
01000000
00000000
00100000
00100000
,
00100000
00000000
10010000
00000000
01000000
00000000
00001000
00010000
,
00001000
00000000
00010000
00000000
00000010
00000000
00000100
00000100
,
00000100
00000001
00001000
00000000
00000010
00000000
00001010
00000000
,
00000100
00010000
00001000
00000000
00100000
00000000
00110000
00000000
,
10000000
01000000
00010000
00000000
00100000
00000000
00001000
00000000
,
00010000
00000100
00001000
00000000
00000001
00001000
00000100
00000000
,
00000020
00000030
00002000
00003000
00000001
00001000
00000001
00000000
,
00002000
00003000
00000200
00000300
00010000
00001000
00010000
00000000
,
00002000
00003000
02000000
03000000
00100000
10000000
00010000
00000000
,
02000000
03000000
00002000
00003000
00010000
00000100
00010000
00010000
,
00002000
00003000
00200000
00300000
,
20000000
30000000
02000000
03000000
,
00020000
00030000
00000200
00000300
,
00000002
00000003
00000020
00000030
,
00001000
00000000
00000001
00000000
00001000
00000100
00001000
00000000
,
00000001
00000100
00010000
01000000
,
10000000
00000000
00010000
00000000
10000000
00100000
10000000
00000000
,
00100000
01000000
00001000
00010000
,
00000100
00000002
00000103
00002000
,
00003100
00000002
00000103
00001000
,
00000100
00010000
00001000
00000000
00100000
00010000
01000000
00000000
,
00010000
00000000
10010000
00000000
10000000
01000000
00010000
00000000
,
10000000
00200000
00310000
00200000
,
10300000
00000000
00200000
00000000
00301000
00000000
00010000
00000100
,
00001000
00000000
00000010
00000000
00001000
00000001
00000100
00000000
,
00000010
00000000
00001100
00000000
00010000
00001000
00010000
00000000
;

//---------------dance-double - ----------------
#NOTES:
     dance-double:
     :
     Easy:
     3:
     0.186,0.239,0.209,0.209,0.000:
00000000
00000000
00000000
00000000
,
00000000
00000000
00000000
00000000
,
00000000
00000000
00000000
00000000
,
00000000
00000000
00000000
00000000
,
00100000
00100000
00100000
00100000
,
00010000
00010000
10000000
10000000
,
00100000
00100000
00100000
00100000
,
01000000
00001000
00010000
00000000
,
00010000
00000100
00001000
00000101
,
00001000
00000100
00010000
00011000
,
01000000
00100000
10000000
01010000
,
10000000
00010000
00100000
00011000
,
00000100
00001000
00000010
00000101
,
00001000
00000100
00010000
00101000
,
00010000
01100000
10000000
00110000
,
00100000
00010100
00001000
00000101
,
00001000
00011000
01000000
01010000
,
10000000
00110000
00001000
00010100
,
00001000
00000101
00001000
00110000
,
01000000
10010000
00100000
00010000
,
00002000
00003000
02000000
03000000
,
20000000
30000000
00200000
00300000
,
00020000
00030000
00000200
00000300
,
00000002
00000003
00000020
00000030
,
00001000
00000100
00000010
00000001
,
00001000
00000100
00010000
00001000
,
01000000
00010000
00100000
10000000
,
01000000
00001000
00020000
00030000
,
00000000
00002002
00003003
00002200
,
00003300
00002002
00003003
00000202
,
00000303
00001000
00000100
00010000
,
00000000
00001000
01000000
00010000
,
00000000
20020000
30030000
02020000
,
03030000
20020000
30030000
22000000
,
33000000
00100000
10000000
00010000
,
00000000
00100000
00001000
00010000
;

//---------------dance-single - Copied from Copied f----------------
#NOTES:
     dance-single:
     Copied from Copied f:
     Easy:
     3:
     0.184,0.239,0.192,0.209,0.000:
0000
0000
0000
0000
,
0000
0000
0000
0000
,
0000
0000
0000
0000
,
0000
0000
0000
0000
,
0010
0010
0010
0010
,
0001
0001
1000
1000
,
0010
0010
0010
0010
,
0100
1000
0001
0000
,
0001
0100
1000
1001
,
0100
0001
1000
1001
,
0100
0010
1000
0101
,
1000
0001
0010
1001
,
0100
1000
0010
1001
,
1000
0100
0001
0110
,
0001
0100
1000
1001
,
1000
0010
0001
1001
,
0001
0010
1000
1001
,
0100
0010
0001
1001
,
0010
1100
0010
0101
,
0010
1001
0010
0101
,
2000
3000
0200
0300
,
0020
0030
0002
0003
,
0200
0300
2000
3000
,
0020
0030
0002
0003
,
1000
0100
0010
0001
,
1000
0001
0100
0010
,
1000
0001
0100
0010
,
1000
0001
0200
0300
,
0000
2002
3003
0220
,
0330
2002
3003
0220
,
0330
0001
0100
1001
,
0000
1000
0100
0001
,
0000
2020
3030
0202
,
0303
2200
3300
0022
,
0033
0010
1000
0001
,
0000
0010
0001
1000
;

//---------------dance-single - ----------------
#NOTES:
     dance-single:
     :
     Beginner:
     1:
     0.079,0.090,0.000,0.033,0.000:
0000
0000
0000
0000
,
0000
0000
0000
0000
,
0000
0000
0000
0000
,
0000
0000
0000
0000
,
0000
0001
0000
0001
,
0000
1000
0000
1000
,
0000
0010
0000
0010
,
0000
0010
0000
0000
,
0000
1000
0000
1000
,
0000
0001
0000
0001
,
0000
0100
0000
0100
,
0000
0010
0000
0010
,
0000
1000
0000
1000
,
0000
0100
0000
0100
,
0000
0001
0000
0001
,
0000
0010
0000
0010
,
0000
1000
0000
2000
,
3000
0001
0000
0002
,
0003
0100
0000
0200
,
0300
0010
0000
0020
,
0030
0000
0000
1000
,
1000
0000
0000
0001
,
0001
0000
0000
0100
,
0100
0000
0000
0010
,
0010
0000
0000
1000
,
1000
0000
0000
0001
,
0001
0000
0000
0100
,
0100
0000
0000
0010
,
0000
0001
0000
1000
,
0000
0001
0000
1000
,
0000
0010
0000
0010
,
0000
0100
0000
0100
,
0000
0001
0000
1000
,
0000
0001
0000
1000
,
0000
0010
0000
0010
,
0000
0100
0000
0100
;
