#TITLE:No One Can Reach The Truth;
#SUBTITLE:;
#ARTIST:BEMANI Sound Team "TAG";
#TITLETRANSLIT:;
#SUBTITLETRANSLIT:;
#ARTISTTRANSLIT:;
#GENRE:;
#CREDIT:Toxsa Dalton;
#BANNER:No One Can Reach The Truth.png;
#BACKGROUND:No One Can Reach The Truth-bg.png;
#LYRICSPATH:;
#CDTITLE:;
#MUSIC:No One Can Reach The Truth.ogg;
#OFFSET:1.540000;
#SAMPLESTART:49.556774;
#SAMPLELENGTH:15.483875;
#LASTBEATHINT:1.395000;
#SELECTABLE:YES;
#BPMS:0.000000=155.000000
;
#STOPS:
;
#BGCHANGES:;
#KEYSOUNDS:;
#ATTACKS:;

//---------------dance-single - ----------------
#NOTES:
     dance-single:
     :
     Hard:
     14:
     0.621398,0.732736,0.160537,0.336363,0.363119,569.000000,548.000000,21.000000,44.000000,0.000000,0.000000,0.621398,0.732736,0.160537,0.336363,0.363119,569.000000,548.000000,21.000000,44.000000,0.000000,0.000000:
0000
0000
0000
0000
,
0000
0000
0000
0000
,
0000
0000
0000
0000
,
0000
0000
0000
0000
,
0000
0000
0000
0000
,
1000
0100
0010
0000
0100
0010
0001
0000
,
1000
0100
0001
0000
1000
0010
0001
0000
,
1000
0000
0100
0000
0010
0000
0001
0000
0010
0000
0100
0000
1000
0000
0001
1000
,
0002
1003
0220
0330
,
2000
0100
0010
3001
,
0200
0000
0000
0010
0300
0000
0010
0000
2000
0000
0000
0000
3010
0000
1000
0000
,
0002
0010
0100
1000
,
0100
0000
0013
0000
1000
0001
0100
0001
,
0000
1000
1000
1000
1000
0002
0000
0103
,
0000
0001
0010
0100
1000
0000
0010
0000
,
1000
0000
0000
1000
0000
0000
0001
0000
0100
0000
0000
0000
1000
0000
0100
0000
,
0010
0000
0000
0010
0000
0000
0001
0100
0001
0000
0000
0000
1001
0000
0000
0000
,
1000
0000
0010
0000
0100
0000
0001
0000
1000
0000
0000
1000
0000
0000
2002
0000
,
0000
0000
3003
0000
0000
0000
1000
0010
1000
0000
0100
0000
0010
0000
0001
1000
,
0001
0000
0000
0001
0000
0000
1000
0000
2002
0000
0000
0000
3003
0000
0000
0000
,
0010
1000
0100
0000
0001
0010
0100
1000
,
0020
0000
0000
0000
0130
0000
0001
0100
0002
0000
0000
0000
1003
0000
0010
1000
,
0020
0000
0000
0000
0130
0000
0001
1000
0001
0000
1000
0000
0100
0000
0010
0000
,
0001
0000
1000
0001
0000
0000
0001
0000
1000
0000
0010
1000
0000
0000
1000
0000
,
0010
0000
0100
0010
0000
0000
0010
0000
1001
0000
0000
0000
1100
0000
0000
0000
,
0010
0000
0001
0000
1000
0000
0100
0000
0010
0000
0001
0010
0000
0000
0002
0000
,
0000
0000
0103
0000
0000
0000
0010
1000
0010
0000
1000
0000
0100
0000
0010
0000
,
0001
0000
1000
0001
0000
0000
1000
0000
2002
0000
0000
0000
3003
0000
0000
0000
,
0220
0000
0330
0000
0001
0010
0100
1000
,
0020
0000
0000
0000
1030
0000
0001
0100
0002
0000
0000
0000
1003
0000
0010
1000
,
0020
0000
0000
0000
0130
0000
0001
0100
0010
0000
0100
0000
0001
0000
1000
0000
,
0100
0000
1000
0100
0000
0000
0010
0000
0001
0000
0100
0001
0000
0000
0100
0000
,
0010
0000
1000
0010
0000
0000
0100
0000
2002
0000
0000
0000
3003
0000
0000
0000
,
0001
0000
0100
0001
0000
0100
0001
0000
1000
0000
0100
0000
0010
0000
0001
0000
,
1000
0000
0010
1000
0000
0010
1000
0000
0001
0000
0010
0000
0100
0000
1000
0000
,
0010
0000
0100
0010
0000
0100
0010
0000
1000
0000
0001
0000
0100
0000
0010
0000
,
1000
0000
0100
1000
0000
0100
1000
0000
0001
0000
0100
0010
0100
0010
0100
0000
,
0001
0000
1000
0100
0000
1000
0010
0000
1000
0000
0100
0000
0010
0000
0001
0000
,
0100
0000
0001
0100
0001
0000
0100
0000
0001
0000
1000
0000
0010
0000
0100
0000
,
0001
0000
1000
0001
0000
0000
1000
0010
0100
0000
0001
1000
0000
0000
0001
0100
,
0010
0000
1000
0010
0000
0000
1000
0000
0100
0000
0000
1001
0000
0000
0010
0000
,
0010
0000
0000
0010
0100
0000
0001
0000
1000
0000
0001
1000
0001
0000
1000
0000
,
0010
0000
0000
0010
1000
0000
0010
0000
0100
0000
0001
1000
0001
0000
0100
0000
,
0010
0000
0000
0010
0100
0000
0001
0000
1000
0000
0000
1000
0010
0000
0100
0000
,
0001
0000
0000
0001
0100
0000
0001
0100
0010
0000
0100
0000
0010
0000
1000
0000
,
0001
0000
0000
0001
1000
0000
0010
0000
0100
0000
0010
1000
0010
1000
0010
0000
,
0100
0000
0000
0100
0010
0000
1000
0000
0001
0000
0100
0010
0100
0010
0100
0000
,
0001
0000
0000
0001
1000
0000
0010
0000
1000
0000
0000
1000
0100
0000
1100
0000
,
0000
0000
0101
0000
0000
1001
0000
1000
1000
0000
0010
0000
1001
0000
0000
0000
,
1000
0001
0100
0020
0000
1030
0100
0020
,
0000
1030
0001
0020
0000
0031
1000
0020
,
0000
1030
0100
0020
0000
0031
0100
0020
,
0000
1030
0100
0010
0010
0100
0010
0001
,
1000
0001
0010
0200
0000
1300
0010
0200
,
0000
0301
1000
0200
0000
1300
0010
0200
,
0000
0301
0010
0200
0000
0310
0100
1000
,
0001
1000
0100
0010
0010
0100
0010
0001
,
1000
0000
0000
1000
0000
0000
1000
0000
0000
0000
1000
0000
0100
0000
0010
0000
,
0001
0000
1000
0001
0000
1001
0000
0100
,
0010
0000
0000
0010
0000
0000
0010
0000
0000
0000
1000
0000
0010
0000
0100
0000
,
0101
0000
0001
1000
0000
0001
0010
0100
,
1000
0000
1000
0001
0000
1000
0100
0010
,
0001
0000
0000
0001
1000
0000
0000
0000
0010
0000
0000
0010
0100
0000
0000
0000
,
0101
0000
0000
0000
0000
0000
1000
0010
1000
0000
0000
0000
0000
0000
0001
0100
,
0002
2003
3020
0230
,
0301
0000
0000
0001
0010
0000
0001
0000
1000
0000
0010
0100
0010
0000
1000
0000
,
0001
0000
0000
0001
0100
0000
0010
0000
1000
0000
0001
0100
0001
0000
1000
0000
,
0001
0000
0000
0001
0100
0000
0010
0000
1000
0000
0010
1000
0010
0000
0100
0000
,
0001
0000
1000
0000
0010
0000
1000
0010
1000
0000
0001
0000
1000
0000
0100
0000
,
0010
0000
0000
0010
0001
0000
1000
0000
0010
0000
1000
0010
1000
0010
1000
0000
,
0010
0000
0000
0100
0001
0000
0100
0000
0010
0000
1000
0100
1000
0100
1000
0000
,
0010
0000
0100
0010
0100
0000
0010
0000
1000
0000
0001
0000
1001
0000
0000
0000
,
0001
0000
0000
1001
0000
0000
2000
0000
0000
0010
0000
0000
3010
0000
1000
0010
,
0100
0001
1000
0020
0000
0130
0010
1000
,
0001
0100
0001
0000
1000
0000
0001
0010
0001
0000
1000
0000
0001
0100
0002
0000
,
0000
1003
0100
0020
0000
0031
1001
0000
,
0001
0100
0001
0100
1000
0100
1000
0100
,
0001
0100
1000
0100
0001
0010
1000
0010
,
0001
0010
0001
0010
0001
0000
0100
0000
0010
1000
0010
1000
0010
0000
0100
0000
,
0010
0000
1000
0010
0000
1000
0001
0000
1000
0100
0000
0010
0001
0000
1001
0000
;

//---------------dance-single - ----------------
#NOTES:
     dance-single:
     :
     Medium:
     9:
     0.412809,0.457960,0.252272,0.351652,0.141425,378.000000,345.000000,33.000000,46.000000,0.000000,0.000000,0.412809,0.457960,0.252272,0.351652,0.141425,378.000000,345.000000,33.000000,46.000000,0.000000,0.000000:
0000
0000
0000
0000
,
0000
0000
0000
0000
,
0000
0000
0000
0000
,
0000
0000
0000
0000
,
0000
0000
0000
0000
,
1000
0010
0100
0001
,
1000
0100
0010
0001
,
1001
0000
0110
0000
,
1010
1010
0101
0101
,
1000
0000
0000
1000
0000
0000
1000
0000
0000
1000
0000
0000
0001
0000
0100
0000
,
0010
0000
0000
0010
0000
0000
0010
0000
0000
1000
0000
0000
0001
0000
0100
0000
,
0010
0000
0000
0010
0000
0000
1000
0000
0000
1000
0000
0000
0001
0000
1000
0000
,
0010
0000
0000
0010
0000
0000
0100
0000
0000
0100
0000
0000
0001
0000
2000
0000
,
0000
3001
1000
0100
1000
0001
0000
1000
,
0000
1000
0001
0000
1000
0000
0010
0000
,
0100
0000
0000
0100
0000
0000
1000
0000
0001
0000
0000
0000
1001
0000
0000
0000
,
0010
0000
0000
0010
0000
0000
0001
0000
1000
0000
0000
0000
1001
0000
0000
0000
,
0000
0000
0100
0000
0010
0000
0100
0000
0001
0000
0000
0001
0000
0000
2002
0000
,
0000
3003
0000
1000
0010
1000
0001
1000
,
0100
0000
0000
0100
0000
0000
1000
0000
2002
0000
0000
0000
3003
0000
0000
0000
,
0010
0000
0100
0000
0001
0010
0100
0010
,
0002
1003
2000
3001
,
0200
0000
0310
0000
0010
1000
0010
0100
,
0010
0000
0000
0010
0000
0000
1000
0000
0010
0000
0000
0010
0000
0000
1000
0000
,
0100
0000
0000
0100
0000
0000
0010
0000
0001
0000
0000
0000
1001
0000
0000
0000
,
0100
0000
0001
0000
0100
0000
0010
0000
0100
0000
0000
0100
0000
0000
0020
0000
,
0000
1030
0000
0010
1000
0010
0100
0010
,
1000
0000
0000
1000
0000
0000
0001
0000
2002
0000
0000
0000
3003
0000
0000
0000
,
0010
0000
1000
0000
0001
0010
0001
0100
,
0002
0000
0000
1003
2000
0000
0000
3010
,
0020
0000
0000
0130
0001
1000
0100
0010
,
0001
0000
0000
1001
0000
0000
0000
0000
1000
0000
0000
1001
0000
0000
0000
0000
,
0010
0000
0000
0010
0000
0000
1000
0000
0001
0000
0000
0000
1001
0000
0000
0000
,
0010
0000
0000
0010
0000
1000
0100
0010
,
0001
0000
1000
0001
0000
1001
0000
0000
,
0010
0000
0000
0010
0000
0001
0010
0100
,
1000
0000
0010
0100
0000
1001
0000
0000
,
1000
0000
0000
0001
0000
1000
0100
0010
,
0001
0101
1000
1100
,
0020
0000
0000
0130
0200
0000
0000
0301
,
0002
0000
0000
0000
0000
0000
0000
0000
1003
0000
0000
1000
0000
0000
0010
0000
,
0100
0000
0000
0100
0000
0000
0001
0000
1000
0000
0000
0000
1001
0000
0000
0000
,
0010
0000
0000
0010
0000
0000
1000
0000
0001
0000
0000
0000
1001
0000
0000
0000
,
0001
0000
0000
0001
0000
0000
0000
0000
1000
0000
0000
0000
1001
0000
0000
0000
,
0200
0310
0002
1003
,
0010
0000
0000
0010
0000
0000
1000
0000
0100
0000
0000
0000
1001
0000
0000
0000
,
0010
0000
0000
0010
0000
0000
0001
0000
0100
0000
0000
0000
1001
0000
0000
0000
,
1000
0000
0000
1000
0000
0000
0001
0000
0100
0000
0000
0000
1001
0000
0000
0000
,
0010
0000
0100
0000
0000
0100
0000
0000
0001
0000
0100
0000
1000
0000
0000
0000
,
0001
0200
0000
0320
,
0000
2030
0000
3002
,
0000
2003
0000
3200
,
0000
0310
0001
0100
,
0001
2000
0000
3020
,
0000
0032
0000
0023
,
0000
2030
0000
3200
,
0000
0302
0000
1003
,
0010
0000
0000
0010
0000
1000
0010
0100
,
0001
0000
0001
1000
0000
0001
0000
1000
,
0100
0000
0000
0100
0000
1000
0010
1000
,
0001
0000
0001
0100
0000
0000
0010
0000
,
1001
0000
0000
1000
0000
0001
0100
0001
,
1000
0010
0100
0001
,
1001
0000
0000
1000
0100
0000
0000
0010
,
0001
0000
0000
0000
0000
0000
0000
0000
0001
0000
0000
0001
0000
0000
1000
0000
,
0010
0000
0000
0010
0000
0000
1000
0000
0100
0000
0000
0000
0011
0000
0000
0000
,
0100
0000
0000
0100
0000
0000
1000
0000
0001
0000
0000
0000
1001
0000
0000
0000
,
0010
0000
0000
0010
0000
0000
1000
0000
0100
0000
0000
0000
0010
0000
0000
0000
,
0001
0100
1001
0100
,
0010
0000
0000
0010
0000
0000
1000
0000
0001
0000
0000
0000
1001
0000
0000
0000
,
0100
0000
0000
0100
0000
0000
1000
0000
0001
0000
0000
0000
1001
0000
0000
0000
,
0010
0000
0000
0010
0000
0000
0010
0000
1000
0000
0000
0000
0001
0000
0000
0000
,
2000
0000
0000
0002
0000
0000
3003
0000
,
1000
0010
1000
0010
0000
0100
0001
0100
,
0002
0203
2300
3200
,
0310
0100
0010
0100
0000
0000
1001
0000
,
0002
0023
2030
3020
,
0032
0203
2300
3200
,
0310
0100
0010
0100
0001
1000
0001
1000
,
0010
0000
0000
0010
0000
0000
0010
0000
0000
1000
0000
0000
0001
0000
1000
0000
;

//---------------dance-single - ----------------
#NOTES:
     dance-single:
     :
     Easy:
     4:
     0.205313,0.274346,0.068802,0.259917,0.000000,188.000000,179.000000,9.000000,34.000000,0.000000,0.000000,0.205313,0.274346,0.068802,0.259917,0.000000,188.000000,179.000000,9.000000,34.000000,0.000000,0.000000:
// measure 0
0000
0000
0000
0000
,  // measure 1
0000
0000
0000
0000
,  // measure 2
0000
0000
0000
0000
,  // measure 3
0000
0000
0000
0000
,  // measure 4
0000
0000
0000
0000
,  // measure 5
1000
0000
0001
0000
,  // measure 6
0100
0000
0010
0000
,  // measure 7
1000
0000
0100
0000
,  // measure 8
0010
0000
0001
0000
,  // measure 9
0200
0000
0000
0300
,  // measure 10
0020
0030
0200
0300
,  // measure 11
0002
0000
0000
0003
,  // measure 12
2000
0000
0000
3000
,  // measure 13
0001
0001
0001
0000
,  // measure 14
1000
1000
1000
0000
,  // measure 15
0020
0030
0200
0300
,  // measure 16
0002
0003
2000
3000
,  // measure 17
1000
0100
0010
0001
,  // measure 18
2000
3000
0001
0100
,  // measure 19
0020
0030
2002
0000
,  // measure 20
3003
0000
1000
0100
,  // measure 21
0002
0003
0200
0300
,  // measure 22
2000
3000
0020
0030
,  // measure 23
1000
0100
0010
0001
,  // measure 24
0100
0010
1001
0000
,  // measure 25
0001
0010
0100
1000
,  // measure 26
0002
0003
1000
0010
,  // measure 27
0200
0300
2002
0000
,  // measure 28
3003
0000
0001
0010
,  // measure 29
2000
3000
0020
0030
,  // measure 30
0002
0003
0200
0300
,  // measure 31
0001
0010
0100
1000
,  // measure 32
0010
0100
1001
0000
,  // measure 33
0001
0000
0001
0000
,  // measure 34
1000
0100
0010
0001
,  // measure 35
1000
0000
1000
0000
,  // measure 36
0001
0010
0100
1000
,  // measure 37
0010
0000
0010
0000
,  // measure 38
0100
0000
0100
0000
,  // measure 39
1000
0000
0100
0000
,  // measure 40
0010
0000
0001
0000
,  // measure 41
1000
0100
1000
0000
,  // measure 42
0001
0100
0001
0000
,  // measure 43
1000
0100
0001
0100
,  // measure 44
1000
0000
1001
0000
,  // measure 45
0001
0010
0001
0000
,  // measure 46
1000
0010
1000
0000
,  // measure 47
0001
0010
1000
0010
,  // measure 48
0001
0000
1000
1001
,  // measure 49
2000
0000
0000
0000
,  // measure 50
3002
0000
0000
0000
,  // measure 51
0203
0000
0000
0000
,  // measure 52
0320
0000
0000
0000
,  // measure 53
1030
0000
0100
0000
,  // measure 54
0010
0000
0001
0000
,  // measure 55
1000
0000
0010
0000
,  // measure 56
0100
0000
0001
0000
,  // measure 57
2000
0000
3000
0000
,  // measure 58
0002
0000
0003
0000
,  // measure 59
0200
0000
0300
0000
,  // measure 60
0020
0000
0030
0000
,  // measure 61
2000
0000
3000
0000
,  // measure 62
0010
0100
0010
0100
,  // measure 63
0001
0000
1000
0000
,  // measure 64
1001
0000
1001
0000
,  // measure 65
1000
0100
0001
0000
,  // measure 66
1000
0010
0001
0000
,  // measure 67
1000
0100
0010
0001
,  // measure 68
0100
0000
1001
0000
,  // measure 69
0001
0010
1000
0000
,  // measure 70
0001
0100
1000
0000
,  // measure 71
0001
0010
0100
1000
,  // measure 72
0001
0000
1000
0000
,  // measure 73
0010
0000
0100
0000
,  // measure 74
0100
0000
0010
0000
,  // measure 75
1000
0000
0001
0000
,  // measure 76
1000
0000
0100
0000
,  // measure 77
0010
0000
0001
0000
,  // measure 78
0100
0010
0100
0010
,  // measure 79
1000
0001
1000
0001
;

//---------------dance-single - ----------------
#NOTES:
     dance-single:
     :
     Beginner:
     1:
     0.093920,0.151937,0.000000,0.000000,0.000000,86.000000,86.000000,0.000000,0.000000,0.000000,0.000000,0.093920,0.151937,0.000000,0.000000,0.000000,86.000000,86.000000,0.000000,0.000000,0.000000,0.000000:
// measure 0
0000
0000
0000
0000
,  // measure 1
0000
0000
0000
0000
,  // measure 2
0000
0000
0000
0000
,  // measure 3
0000
0000
0000
0000
,  // measure 4
0000
0000
0000
0000
,  // measure 5
1000
0000
0000
0000
,  // measure 6
0001
0000
0000
0000
,  // measure 7
1000
0000
0000
0000
,  // measure 8
0001
0000
0000
0000
,  // measure 9
1000
0000
0000
0000
,  // measure 10
1000
0000
1000
0000
,  // measure 11
1000
0000
0000
0000
,  // measure 12
0000
0000
0000
0000
,  // measure 13
0001
0000
0000
0000
,  // measure 14
0001
0000
0000
0000
,  // measure 15
0001
0000
0001
0000
,  // measure 16
0001
0000
0000
0000
,  // measure 17
1000
0000
0000
0000
,  // measure 18
1000
0000
0000
0000
,  // measure 19
0001
0000
0000
0000
,  // measure 20
0001
0000
0000
0000
,  // measure 21
0100
0000
0000
0000
,  // measure 22
0100
0000
0000
0000
,  // measure 23
0010
0000
0000
0000
,  // measure 24
0010
0000
0000
0000
,  // measure 25
1000
0000
0000
0000
,  // measure 26
0001
0000
0000
0000
,  // measure 27
0100
0000
0000
0000
,  // measure 28
0010
0000
0000
0000
,  // measure 29
1000
0000
0000
0000
,  // measure 30
0100
0000
0000
0000
,  // measure 31
0010
0000
0000
0000
,  // measure 32
0001
0000
0000
0000
,  // measure 33
0001
0000
0001
0000
,  // measure 34
0001
0000
0000
0000
,  // measure 35
1000
0000
1000
0000
,  // measure 36
1000
0000
0000
0000
,  // measure 37
0010
0000
0000
0000
,  // measure 38
0100
0000
0000
0000
,  // measure 39
0010
0000
0010
0000
,  // measure 40
0010
0000
0000
0000
,  // measure 41
1000
0000
0000
0000
,  // measure 42
0001
0000
0000
0000
,  // measure 43
1000
0000
1000
0000
,  // measure 44
1000
0000
0000
0000
,  // measure 45
0001
0000
0000
0000
,  // measure 46
1000
0000
0000
0000
,  // measure 47
0001
0000
0001
0000
,  // measure 48
0001
0000
0000
0000
,  // measure 49
1000
0000
0000
0000
,  // measure 50
0001
0000
0000
0000
,  // measure 51
0100
0000
0000
0000
,  // measure 52
0010
0000
0000
0000
,  // measure 53
1000
0000
0000
0000
,  // measure 54
0100
0000
0000
0000
,  // measure 55
0010
0000
0000
0000
,  // measure 56
0001
0000
0000
0000
,  // measure 57
1000
0000
0000
0000
,  // measure 58
0001
0000
0000
0000
,  // measure 59
0100
0000
0000
0000
,  // measure 60
0010
0000
0000
0000
,  // measure 61
1000
0000
0000
0000
,  // measure 62
0010
0000
0010
0000
,  // measure 63
0100
0000
0100
0000
,  // measure 64
0100
0000
0000
0000
,  // measure 65
1000
0000
0000
0000
,  // measure 66
0001
0000
0000
0000
,  // measure 67
1000
0000
0000
0000
,  // measure 68
0001
0000
0000
0000
,  // measure 69
0100
0000
0000
0000
,  // measure 70
0010
0000
0000
0000
,  // measure 71
0100
0000
0100
0000
,  // measure 72
0100
0000
0000
0000
,  // measure 73
0010
0000
0000
0000
,  // measure 74
1000
0000
0000
0000
,  // measure 75
0001
0000
0000
0000
,  // measure 76
1000
0000
0000
0000
,  // measure 77
0001
0000
0000
0000
,  // measure 78
0100
0000
0100
0000
,  // measure 79
0100
0000
0100
0000
;
