#TITLE:Never Ending TECHNIKA;
#SUBTITLE:(DDR Edit);
#ARTIST:Studio LAY-BACK 「DJMAX」 より;
#TITLETRANSLIT:;
#SUBTITLETRANSLIT:;
#ARTISTTRANSLIT:Studio LAY-BACK from "DJMAX";
#GENRE:;
#CREDIT:Toxsa Dalton;
#BANNER:Never Ending TECHNIKA.png;
#BACKGROUND:Never Ending TECHNIKA-bg.png;
#LYRICSPATH:;
#CDTITLE:;
#MUSIC:Never Ending TECHNIKA.ogg;
#OFFSET:2.085999;
#SAMPLESTART:99.800797;
#SAMPLELENGTH:18.113205;
#LASTBEATHINT:1.918598;
#SELECTABLE:YES;
#BPMS:0.000000=106.000000
;
#STOPS:
;
#BGCHANGES:3.750=Never Ending TECHNIKA.avi=1.000=0=0=0=StretchNoLoop====,
99999=-nosongbg-=1.000=0=0=0 // don't automatically add -songbackground-
;
#KEYSOUNDS:;
#ATTACKS:;

//---------------dance-single - ----------------
#NOTES:
     dance-single:
     :
     Hard:
     10:
     0.396962,0.394193,0.452352,0.165144,0.122063,387.000000,324.000000,63.000000,23.000000,0.000000,0.000000,0.396962,0.394193,0.452352,0.165144,0.122063,387.000000,324.000000,63.000000,23.000000,0.000000,0.000000:
0000
0000
0000
0000
,
0000
0000
0000
0000
,
0000
0000
0000
0000
,
0000
0000
0000
0000
,
0000
0000
0000
0000
,
0001
0000
0000
0000
1000
0000
0001
0000
0100
0000
0000
0100
0000
0000
1000
0000
,
0001
0000
1000
0000
0010
0000
1000
0000
0100
0000
0000
0100
0000
0000
0000
0000
,
1000
0000
0001
0000
1000
0000
0010
0000
0100
0000
0000
0100
0000
0000
1001
0000
,
0000
0000
0001
0000
1000
0000
0100
0000
1001
0000
0000
1001
0000
0000
0000
0000
,
0001
0000
0100
0000
0001
0000
1000
0000
0001
0000
0000
0001
0000
0000
0001
0000
,
1000
0000
0010
0000
1000
0000
0100
0000
1000
0000
0000
1000
0000
0000
0000
0000
,
0010
0000
0100
0000
0001
0000
1000
0000
0001
0000
0000
0001
0000
0000
1001
0000
,
0000
0000
1000
0000
0010
0000
0100
0000
0010
0000
0000
1001
0000
0000
0000
0000
,
0101
0101
0000
0010
1000
0001
1000
0020
,
0000
0030
0000
1000
0001
1001
1001
0000
,
0110
0110
0000
0010
1000
0001
0001
0200
,
0000
0300
0000
0010
1000
1000
1001
0000
,
1100
1100
0000
0001
0100
0010
0100
0002
,
0000
1003
0001
1000
0010
0100
0110
0000
,
1001
0000
1001
0000
0000
0000
0001
0000
1000
0000
0000
0001
0000
0000
1001
0000
,
0000
0010
0100
0001
1000
0000
0110
0000
,
1100
0110
0011
1001
,
0001
1000
0010
1000
0100
0010
1001
0000
,
0011
0110
1100
1001
,
0001
0100
1000
0100
0001
0010
1001
0000
,
0101
1010
0110
1001
,
0001
1000
0010
0100
0001
1000
1001
0000
,
1100
0011
0110
1001
,
0000
0010
0100
0010
1001
0000
0000
0000
,
0001
0000
0100
0000
1000
0000
0100
0000
0001
0000
0000
1001
0000
0000
1000
0000
,
0010
0000
0100
0000
0001
0000
1000
0000
0001
0000
0000
1001
0000
0000
0000
0000
,
0001
0000
0100
0000
1000
0000
0100
0000
0001
0000
0000
1000
0000
0000
0001
0000
,
1000
0000
0000
1000
0010
0000
0100
0000
0000
0001
0100
0000
0010
0000
1000
0000
,
0001
0000
1000
0000
0010
0000
0100
0000
0010
0000
0000
1001
0000
0000
0100
0000
,
0010
0000
0100
0000
0001
0000
1000
0000
0010
0000
0000
1001
0000
0000
0000
0000
,
0010
0000
1000
0000
0001
0000
0100
0000
0010
0000
0000
1010
0000
0000
1000
0000
,
0001
0000
0100
0000
0010
0000
1000
0000
0000
0001
0000
0000
1001
0000
0000
0000
,
2000
0000
3200
0000
0320
0000
0032
0200
,
0000
0003
0001
0000
0000
0000
0001
0000
,
0320
0000
2030
0000
3002
0000
0203
0020
,
0000
0300
1000
0000
0000
0000
1030
0000
,
1002
0000
0203
0000
0320
0000
2030
0002
,
0000
0003
0001
0000
0000
0000
3100
0000
,
0020
0000
0230
0000
0302
0000
1003
0001
,
1000
0000
0000
0001
0000
0000
1000
0000
0000
0010
0000
0000
1001
0000
0000
0000
,
0010
0000
0010
0000
0100
0000
0001
0000
1000
0000
0000
1001
0000
0000
0001
0000
,
0000
0000
1000
0000
0010
0000
0100
0000
0001
0000
0000
1001
0000
0000
0000
0000
,
0010
0000
0010
0000
0100
0000
0001
0000
1000
0000
0000
0001
0000
0000
1001
0000
,
0000
0000
1000
0000
0001
0000
0100
0000
0000
0001
0000
0000
1001
0000
0000
0000
,
0010
0000
0100
0000
0001
0000
1000
0000
0001
0000
0000
1001
0000
0000
1000
0000
,
0000
0000
0001
0000
1000
0000
0010
0000
0100
0000
0000
0110
0000
0000
0000
0000
,
0001
0000
0001
0000
1000
0000
0010
0000
0100
0000
0000
0110
0000
0000
1001
0000
,
0000
0000
0010
0000
1000
0000
0001
0000
0000
1000
0000
0000
0110
0000
0000
0000
,
0001
0000
0100
0000
1000
0000
0100
0000
0001
0000
0000
1001
0000
0000
1000
0000
,
0010
0000
0100
0000
0001
0000
1000
0000
0001
0000
0000
1001
0000
0000
1000
0000
,
0001
0000
0001
0000
1000
0000
0100
0000
0010
0000
0000
0001
0000
0000
1001
0000
,
0000
0010
0010
0100
0001
1000
1001
0000
,
0001
0000
0010
0000
0100
0000
1000
0000
0010
0000
0000
0100
0000
0000
0001
0000
,
1000
0000
0001
0000
0100
0000
0010
0000
1000
0000
0000
1001
0000
0000
1000
0000
,
0100
0000
0010
0000
0001
0000
0100
0000
0010
0000
0000
1010
0000
0000
1000
0000
,
0001
0100
0010
0010
1000
0010
0220
0000
,
0330
0000
0000
0000
;

//---------------dance-double - ----------------
#NOTES:
     dance-double:
     :
     Hard:
     10:
     0.404142,0.437992,0.516974,0.107703,0.111293,394.000000,322.000000,72.000000,15.000000,0.000000,0.000000,0.404142,0.437992,0.516974,0.107703,0.111293,394.000000,322.000000,72.000000,15.000000,0.000000,0.000000:
00000000
00000000
00000000
00000000
,
00000000
00000000
00000000
00000000
,
00000000
00000000
00000000
00000000
,
00000000
00000000
00000000
00000000
,
00000000
00000000
00000000
00000000
,
10000000
00000000
00100000
00000000
01000000
00000000
00010000
00000000
00100000
00000000
00000000
00001000
00000000
00000000
00010000
00000000
,
00000010
00000000
00001000
00000000
00000001
00000000
00000100
00000000
00000010
00000000
00000000
00001000
00000000
00000000
00000100
00000000
,
00010000
00000000
00001000
00000000
01000000
00000000
00100000
00000000
10000000
00000000
00000000
00010000
00000000
00000000
00100000
00000000
,
00000000
00000000
00001000
00000000
00010000
00000000
00000100
00000000
00001000
00000000
00000000
00001001
00000000
00000000
00000000
00000000
,
00000001
00000000
00000100
00000000
00001000
00000000
00000100
00000000
00000001
00000000
00000000
00001000
00000000
00000000
00000100
00000000
,
00010000
00000000
00001000
00000000
00010000
00000000
00000010
00000000
00010000
00000000
00000000
00011000
00000000
00000000
00001000
00000000
,
00100000
00000000
00010000
00000000
01000000
00000000
00100000
00000000
10000000
00000000
00000000
00010000
00000000
00000000
00110000
00000000
,
00000000
00000000
00100000
00000000
00001000
00000000
00010000
00000000
00001000
00000000
00000000
00101000
00000000
00000000
00000000
00000000
,
01010000
01010000
00000000
00100000
10000000
00010000
00100000
00002000
,
00000000
00000000
00013000
00000100
00001000
00000010
00001001
00000000
,
00000110
00000110
00000000
00000001
00001000
00000010
00001000
00000200
,
00000000
00020300
00000000
00031000
00100000
00010000
01010000
00000000
,
10100000
10100000
00000000
10000000
00100000
01000000
00010000
00200000
,
00000000
00301000
00010000
00001000
00011000
00011000
00010100
00000000
,
00001100
00000000
00001010
00000000
00000000
00000000
00001000
00000000
00000010
00000000
00000000
00000100
00000000
00000000
00001001
00000000
,
00000000
00000010
00000100
00000010
00001001
00000000
00001100
00000000
,
00000011
00001100
00010100
00011000
,
00001000
00100000
00010000
01000000
00100000
10000000
10010000
00000000
,
10100000
01010000
00110000
00010010
,
00000100
00001000
00000010
00000100
00000001
00001000
00000110
00000000
,
00000101
00001010
00010010
00101000
,
00100000
00010000
01000000
10000000
01000000
00010000
00100000
00000000
,
01010000
01001000
00010100
00001001
,
00000000
00000010
00000100
00000001
00001001
00000000
00000110
00000000
,
00000020
00000000
00000000
00000000
00001030
00000000
00000100
00000000
00010000
00000000
00000000
00001000
00000000
00000000
00010000
00000000
,
00001000
00000000
00100000
00000000
00010000
00000000
01000000
00000000
00100000
00000000
00000000
00100000
00000000
00000000
00000000
00000000
,
10000000
00000000
01000000
00000000
00100000
00000000
00010000
00000000
01000000
00000000
00000000
00100000
00000000
00000000
10010000
00000000
,
00000000
00000000
10000000
00000000
00010000
00000000
00100000
00000000
00000000
00101000
00000000
00000000
00011000
00000000
00000000
00000000
,
00010000
00000000
00000100
00000000
00001000
00000000
00000010
00000000
00000100
00000000
00000000
00001001
00000000
00000000
00000010
00000000
,
00001000
00000000
00000100
00000000
00010000
00000000
00001000
00000000
00100000
00000000
00000000
01010000
00000000
00000000
00000000
00000000
,
00100000
00000000
10000000
00000000
01000000
00000000
00100000
00000000
00010000
00000000
00000000
00100000
00000000
00000000
00011000
00000000
,
00000000
00000000
00010000
00000000
00000100
00000000
00001000
00000000
00000000
00000110
00000000
00000000
00001001
00000000
00000000
00000000
,
00000020
00000000
00001000
00000000
00000100
00000000
00001030
00000200
,
00000000
00010000
00000000
00010300
,
00002000
00000000
00010000
00000000
00100000
00000000
00103000
00020000
,
00000000
01000000
00100000
10030000
,
20000000
00000000
01000000
00000000
00100000
00000000
00010000
30020000
,
00000000
00100000
01000000
00130000
,
00200000
00000000
00001000
00000000
00010000
00000000
00001000
00302000
,
00000000
00010000
00103000
00101000
,
00100000
00000000
00001000
00000000
00010000
00000000
00001000
00000000
00100000
00000000
00000000
00101000
00000000
00000000
00010000
00000000
,
00000000
00000000
00000100
00000000
00001000
00000000
00000010
00000000
00000100
00000000
00000000
00001001
00000000
00000000
00000000
00000000
,
00000010
00000000
00000100
00000000
00000001
00000000
00001000
00000000
00000100
00000000
00000000
00001100
00000000
00000000
00010100
00000000
,
00000000
00000000
00010000
00000000
00001000
00000000
01000000
00000000
00000000
00010000
00000000
00000000
01010000
00000000
00000000
00000000
,
00100000
00000000
10000000
00000000
01000000
00000000
00100000
00000000
00010000
00000000
00000000
00110000
00000000
00000000
00101000
00000000
,
00000000
00000000
00001000
00000000
00010000
00000000
00000100
00000000
00001000
00000000
00000000
00001010
00000000
00000000
00000000
00000000
,
00000001
00000000
00000100
00000000
00000010
00000000
00001000
00000000
00000100
00000000
00000000
00010100
00000000
00000000
00011000
00000000
,
00000000
00000000
00001000
00000000
00100000
00000000
00010000
00000000
00000000
01010000
00000000
00000000
10010000
00000000
00000000
00000000
,
10000000
00000000
01000000
00000000
00100000
00000000
00010000
00000000
00100000
00000000
00000000
00110000
00000000
00000000
00100000
00000000
,
00001000
00000000
00010000
00000000
00000100
00000000
00001000
00000000
00000010
00000000
00000000
00001001
00000000
00000000
00000000
00000000
,
00000001
00000000
00000100
00000000
00000010
00000000
00001000
00000000
00000100
00000000
00000000
00010100
00000000
00000000
00011000
00000000
,
00000000
00001000
00100000
00010000
01000000
00100000
10010000
00000000
,
10000000
00000000
00100000
00000000
10000000
00000000
01000000
00000000
00100000
00000000
00000000
00110000
00000000
00000000
00101000
00000000
,
00000000
00000000
00001000
00000000
00010000
00000000
00000100
00000000
00001000
00000000
00000000
00001010
00000000
00000000
00000010
00000000
,
00000100
00000000
00000001
00000000
00001000
00000000
00000100
00000000
00000010
00000000
00000000
00001001
00000000
00000000
00001100
00000000
,
00000000
00000100
00010000
00001000
00010000
00001000
00022000
00000000
,
00033000
00000000
00000000
00000000
;

//---------------dance-double - ----------------
#NOTES:
     dance-double:
     :
     Medium:
     7:
     0.287208,0.306594,0.157964,0.280028,0.000000,280.000000,258.000000,22.000000,39.000000,0.000000,0.000000,0.287208,0.306594,0.157964,0.280028,0.000000,280.000000,258.000000,22.000000,39.000000,0.000000,0.000000:
00000000
00000000
00000000
00000000
,
00000000
00000000
00000000
00000000
,
00000000
00000000
00000000
00000000
,
00000000
00000000
00000000
00000000
,
00000000
00000000
00000000
00000000
,
00100000
00000000
01000000
00010000
02000000
00000000
03100000
00000000
,
10000000
00000000
00100000
01000000
00020000
00000000
00130000
00000000
,
00001000
00000000
00010000
00001000
00020000
00000000
00030010
00000000
,
00000000
00001000
00000001
00000100
00000001
00000000
00001001
00000000
,
00000010
00000000
00001000
00000100
00002000
00000000
00003100
00000000
,
00010000
00000000
00001000
00100000
00020000
00000000
01030000
00000000
,
00100000
00000000
10000000
01000000
20000000
00000000
30010000
00000000
,
00000000
10000000
00100000
01000000
00100000
00000000
10010000
00000000
,
00100000
00100000
00000000
00000000
10000000
00000000
00010000
00000000
,
00100000
00000000
00001000
00000000
00010000
00010000
00010000
00000000
,
00001000
00001000
00000000
00000000
00010000
00000000
00000010
00000000
,
00001000
00000000
00000001
00000000
00000100
00000100
00000100
00000000
,
00000010
00000010
00000000
00000000
00001000
00000000
00000100
00000000
,
00010000
00001000
00010000
00001000
00010000
00001000
00010000
00000000
,
00001000
00001000
00001000
00000000
00100000
00000000
00010000
00000000
,
01000000
00100000
01000000
00100000
01000000
00000000
10010000
00000000
,
10000000
00100000
01000000
00010000
,
00100000
00010000
00100000
00000000
00010000
00100000
00010000
00000000
,
00100000
00001000
00010000
00000100
,
00001000
00000010
00000100
00000010
00001000
00000000
00001001
00000000
,
00000001
00000010
00000100
00001000
,
00000010
00001000
00000100
00000000
00001000
00000100
00010000
00000000
,
00001000
00100000
00010000
01000000
,
00000000
00010000
10000000
00010000
01000000
00000000
10010000
00000000
,
10000000
00100000
10000000
00000000
00010000
00000000
00100000
00000000
,
00001000
00010000
00001000
00000000
00010000
00000000
00000010
00000000
,
00001000
00000100
00000010
00000000
00000001
00000000
00000100
00000000
,
00000010
00001001
00000100
00001001
,
00000010
00001000
00000100
00000000
00010000
00000000
00001000
00000000
,
00100000
00010000
01000000
00000000
00100000
00000000
10010000
00000000
,
00100000
10000000
01000000
00000000
00100000
00000000
10010000
00000000
,
01000000
00010000
00100000
00001000
,
00020000
00030000
00000200
00000300
,
00002000
00003000
00000002
00000003
,
00002000
00003000
00000020
00000030
,
00020000
00030000
00002000
00003000
,
02000000
03020000
20030000
30200000
,
02300000
03000000
20020000
30030000
,
00200000
00302000
00023000
00030020
,
00000230
00000300
00001001
00000110
,
00000010
00001000
00000010
00000000
00000100
00000000
00001001
00000000
,
00000100
00010000
00001000
00000000
00010000
00000000
00011000
00000000
,
00001000
00100000
00010000
00000000
01000000
00000000
10010000
00000000
,
00100000
01000000
00100000
10010000
,
10000000
00100000
01000000
00000000
00010000
00000000
00110000
00000000
,
00100000
00001000
00010000
00000000
00010000
00000000
00011000
00000000
,
00010000
00000100
00001000
00000000
00000010
00000000
00001001
00000000
,
00000010
00000100
00001001
00000110
,
00000001
00000000
00001000
00000100
00002000
00000000
00003010
00000000
,
00000200
00000000
00000301
00001000
00000200
00000000
00010300
00000000
,
00002000
00000000
00103000
00010000
02000000
00000000
03100000
00000000
,
10000000
00010000
10000000
00010000
01000000
00100000
01000000
00000000
,
00020000
00000000
00130000
00001000
00200000
00000000
00301000
00000000
,
00020000
00000000
00030010
00001000
00000020
00000000
00000130
00000000
,
00000002
00000000
00001003
00000100
00020000
00000000
00031000
00000000
,
00100000
00001000
00010000
00000000
00001000
00000000
00022000
00000000
,
00033000
00000000
00000000
00000000
;

//---------------dance-double - ----------------
#NOTES:
     dance-double:
     :
     Easy:
     5:
     0.167196,0.197096,0.035901,0.129243,0.000000,163.000000,158.000000,5.000000,18.000000,0.000000,0.000000,0.167196,0.197096,0.035901,0.129243,0.000000,163.000000,158.000000,5.000000,18.000000,0.000000,0.000000:
00000000
00000000
00000000
00000000
,
00000000
00000000
00000000
00000000
,
00000000
00000000
00000000
00000000
,
00000000
00000000
00000000
00000000
,
00000000
00000000
00000000
00000000
,
10000000
01000000
00100000
00000000
,
01000000
00100000
00010000
00000000
,
00100000
00001000
00010000
00000000
,
00001000
00000000
00010000
00000000
,
00000100
00001000
00000010
00000000
,
00000100
00000001
00000010
00000000
,
00000010
00001000
00000100
00000000
,
00010000
00000000
00001000
00000000
,
00100000
00010000
01000000
10000000
,
00000000
00000000
00100000
00100000
,
10000000
01000000
00100000
00010000
,
00000000
00100000
00100000
00001000
,
00010000
00000010
00001000
00000000
,
00000000
00000001
00001000
00000001
,
00001000
00000001
00000000
00001000
,
00000000
00000010
00001001
00000000
,
00000001
00000010
00000100
00001000
,
00000000
00010000
00000000
00001000
,
01000000
00100000
10000000
00010000
,
00000000
10000000
00000000
00010000
,
10000000
01000000
00100000
00010000
,
00000000
00100000
00000000
00001000
,
00010000
00000010
00001000
00000100
,
00000000
00000010
00001001
00000000
,
00000001
00000100
00001000
00000000
,
00000010
00001000
00000100
00000000
,
00010000
00001000
01000000
00000000
,
00010000
01000000
10000000
00000000
,
10000000
00100000
00010000
00000000
,
00100000
00001000
00010000
00000000
,
00001000
00010000
00000010
00000000
,
00001000
00000010
00000001
00000000
,
00000200
00000000
00000320
00000000
,
00002030
00000000
00003002
00000000
,
00002003
00000000
00003200
00000000
,
00020300
00000000
00032000
00000000
,
02003000
00000000
03200000
00000000
,
20300000
00000000
30020000
00000000
,
02030000
00000000
03020000
00000000
,
00230000
00000000
00302000
00000000
,
00013000
00000100
00001000
00000000
,
00000010
00000100
00001001
00000000
,
00000010
00001000
00000100
00000010
,
00000001
00000000
00001000
00000000
,
00000100
00010000
00001000
00000000
,
00100000
00010000
01000000
00000000
,
00010000
01000000
00100000
10000000
,
10010000
00000000
00100000
00000000
,
10000000
01000000
00100000
00000000
,
00100000
00001000
00010000
00000000
,
00001000
00010000
00000010
00000000
,
00001000
00000100
00000010
00000000
,
00000001
00000100
00000010
00000000
,
00001000
00000100
00010000
00000000
,
00001000
01000000
00100000
00000000
,
10000000
00000000
00010000
20020000
,
30030000
00000000
00000000
00000000
;

//---------------dance-single - ----------------
#NOTES:
     dance-single:
     :
     Medium:
     7:
     0.262590,0.262795,0.057442,0.236946,0.000000,256.000000,248.000000,8.000000,33.000000,0.000000,0.000000,0.262590,0.262795,0.057442,0.236946,0.000000,256.000000,248.000000,8.000000,33.000000,0.000000,0.000000:
0000
0000
0000
0000
,
0000
0000
0000
0000
,
0000
0000
0000
0000
,
0000
0000
0000
0000
,
0000
0000
0000
0000
,
0001
0000
1000
0001
2000
0000
3010
0000
,
1000
0000
0001
1000
0002
0000
0103
0000
,
0010
0000
1000
0001
2000
0000
3010
0000
,
0100
1001
0010
1001
,
0100
0000
0001
1000
0020
0000
0130
0000
,
0001
0000
1000
0100
0020
0000
0130
0000
,
1000
0000
0001
0100
0020
0000
0130
0000
,
0001
1001
0100
1001
,
0010
0010
0000
0000
1000
0000
0001
0000
,
1000
0000
0100
0000
0010
0010
0010
0000
,
0001
0100
0000
0000
0010
0000
1000
0000
,
0001
0000
1000
0000
0010
0010
0010
0000
,
1000
0001
0000
0000
1000
0000
0001
0000
,
0100
0010
0100
0000
0010
0100
0010
0000
,
1000
1000
0000
0000
0001
0000
0100
0000
,
0000
1000
0001
1000
0001
0000
0000
0000
,
1000
0100
0010
0001
,
0100
0010
0100
0000
0010
0100
0010
0000
,
1000
0100
0010
0001
,
1000
0001
1000
0000
0001
1000
0001
0000
,
1000
0100
0010
0001
,
0100
0001
0100
0000
0010
1000
0010
0000
,
1000
0100
0010
0001
,
0000
0100
0010
0100
0010
0000
0000
0000
,
0001
0000
0100
0001
0100
0000
0001
0000
,
1000
0000
0010
1000
0010
0000
1000
0000
,
0001
0000
0100
0010
0100
0000
0001
0000
,
1000
0001
0100
0010
,
1000
0000
0001
0100
0010
0000
0100
0000
,
0001
0000
1000
0100
0010
0000
0100
0000
,
1000
0000
0001
0100
0010
0000
0100
0000
,
0001
1000
0010
0100
,
0002
0003
2000
3000
,
0020
0030
0200
0300
,
2000
3000
0200
0300
,
0020
0030
0002
0003
,
2000
3002
0203
0320
,
2030
0000
3002
0000
,
0203
0320
2030
3200
,
0320
0000
0032
1003
,
0001
1000
0001
0000
0100
0000
0100
0000
,
1000
0001
1000
0000
0010
0000
0010
0000
,
1000
0001
0100
0000
0001
0000
1000
0000
,
1001
0000
0110
0000
,
0001
0010
0001
0000
1000
0000
1000
0000
,
0010
1000
0010
0000
0100
0000
0100
0000
,
0001
1000
0001
0000
1000
0001
1000
0000
,
0010
0010
0100
1001
,
0001
0000
0100
0010
0200
0000
0301
0000
,
1000
0000
0010
0100
0020
0000
1030
0000
,
0001
0000
0010
0001
0020
0000
0031
0000
,
0100
0010
0100
0000
0010
0100
0010
0000
,
1000
0000
0001
0100
0002
0000
1003
0000
,
0001
0000
1000
0100
2000
0000
3001
0000
,
0100
0000
0001
1000
0001
0000
0100
0000
,
0001
0100
0010
2002
,
3003
0000
0000
0000
;

//---------------dance-single - ----------------
#NOTES:
     dance-single:
     :
     Easy:
     5:
     0.182582,0.218996,0.107703,0.028721,0.000000,178.000000,163.000000,15.000000,4.000000,0.000000,0.000000,0.182582,0.218996,0.107703,0.028721,0.000000,178.000000,163.000000,15.000000,4.000000,0.000000,0.000000:
0000
0000
0000
0000
,
0000
0000
0000
0000
,
0000
0000
0000
0000
,
0000
0000
0000
0000
,
0000
0000
0000
0000
,
1000
0001
1000
0000
,
0001
1000
0001
0000
,
0100
0100
0100
0000
,
0010
0000
1001
0000
,
0001
1000
0001
0000
,
1000
0001
1000
0000
,
0010
0010
0010
0000
,
0100
0000
1001
0000
,
0001
0000
1000
0000
,
0010
0000
0100
0100
,
0100
0000
0010
0000
,
1000
0100
0010
0001
,
0100
0000
0010
0000
,
1000
0001
0100
0010
,
1000
0000
0001
0000
,
0100
0100
1001
0000
,
1000
0100
0010
0001
,
1000
0000
1000
0000
,
1000
0100
0010
0001
,
0100
0000
0100
0000
,
1000
0100
0010
0001
,
0010
0000
0010
0000
,
1000
0100
0010
0001
,
0000
0100
0100
0000
,
0001
0100
1000
0000
,
0001
0010
1000
0000
,
0001
0010
0100
1000
,
0001
0000
0000
0000
,
1000
0100
0001
0000
,
1000
0010
0001
0000
,
1000
0100
0010
0001
,
1000
0000
0000
0000
,
0010
0100
0010
0100
,
0000
0001
0000
1000
,
0010
0100
0010
0100
,
0000
1000
0000
0001
,
1000
0100
0010
0001
,
0000
0100
0000
0001
,
1000
0100
0010
0001
,
0100
0000
2002
3003
,
0010
0010
1001
0000
,
0100
0100
1001
0000
,
1000
0100
0010
0001
,
1000
0000
0001
0000
,
1000
1000
1001
0000
,
0001
0001
1001
0000
,
0001
0010
0100
1000
,
0010
0000
1001
0000
,
1000
0010
1001
0000
,
0001
0010
1001
0000
,
1000
0100
0010
0001
,
0100
0000
0110
0000
,
0001
0100
1001
0000
,
1000
0100
1001
0000
,
0001
0010
0100
1000
,
0010
0000
1000
2002
,
3003
0000
0000
0000
;

//---------------dance-single - ----------------
#NOTES:
     dance-single:
     :
     Beginner:
     2:
     0.082059,0.129243,0.007180,0.000000,0.000000,80.000000,79.000000,1.000000,0.000000,0.000000,0.000000,0.082059,0.129243,0.007180,0.000000,0.000000,80.000000,79.000000,1.000000,0.000000,0.000000,0.000000:
// measure 0
0000
0000
0000
0000
,  // measure 1
0000
0000
0000
0000
,  // measure 2
0000
0000
0000
0000
,  // measure 3
0000
0000
0000
0000
,  // measure 4
0000
0000
0000
0000
,  // measure 5
0010
0000
0000
0000
,  // measure 6
0001
0000
0000
0000
,  // measure 7
0100
0000
0000
0000
,  // measure 8
1000
0000
0000
0000
,  // measure 9
0010
0000
0000
0000
,  // measure 10
1000
0000
0000
0000
,  // measure 11
0100
0000
0000
0000
,  // measure 12
0001
0000
0000
0000
,  // measure 13
0010
0000
0010
0000
,  // measure 14
0000
0000
0010
0000
,  // measure 15
0100
0000
0100
0000
,  // measure 16
0000
0000
0100
0000
,  // measure 17
0001
0000
0001
0000
,  // measure 18
0000
0001
0001
0000
,  // measure 19
0001
0000
0000
0000
,  // measure 20
0000
1000
1000
0000
,  // measure 21
0010
0010
0010
0010
,  // measure 22
0000
0000
0000
0000
,  // measure 23
0100
0100
0100
0100
,  // measure 24
0000
0000
0000
0000
,  // measure 25
0010
0010
0010
0010
,  // measure 26
0000
0000
0000
0000
,  // measure 27
0100
0100
0100
0100
,  // measure 28
0000
0000
0000
0000
,  // measure 29
0001
0000
0001
0000
,  // measure 30
1000
0000
1000
0000
,  // measure 31
0001
0000
0001
0000
,  // measure 32
0000
0000
0000
0000
,  // measure 33
1000
0000
1000
0000
,  // measure 34
0001
0000
0001
0000
,  // measure 35
1000
0000
1000
0000
,  // measure 36
0000
0000
0000
0000
,  // measure 37
0001
0000
0000
0000
,  // measure 38
1000
0000
0000
0000
,  // measure 39
0100
0000
0000
0000
,  // measure 40
0010
0000
0000
0000
,  // measure 41
0001
0000
0000
0000
,  // measure 42
0100
0000
0000
0000
,  // measure 43
1000
0000
0000
0000
,  // measure 44
0010
0000
0000
0000
,  // measure 45
0001
0000
0001
0000
,  // measure 46
1000
0000
1000
0000
,  // measure 47
0010
0000
0010
0000
,  // measure 48
0010
0000
0000
0000
,  // measure 49
1000
0000
1000
0000
,  // measure 50
0001
0000
0001
0000
,  // measure 51
0100
0000
0100
0000
,  // measure 52
0100
0000
0000
0000
,  // measure 53
0001
0000
0000
0000
,  // measure 54
0100
0000
0000
0000
,  // measure 55
1000
0000
0000
0000
,  // measure 56
0010
0000
0000
0000
,  // measure 57
0100
0000
0000
0000
,  // measure 58
0001
0000
0000
0000
,  // measure 59
1000
0000
0000
0000
,  // measure 60
1001
0000
0000
0000
;
