#TITLE:†渚の小悪魔ラヴリィ~レイディオ†;
#SUBTITLE:(STARDOM Remix);
#ARTIST:kors k;
#TITLETRANSLIT:Nagisa no koakuma lovely~radio;
#SUBTITLETRANSLIT:;
#ARTISTTRANSLIT:;
#GENRE:;
#CREDIT:;
#BANNER:Nagisa no koakuma lovely~radio (STARDOM Remix).png;
#BACKGROUND:Nagisa no koakuma lovely~radio (STARDOM Remix)-bg.png;
#LYRICSPATH:;
#CDTITLE:;
#MUSIC:Nagisa no koakuma lovely~radio (STARDOM Remix).ogg;
#OFFSET:0.000000;
#SAMPLESTART:24.599922;
#SAMPLELENGTH:12.000000;
#SELECTABLE:YES;
#DISPLAYBPM:107.000000;
#BPMS:0.000000=108.000000
,12.000000=107.000000
;
#STOPS:
;
#BGCHANGES:;
#KEYSOUNDS:;
#ATTACKS:;

//---------------dance-single - ----------------
#NOTES:
     dance-single:
     :
     Hard:
     12:
     0.499267,0.591832,0.093537,0.153060,0.663260,411.000000,400.000000,11.000000,18.000000,0.000000,0.000000,0.499267,0.591832,0.093537,0.153060,0.663260,411.000000,400.000000,11.000000,18.000000,0.000000,0.000000:
// measure 0
0000
0000
0000
0000
,  // measure 1
0000
0000
0000
0000
,  // measure 2
0000
0000
0000
0000
,  // measure 3
0010
0000
0001
0010
0000
0100
1000
0000
0010
0000
1000
0100
0000
0010
0001
0000
,  // measure 4
1000
0000
0001
0100
0000
0010
1000
0000
0001
0000
0100
0000
0010
0000
1000
0000
,  // measure 5
0001
0000
1000
0200
0000
0000
1300
0000
0001
0100
0001
0200
0000
0000
0310
0000
,  // measure 6
1000
0000
1000
0010
0000
0010
0100
0000
0001
0000
0010
0000
0100
0000
1000
0000
,  // measure 7
0001
0000
0010
0001
0000
1000
0100
0000
0010
0000
1000
0010
0000
0100
0001
0000
,  // measure 8
0010
0000
1000
0001
0000
0100
0010
0000
1000
0010
0100
0001
0000
1000
0001
0000
,  // measure 9
0010
0000
0100
0001
0000
1000
0001
1000
0001
0000
1000
0100
0000
1000
0001
1000
,  // measure 10
0001
0000
0100
0001
0000
1000
0001
0000
0100
0010
0100
0010
0000
0000
1000
0000
,  // measure 11
2002
0000
0000
0000
0000
0000
3003
0000
0010
0000
0000
0001
0000
0000
0100
0000
,  // measure 12
0010
0000
1000
0001
0000
0001
0000
0001
1000
0000
0000
0010
0100
0000
0001
0000
,  // measure 13
1000
0000
0000
0000
0000
0000
0100
0000
0000
1000
0000
0000
0000
0000
0000
0010
0000
0000
0100
0000
0000
0010
0000
0000
0000
0000
0000
1000
0000
0000
0100
0000
0000
0000
0000
0000
1000
0000
0000
0000
0001
0000
0000
0000
1000
0000
0000
0000
,  // measure 14
0001
0000
0000
0000
0100
0010
0000
0100
0010
0000
1000
0000
0100
0000
0010
0000
,  // measure 15
0001
0000
0100
0010
0000
0010
0000
1000
0000
1000
0000
0001
0000
0001
0000
0100
,  // measure 16
0010
0000
0100
0010
0000
1000
0000
0001
0200
0000
0300
0000
0010
1000
0000
0000
,  // measure 17
0001
0000
0000
0010
0000
0000
0001
0000
0000
0010
0000
0000
0000
0000
0000
0100
0000
0000
1000
0000
0000
0100
0000
0000
0000
0000
0000
1000
0000
0000
0100
0000
0000
0000
0000
0000
0010
0000
0000
0000
0001
0000
0000
0000
0100
0000
0000
0000
,  // measure 18
0002
0000
0000
0000
0000
0000
0000
0000
0013
0000
0000
0001
0000
0000
0100
0000
,  // measure 19
0010
0100
0010
0100
0000
0000
0001
1000
0001
1000
0000
0000
0110
0000
0110
0000
,  // measure 20
1000
0001
1000
0001
0000
0000
0100
0010
0100
0010
0000
0000
0000
0000
0000
0000
,  // measure 21
0001
0000
0000
1000
0100
1000
0100
0000
1000
0000
1000
0000
0001
0000
0001
0000
,  // measure 22
0100
0000
0000
0010
0100
0010
0100
0000
0001
0000
0001
0000
1000
0000
1000
0000
,  // measure 23
0010
0000
0000
1000
0100
1000
0100
0000
1000
0000
1000
0000
0001
0000
0001
0000
,  // measure 24
0100
0000
0000
0001
0100
0001
0100
0000
0010
0000
0010
0000
1000
0000
1000
0000
,  // measure 25
0001
0000
0000
0100
0001
0100
0001
0000
1000
0000
1000
0000
0001
0000
0001
0000
,  // measure 26
0100
0000
0000
0001
1000
0001
1000
0000
0010
0000
0010
0000
0100
0000
0100
0000
,  // measure 27
0010
0000
0000
1000
0001
1000
0001
0000
0100
0000
0110
0000
0110
0000
0000
0000
,  // measure 28
0001
0000
0010
0000
0100
0000
1000
0000
0001
0010
0001
0010
0100
1000
0100
1000
,  // measure 29
0010
0000
0100
0010
0100
0000
0010
0100
0000
0001
0000
0001
0100
0000
0010
0000
,  // measure 30
1000
0000
0100
1000
0100
0000
1000
0010
0000
0100
0000
0100
0010
0000
1000
0000
,  // measure 31
0002
0000
0203
0000
0320
0000
1030
0100
,  // measure 32
0010
0001
1001
0000
0110
0000
1001
0000
,  // measure 33
0002
0000
2003
0000
3020
0000
0130
0001
,  // measure 34
1000
0010
1000
0010
1000
0000
0001
0100
0002
0000
0000
0000
0203
0000
0000
0000
,  // measure 35
0010
0000
0010
0000
0010
0000
0310
0000
1000
0000
0000
0001
0000
0000
0100
0000
,  // measure 36
0220
0000
0000
0000
0000
0000
0330
0000
0010
0000
0000
0001
0000
0000
0100
0000
,  // measure 37
0010
0000
1000
0001
0000
0001
0000
0001
1000
0000
0000
0010
0100
0000
0001
0000
,  // measure 38
1000
0000
0000
0000
0000
0000
0100
0000
0000
1000
0000
0000
0000
0000
0000
0010
0000
0000
0100
0000
0000
0010
0000
0000
0000
0000
0000
1000
0000
0000
0100
0000
0000
0000
0000
0000
1000
0000
0000
0000
0001
0000
0000
0000
1000
0000
0000
0000
,  // measure 39
0001
0000
0000
0000
0100
0010
0000
0100
0010
0000
1000
0000
0100
0000
0010
0000
,  // measure 40
0001
0000
0100
0010
0000
0010
0000
1000
0000
1000
0000
0001
0000
0001
0000
0100
,  // measure 41
0010
0000
0100
0010
0000
1000
0000
0001
0200
0000
0300
0000
0010
1000
0000
0000
,  // measure 42
0001
0000
0000
0010
0000
0000
0001
0000
0000
0010
0000
0000
0000
0000
0000
0100
0000
0000
1000
0000
0000
0100
0000
0000
0000
0000
0000
1000
0000
0000
0100
0000
0000
0000
0000
0000
0010
0000
0000
0000
0001
0000
0000
0000
0100
0000
0000
0000
,  // measure 43
0002
0000
0000
0000
0000
0000
0000
0000
0013
0000
0000
0001
0000
0000
0100
0000
,  // measure 44
0010
0100
0010
0100
0000
0000
0001
1000
0001
1000
0000
0000
0110
0000
0110
0000
,  // measure 45
1000
0001
1000
0001
0000
0000
0100
0010
0100
0010
0000
0000
0000
0000
0000
0000
,  // measure 46
0001
0010
0001
0010
0000
0001
0100
0001
0000
1000
0001
1000
0000
1000
0000
1000
,  // measure 47
0001
0100
0001
0100
0010
1000
0010
1000
0001
0010
0001
1000
0100
1000
0010
0100
,  // measure 48
0010
0000
0000
0000
;

//---------------dance-double - ----------------
#NOTES:
     dance-double:
     :
     Hard:
     12:
     0.431240,0.448976,0.042517,0.161563,0.505948,355.000000,350.000000,5.000000,19.000000,0.000000,0.000000,0.431240,0.448976,0.042517,0.161563,0.505948,355.000000,350.000000,5.000000,19.000000,0.000000,0.000000:
00000000
00000000
00000000
00000000
,
00000000
00000000
00000000
00000000
,
00000000
00000000
00000000
00000000
,
00100000
00000000
10000000
01000000
00000000
00000000
10000000
00000000
00010000
00000000
00000000
00100000
00010000
00000000
00100000
00000000
,
00001000
00000000
00010000
00001000
00000000
00000000
00010000
00000000
00000010
00000000
00001000
00000010
00000000
00000000
00000100
00000000
,
00000001
00000000
00001000
00000001
00000000
00000000
00001000
00000000
00000100
00000000
00010000
00000100
00000000
00000000
00010000
00000000
,
00001000
00000000
00100000
00001000
00000000
00000000
00100000
00000000
00010000
00000000
01000000
00000000
00100000
00000000
10000000
00000000
,
01000000
00000000
00000000
01100000
00000000
00000000
10000000
00100000
10000000
00000000
00000000
00100000
00000000
00000000
01000000
00000000
,
00001000
00000000
00000000
00011000
00000000
00000000
00001000
00000000
00010000
00000000
00000100
00001000
00000000
00000000
00000100
00000000
,
00001000
00000000
00000000
00001010
00000000
00000000
00000010
00000000
00000100
00000001
00000100
00000001
00000000
00000000
00001000
00000000
,
00000100
00000000
00000000
00000100
00000000
00000000
00001001
00000000
00000010
00001000
00000010
00001000
00000000
00000000
00000100
00000000
,
00020000
00000000
00000000
00000000
00000000
00000000
00000000
00000000
00031000
00000000
00000000
00100000
00000000
00000000
00010000
00000000
,
01000000
00000000
00100000
10000000
00000000
10000000
00000000
10000000
00100000
00000000
01000000
00000000
00010000
00000000
01000000
00000000
,
00100000
00000000
00000000
00000000
00000000
00000000
10000000
00000000
00000000
00100000
00000000
00000000
00000000
00000000
00000000
10000000
00000000
00000000
00010000
00000000
00000000
10000000
00000000
00000000
00000000
00000000
00000000
00100000
00000000
00000000
10000000
00000000
00000000
00000000
00000000
00000000
00100000
00000000
00000000
00000000
01000000
00000000
00000000
00000000
00100000
00000000
00000000
00000000
,
01000000
00000000
00000000
00000000
00010000
00100000
00000000
00010000
00100000
00000000
00001000
00000000
00010000
00000000
00000010
00000000
,
00001000
00000000
00000100
00001000
00000000
00001000
00000000
00000001
00000000
00000001
00000000
00001000
00000000
00001000
00000000
00000100
,
00010000
00000000
00001000
00010000
00000000
00001000
00000000
01000000
00010000
00000000
00000000
10000000
00010000
01000000
00000000
00000000
,
00100000
00000000
00000000
10000000
00000000
00000000
00100000
00000000
00000000
10000000
00000000
00000000
00000000
00000000
00000000
00010000
00000000
00000000
01000000
00000000
00000000
00010000
00000000
00000000
00000000
00000000
00000000
00100000
00000000
00000000
00000000
00000000
00000000
00001000
00000000
00000000
00010000
00000000
00000000
00000000
00001000
00000000
00000000
00000000
00010000
00000000
00000000
00000000
,
00000200
00000000
00000000
00000000
00000000
00000000
00000000
00000000
00001300
00000000
00000000
00000010
00000000
00000000
00000001
00000000
,
00001000
00000100
00001000
00000100
00000000
00000000
00010000
00001000
00010000
00001000
00000000
00000000
00100000
00000000
00100000
00000000
,
00010000
01000000
00010000
01000000
00000000
00000000
00000000
00000000
10000000
00010000
10000000
00010000
00000000
00000000
00000000
00000000
,
01000000
00000000
00000000
00100000
01000000
00000000
00010000
00000000
00100000
00000000
00001000
00000000
00010000
00000000
00000010
00000000
,
00000100
00000000
00000000
00000001
00001000
00000000
00001000
00000000
00000100
00000000
00010000
00000000
00001000
00000000
01000000
00000000
,
00100000
00000000
00000000
10000000
00010000
00000000
00010000
00000000
00100000
00000000
00001000
00000000
00010000
00000000
00000010
00000000
,
00000100
00000000
00000000
00000001
00000100
00000000
00000100
00000000
00000010
00000000
00010000
00000000
00001000
00000000
00100000
00000000
,
00010000
00000000
00000000
00010000
00000000
01000000
00010000
00000000
10000000
00000000
01000000
00000000
00100000
00000000
00010000
00000000
,
01000000
00000000
00000000
00010000
00000000
00100000
00001000
00000000
00010000
00000000
00010000
00000000
00000100
00000000
00001000
00000000
,
00000001
00000000
00000000
00000001
00000000
00001000
00000100
00000000
00001000
00000000
00001000
00000000
00000100
00000000
00000100
00000000
,
00010000
00001000
00010000
00001000
01000000
00100000
00010000
01000000
,
00100000
00000000
10000000
00100000
10000000
00000000
00100000
10000000
00000000
00100000
00000000
00100000
01000000
00000000
00001000
00000000
,
00010000
00000000
00000100
00001000
00000100
00000000
00001000
00000010
00000000
00000010
00000000
00000100
00000001
00000000
00001000
00000000
,
00000020
00000000
00002030
00000000
00003200
00000000
00001300
00000100
,
00010000
00001000
02000000
00000000
03200000
00000000
10300000
00000000
,
20000000
30020000
00230000
00302000
,
00020000
00000000
00033000
00000100
00002000
00000000
00003020
00000000
,
00000200
00000000
00000000
00000000
00000330
00000000
00000000
00000000
00000001
00000000
00000000
00000100
00000000
00000000
00001000
00000000
,
00022000
00000000
00000000
00000000
00003000
00000000
00000000
00000000
00030100
00000000
00000000
00000010
00000000
00000000
00000001
00000000
,
00000100
00000000
00000010
00001000
00000000
00001000
00000000
00001000
00000010
00000000
00001000
00000000
00000100
00000000
00010000
00000000
,
00001000
00000000
00000000
00000000
00000000
00000000
00100000
00000000
00000000
00001000
00000000
00000000
00000000
00000000
00000000
00000000
00000000
00000000
00100000
00000000
00000000
00001000
00000000
00000000
00000000
00000000
00000000
00001000
00000000
00000000
00100000
00000000
00000000
00000000
00000000
00000000
00010000
00000000
00000000
00000000
01000000
00000000
00000000
00000000
00010000
00000000
00000000
00000000
,
01000000
00000000
00000000
00000000
00100000
10000000
00000000
10000000
00100000
00000000
01000000
00000000
00010000
00000000
00100000
00000000
,
00001000
00000000
00010000
00001000
00000000
00001000
00000000
00010000
00000000
00010000
00000000
00000100
00000000
00000100
00000000
00001000
,
00000100
00000000
00000010
00000001
00000000
00000100
00000000
00000010
00002000
00000000
00000000
00000000
00003100
00010000
00000000
00000000
,
00001000
00000000
00000000
00010000
00000000
00000000
00001000
00000000
00000000
00010000
00000000
00000000
00000000
00000000
00000000
00001000
00000000
00000000
00100000
00000000
00000000
00001000
00000000
00000000
00000000
00000000
00000000
00100000
00000000
00000000
00010000
00000000
00000000
00000000
00000000
00000000
01000000
00000000
00000000
00000000
00100000
00000000
00000000
00000000
10000000
00000000
00000000
00000000
,
00020000
00000000
00000000
00000000
00030000
00000000
00000000
00000000
00100000
00000000
00000000
00001000
00000000
00000000
00010000
00000000
,
00000100
00000000
00001000
00000100
00000000
00000000
00010000
00000000
00001000
00010000
00000000
00000000
00001000
00000000
00001000
00000000
,
01000000
00000000
00010000
10000000
00000000
00000000
01000000
00000000
10000000
00010000
00000000
00000000
00000000
00000000
00000000
00000000
,
00100000
00000000
00001000
00010000
00000000
00010000
00000100
00001000
00000000
00001000
00000010
00000100
00000000
00000000
00000000
00000000
,
00000001
00000100
00000001
00000000
00001000
00000000
00000100
00000000
00010000
00001000
00010000
00000000
00001000
00000000
01000000
00000000
,
00100000
00000000
00000000
00000000
;

//---------------dance-double - ----------------
#NOTES:
     dance-double:
     :
     Medium:
     8:
     0.268462,0.306120,0.187073,0.178570,0.046768,221.000000,199.000000,22.000000,21.000000,0.000000,0.000000,0.268462,0.306120,0.187073,0.178570,0.046768,221.000000,199.000000,22.000000,21.000000,0.000000,0.000000:
00000000
00000000
00000000
00000000
,
00000000
00000000
00000000
00000000
,
00000000
00000000
00000000
00000000
,
00011000
00000000
00001000
00100000
00010000
01000000
00001000
00010000
,
00000010
00000000
00001000
00000100
00010000
00000000
00011000
00000000
,
00001000
01000000
00100000
00000000
01000000
00001000
00010000
00000000
,
00010000
00000010
00000100
00000000
00001001
00000000
00010100
00000000
,
00001000
00010000
01000000
00000000
00100000
10000000
01000000
00000000
,
00010000
00000100
00001000
00000000
00000001
00000100
00001000
00000000
,
00000100
00010000
00001000
00000000
00010000
00000100
00001000
00000000
,
00000010
00000100
00001000
00000000
00022000
00000000
00033000
00000000
,
00022000
00000000
00000000
00000000
00033000
00000000
00000000
00000000
00100000
00000000
00000000
00010000
00000000
00000000
00100000
00000000
,
00010000
10000000
00200000
00300000
,
10000000
00000000
00000000
01000000
00000000
00000000
00010000
00000000
00000000
00001000
00000000
00000000
00011000
00000000
00000000
00000000
,
00000200
00000310
00001001
00001001
,
00002000
00003200
00020300
00032000
,
00013000
00001000
00100000
00000000
00010000
01000000
00100000
00000000
,
10000000
00000000
00010000
00000000
00100000
01000000
00010000
00000000
,
00022000
00000000
00000000
00000000
00033000
00000000
00000000
00000000
00101000
00000000
00000000
00011000
00000000
00000000
00000000
00000000
,
00010000
00000000
00000000
00000100
00000000
00000000
00001000
00000000
00000000
00000001
00000000
00000000
00000000
00000000
00000000
00000000
,
00000100
00000000
00000000
00010000
00000000
00000000
00001000
00000000
01000000
00000000
00000000
00000000
00000000
00000000
00000000
00000000
,
00010000
00000000
01000000
00000000
00001000
00001000
00001000
00000000
,
00100000
00000000
00001000
00000000
00010000
00010000
00010000
00000000
,
00000010
00000000
00001000
00000000
00000001
00000001
00000001
00000000
,
00001000
00000000
00000100
00000000
00010000
00010000
00010000
00000000
,
00001000
00000000
01000000
00000000
00100000
01000000
00100000
00000000
,
01000000
00000000
00001000
00000000
00010000
00001000
00010000
00000000
,
00000100
00000000
00001000
00000000
00000001
00001000
00000001
00000000
,
00001000
00000000
00000100
00000000
00010000
00001000
00010000
00000000
,
00002000
00003000
02000000
03000000
,
00200000
00300000
10000000
10010000
,
01000000
01000000
00010000
00001000
,
00010000
00000100
00000100
00010000
,
00001000
01000000
00001000
00010000
,
00000010
00000001
00000100
00001000
,
00010000
00100000
10000000
01000000
,
00022000
00000000
00000000
00000000
00033000
00000000
00000000
00000000
00000100
00000000
00000000
00000010
00000000
00000000
00000000
00000000
,
00001000
00000001
00000200
00000300
,
00000001
00000000
00000000
00000010
00000000
00000000
00001000
00000000
00000000
00010000
00000000
00000000
00011000
00000000
00000000
00000000
,
00200000
01300000
01100000
10010000
,
00010000
01000000
00001000
01000000
,
00010000
01000000
00001000
00010000
,
00000010
00000100
00000001
00001000
,
00000200
00000300
00020000
00030000
,
00010100
00000000
00000000
00101000
00000000
00000000
01000000
01000000
,
10010000
00000000
00000000
00011000
00000000
00000000
00000000
00000000
,
00010000
00000000
00000000
00001000
00000000
00000000
00010000
00000000
00000000
00000000
00001000
00000000
00011000
00000000
00000000
00000000
,
00100000
00000000
01000000
00000000
10000000
00010000
00100000
00001000
,
00010000
00000000
00000000
00000000
;

//---------------dance-single - ----------------
#NOTES:
     dance-single:
     :
     Medium:
     7:
     0.241737,0.284224,0.136053,0.263603,0.085033,199.000000,183.000000,16.000000,31.000000,0.000000,0.000000,0.241737,0.284224,0.136053,0.263603,0.085033,199.000000,183.000000,16.000000,31.000000,0.000000,0.000000:
// measure 0
0000
0000
0000
0000
,  // measure 1
0000
0000
0000
0000
,  // measure 2
0000
0000
0000
0000
,  // measure 3
0110
0000
1000
0001
0100
0000
0001
0000
,  // measure 4
0010
0000
1000
0001
1000
0000
0101
0000
,  // measure 5
1000
1000
0001
0000
0001
0001
1000
0000
,  // measure 6
0010
0010
0100
0000
0020
0000
0030
0000
,  // measure 7
0001
0000
0000
1000
0000
0000
0000
0000
0001
0000
0000
1000
0000
0000
0000
0000
,  // measure 8
0200
0001
0301
1001
,  // measure 9
2000
0010
3002
0010
,  // measure 10
1003
0010
0001
0100
,  // measure 11
2002
0000
0000
0000
3003
0000
0000
0000
0010
0000
0000
0100
0000
0000
0010
0000
,  // measure 12
1000
0001
0020
0030
,  // measure 13
0001
0000
0000
1000
0000
0000
0001
0000
0000
1000
0000
0000
0110
0000
0000
0000
,  // measure 14
0200
0000
0301
1001
,  // measure 15
2000
0010
3002
0010
,  // measure 16
2003
0100
3002
0100
,  // measure 17
1003
0100
0010
0001
,  // measure 18
0020
0030
1010
0101
,  // measure 19
0001
0000
0000
0100
0000
0000
1000
0000
0000
0100
0000
0000
0000
0000
0000
0000
,  // measure 20
1000
0000
0000
0010
0000
0000
0001
0000
0000
0010
0000
0000
0000
0000
0000
0000
,  // measure 21
1000
0000
0100
0000
0001
0001
0001
0000
,  // measure 22
1000
0000
0010
0000
0001
0001
0001
0000
,  // measure 23
0010
0000
1000
0000
0100
0100
0100
0000
,  // measure 24
0010
0000
0001
0000
0100
0100
0100
0000
,  // measure 25
0001
0000
0010
0000
1000
1000
1000
0000
,  // measure 26
0001
0000
0100
0000
1000
1000
1000
0000
,  // measure 27
0010
0000
0100
0000
0001
1000
0001
0000
,  // measure 28
0100
0000
0010
0000
1000
0001
1000
0000
,  // measure 29
0020
0030
0002
0003
,  // measure 30
0200
0300
2000
3000
,  // measure 31
0100
0100
0010
0100
,  // measure 32
0010
0100
2002
3003
,  // measure 33
0100
0010
0100
0100
,  // measure 34
0020
0030
2002
3003
,  // measure 35
0010
1000
0100
1001
,  // measure 36
2002
0000
0000
0000
3003
0000
0000
0000
0010
0000
0000
0100
0000
0000
0010
0000
,  // measure 37
1000
0001
0020
0030
,  // measure 38
0001
0000
0000
1000
0000
0000
0001
0000
0000
1000
0000
0000
0110
0000
0000
0000
,  // measure 39
0200
0000
0301
1001
,  // measure 40
2000
0010
3002
0010
,  // measure 41
2003
0100
3002
0100
,  // measure 42
1003
0100
0010
0001
,  // measure 43
0020
0030
1010
0101
,  // measure 44
0001
0000
0000
0100
0000
0000
1000
0000
0000
0100
0000
0000
0000
0000
0000
0000
,  // measure 45
1000
0000
0000
0010
0000
0000
0001
0000
0000
0010
0000
0000
0000
0000
0000
0000
,  // measure 46
0001
0000
0000
0100
0000
0000
1000
0000
0000
0100
0000
0000
0001
0000
0000
0000
,  // measure 47
1000
0000
0000
0010
0000
0000
0001
0000
0000
0010
0000
0000
1000
0000
0000
0000
;

//---------------dance-double - ----------------
#NOTES:
     dance-double:
     :
     Easy:
     5:
     0.210154,0.224488,0.076530,0.076530,0.000000,173.000000,164.000000,9.000000,9.000000,0.000000,0.000000,0.210154,0.224488,0.076530,0.076530,0.000000,173.000000,164.000000,9.000000,9.000000,0.000000,0.000000:
00000000
00000000
00000000
00000000
,
00000000
00000000
00000000
00000000
,
00000000
00000000
00000000
00000000
,
00001000
00001000
00010000
00010000
,
01000000
01000000
00010000
10010000
,
00100000
00100000
00001000
00001000
,
00000100
00000100
00000010
00000110
,
00000001
00001000
00000100
00010000
,
00001000
00100000
00010000
10010000
,
01000000
00100000
00010000
00001000
,
00000010
00000100
00000001
00001001
,
00000010
00000010
00000001
00000100
,
00001000
00001000
00010000
00100000
,
10000000
10000000
00010000
10000000
,
02000000
00000000
00100000
03100000
,
01000000
01000000
00010000
00100000
,
10000000
10000000
01000000
00010000
,
00001000
00001000
00000100
00000001
,
00000020
00000000
00000100
00000130
,
00000100
00000000
00000000
00010000
00000000
00000000
00000000
00000000
,
00001000
00000000
00000000
00100000
00000000
00000000
00000000
00000000
,
02000000
03000000
10000000
00010000
,
00100000
00100000
00001000
00010000
,
00000100
00000100
00000010
00000010
,
00000001
00000001
00000100
00000100
,
00010000
00001000
00010000
00001000
,
01000000
10000000
00100000
00010000
,
00000100
00000100
00001000
00001000
,
00010000
00010000
00001000
00001000
,
00000100
00000100
00010000
00010000
,
00000100
00000100
00010000
00010000
,
00001000
00000010
00000001
00000100
,
00001000
00010000
01000000
10000000
,
00100000
00010000
00001000
00000100
,
00000001
00000010
00002000
00013000
,
00010000
00100000
01000000
10000000
,
20020000
30030000
01000000
00100000
,
10000000
01000000
00010000
00000000
,
00010000
00001000
00000100
00000010
,
00000002
00000000
00000100
00000103
,
00000010
00000010
00010000
00001000
,
00100000
00100000
00010000
10000000
,
00100000
10000000
01000000
00010000
,
00022000
00000000
00000000
00033000
,
00010000
00000000
00000000
00011000
00000000
00000000
00000000
00000000
,
00001000
00000000
00000000
00011000
00000000
00000000
00000000
00000000
,
00010000
00000100
00001000
00000010
,
00001000
00000100
00010000
00001000
,
00011000
00000000
00000000
00000000
;

//---------------dance-single - ----------------
#NOTES:
     dance-single:
     :
     Easy:
     5:
     0.210154,0.204080,0.051020,0.272107,0.017007,173.000000,167.000000,6.000000,32.000000,0.000000,0.000000,0.210154,0.204080,0.051020,0.272107,0.017007,173.000000,167.000000,6.000000,32.000000,0.000000,0.000000:
// measure 0
0000
0000
0000
0000
,  // measure 1
0000
0000
0000
0000
,  // measure 2
0000
0000
0000
0000
,  // measure 3
0001
0100
1000
0100
,  // measure 4
0010
0100
0001
0010
,  // measure 5
0200
0300
0001
0100
,  // measure 6
1000
0001
1000
0010
,  // measure 7
0002
0103
2000
3100
,  // measure 8
0020
0130
0001
0100
,  // measure 9
0100
1000
0010
0001
,  // measure 10
0100
1000
0001
0110
,  // measure 11
0020
0030
0002
0003
,  // measure 12
0010
0100
0020
0130
,  // measure 13
0001
1000
0010
0001
,  // measure 14
0200
1300
0010
0001
,  // measure 15
0010
0001
1000
0010
,  // measure 16
0100
0001
2000
3001
,  // measure 17
1000
0010
0001
0100
,  // measure 18
0020
0130
0002
1003
,  // measure 19
0100
0000
0000
0100
0000
0000
0100
0000
0000
0100
0000
0000
0000
0000
0000
0000
,  // measure 20
0010
0000
0000
0010
0000
0000
0010
0000
0000
0010
0000
0000
0000
0000
0000
0000
,  // measure 21
1000
0100
1000
0001
,  // measure 22
0100
0010
1000
0100
,  // measure 23
0010
0001
0100
0010
,  // measure 24
1000
0010
0100
0100
,  // measure 25
0001
0001
0100
0100
,  // measure 26
0010
1000
0010
1000
,  // measure 27
0010
0010
2002
3003
,  // measure 28
0100
0100
0010
1001
,  // measure 29
0002
0003
0200
0300
,  // measure 30
2000
3000
0020
0030
,  // measure 31
0002
1003
2000
3001
,  // measure 32
0002
1003
2000
3001
,  // measure 33
0020
1030
0020
0031
,  // measure 34
0200
0310
0200
0301
,  // measure 35
0010
0100
1000
0100
,  // measure 36
0020
0030
0002
0003
,  // measure 37
0010
0100
0020
0130
,  // measure 38
0001
1000
0010
0001
,  // measure 39
0200
1300
0010
0001
,  // measure 40
0010
0001
1000
0010
,  // measure 41
0100
0001
2000
3001
,  // measure 42
1000
0010
0001
0100
,  // measure 43
0020
0130
0002
1003
,  // measure 44
0010
0000
0000
1001
0000
0000
0000
0000
,  // measure 45
0100
0000
0000
1001
0000
0000
0000
0000
,  // measure 46
0010
0001
0100
1000
,  // measure 47
0010
0010
0010
0100
,  // measure 48
1001
0000
0000
0000
;

//---------------dance-single - ----------------
#NOTES:
     dance-single:
     :
     Beginner:
     1:
     0.092322,0.102040,0.000000,0.059523,0.000000,76.000000,76.000000,0.000000,7.000000,0.000000,0.000000,0.092322,0.102040,0.000000,0.059523,0.000000,76.000000,76.000000,0.000000,7.000000,0.000000,0.000000:
// measure 0
0000
0000
0000
0000
,  // measure 1
0000
0000
0000
0000
,  // measure 2
0000
0000
0000
0000
,  // measure 3
0010
0000
0001
0000
,  // measure 4
0100
0000
1000
0000
,  // measure 5
0010
0000
1000
0000
,  // measure 6
0100
0000
0001
0000
,  // measure 7
0010
0000
0010
0000
,  // measure 8
0100
0000
0100
0000
,  // measure 9
0001
0000
1000
0000
,  // measure 10
0001
0000
1000
0000
,  // measure 11
0020
0000
0030
0000
,  // measure 12
0001
0000
0001
0000
,  // measure 13
1000
0000
1000
0000
,  // measure 14
0001
0000
1000
0000
,  // measure 15
0020
0000
0030
0000
,  // measure 16
1000
0000
1000
0000
,  // measure 17
0001
0000
0001
0000
,  // measure 18
1000
0000
0001
0000
,  // measure 19
0100
0000
0000
0000
,  // measure 20
0100
0000
0000
0000
,  // measure 21
0000
0001
0000
0001
,  // measure 22
0000
1000
0000
1000
,  // measure 23
0000
0010
0000
0010
,  // measure 24
0000
0100
0000
0100
,  // measure 25
0000
0010
0000
0010
,  // measure 26
0000
1000
0000
1000
,  // measure 27
0000
0100
0000
0100
,  // measure 28
0000
0000
0000
0000
,  // measure 29
0001
0000
0001
0000
,  // measure 30
1000
0000
1000
0000
,  // measure 31
0002
0000
0003
0000
,  // measure 32
2000
0000
3000
0000
,  // measure 33
0020
0000
0030
0000
,  // measure 34
0200
0000
0300
0000
,  // measure 35
0000
0000
0100
0000
,  // measure 36
0200
0000
0300
0000
,  // measure 37
0001
0000
0001
0000
,  // measure 38
1000
0000
1000
0000
,  // measure 39
0001
0000
1000
0000
,  // measure 40
0100
0000
0100
0000
,  // measure 41
0001
0000
0001
0000
,  // measure 42
0010
0000
1000
0000
,  // measure 43
0100
0000
0001
0000
,  // measure 44
0010
0000
0000
0000
,  // measure 45
0100
0000
0000
0000
,  // measure 46
0010
0000
0000
0000
,  // measure 47
0100
0000
0100
0000
,  // measure 48
0100
0000
0000
0000
;
