#TITLE:ノ☆イ☆ズ (キミのフェスタ mix);
#SUBTITLE:;
#ARTIST:GRJ Project;
#TITLETRANSLIT:NOISE (KIMI NO FESTA mix);
#SUBTITLETRANSLIT:;
#ARTISTTRANSLIT:;
#GENRE:;
#CREDIT:;
#BANNER:NOISE (KIMI NO FESTA mix).png;
#BACKGROUND:NOISE (KIMI NO FESTA mix)-bg.png;
#LYRICSPATH:;
#CDTITLE:;
#MUSIC:NOISE (KIMI NO FESTA mix).ogg;
#OFFSET:1.883000;
#SAMPLESTART:69.140617;
#SAMPLELENGTH:13.125000;
#LASTBEATHINT:1.883734;
#SELECTABLE:YES;
#DISPLAYBPM:128.000000;
#BPMS:0.000000=128.000000
,29.000000=136.000000
,30.000000=120.000000
,31.000000=128.000000
,33.000000=130.000000
,37.500000=128.100006
,51.000000=128.039993
,55.000000=127.980011
;
#STOPS:17.000000=0.937500,
19.000000=0.937500,
30.000000=0.468750,
77.000000=0.234409,
77.500000=0.234409,
80.000000=0.234409,
80.500000=0.234409,
91.000000=0.234413,
91.500000=0.234409,
93.750000=0.468822,
152.500000=0.937653,
154.500000=0.468826,
165.500000=0.937645,
198.000000=0.937645
;
#BGCHANGES:;
#KEYSOUNDS:;
#ATTACKS:;

//---------------dance-single - ----------------
#NOTES:
     dance-single:
     :
     Hard:
     13:
     0.498328,0.590958,0.393972,0.147740,0.213402,425.000000,377.000000,48.000000,18.000000,0.000000,0.000000,0.498328,0.590958,0.393972,0.147740,0.213402,425.000000,377.000000,48.000000,18.000000,0.000000,0.000000:
// measure 0
0000
0000
0000
0000
,  // measure 1
0000
0000
0000
0000
,  // measure 2
0000
0000
0000
0000
,  // measure 3
0000
0000
0000
0000
,  // measure 4
1100
0000
0011
0000
0110
0000
1001
0100
,  // measure 5
0010
0000
1010
0000
0001
0010
0100
0000
,  // measure 6
1010
0101
2002
3003
,  // measure 7
0011
0000
1100
0000
2000
3000
0101
0000
,  // measure 8
1001
0000
0000
0000
0000
0000
0000
0000
0000
0000
0000
0000
0001
0000
0000
0000
1000
0000
0000
0000
0001
0000
0000
0000
1001
0000
0000
0000
0000
0000
0000
0000
0000
0000
0000
0000
1000
0000
0000
0000
0000
0000
0000
0000
0000
1000
0000
0000
,  // measure 9
0010
0000
0100
0000
0001
0000
0000
0001
0100
0000
0010
0000
1000
0000
0000
0100
,  // measure 10
1000
0000
0010
0000
0100
0000
0000
0001
0100
0000
0010
0000
1000
0000
0000
0100
,  // measure 11
0010
0000
0100
0000
0001
0000
0000
0010
0100
0000
0010
0000
1000
0000
0000
0010
,  // measure 12
0100
0000
0010
0000
1000
0100
0000
0010
0001
0000
0100
0000
0001
0000
0000
1000
,  // measure 13
0100
0000
1000
0000
0001
0000
0000
0100
0001
0000
0100
0000
0010
1000
0000
1000
,  // measure 14
0010
0000
0100
0000
0001
0000
0000
1000
0100
0000
1000
0000
0001
0000
0000
0010
,  // measure 15
0001
0000
0010
0000
0001
0000
0000
0100
0010
0000
0100
0000
0001
1000
0001
1000
,  // measure 16
0001
0000
1000
0100
0010
0000
0001
0000
1000
0001
1000
0001
1000
0000
0010
0100
,  // measure 17
0010
0000
1000
0000
0001
0000
0100
0010
0100
0000
0001
0000
1000
0000
0001
0100
,  // measure 18
0001
1000
0010
0100
1001
0000
0001
1000
,  // measure 19
1001
0000
1010
1010
0001
0100
0010
0000
,  // measure 20
1001
0000
1001
0000
0010
0000
1000
0100
1000
0000
0010
0000
0100
0000
0001
0010
,  // measure 21
0001
0000
0100
0000
0010
0000
1000
0100
1000
0000
0001
0000
0100
0000
0010
0000
,  // measure 22
0110
0000
1000
0001
0101
0000
1100
0011
,  // measure 23
1000
0000
0100
0000
0010
0000
0001
0000
1001
0000
0000
0000
0010
0000
0000
1000
,  // measure 24
0100
0000
1000
0000
0001
0000
0000
0010
0001
0000
0100
0000
0010
0000
0000
1000
,  // measure 25
0010
0000
0100
0000
0001
0000
1001
0000
1001
0000
0000
0000
0001
0000
0000
1000
,  // measure 26
0010
0000
1000
0000
0100
0000
0010
0000
0001
0000
1000
0000
0001
0000
0000
0010
,  // measure 27
0001
0000
0100
0000
0010
0000
1010
0000
1010
0000
0000
0000
1000
0000
0100
1000
,  // measure 28
0100
0000
1000
0000
0010
0000
0100
0001
0100
0000
0010
0000
1000
0000
0100
0000
,  // measure 29
0010
0001
0100
0000
1001
0000
1000
0001
,  // measure 30
1000
0100
0010
0001
1000
0001
0010
0100
,  // measure 31
1000
0001
0100
0100
0101
0000
0010
0000
,  // measure 32
1000
0100
0001
1000
,  // measure 33
0010
0001
0110
2002
,  // measure 34
0000
0000
0000
0000
3003
0000
0100
0010
,  // measure 35
1000
0001
0200
0000
0300
0010
1010
0000
,  // measure 36
0101
0000
0000
0000
1000
0000
0000
1000
0100
0000
0010
0000
0001
0000
0000
0000
,  // measure 37
1100
0022
0033
0110
,  // measure 38
1001
0000
1010
0000
0101
0000
0000
1000
,  // measure 39
1001
0000
0000
0001
0100
0000
0000
0100
0010
0000
1000
0000
0001
0000
1000
0000
,  // measure 40
0010
0000
0000
0010
1000
0000
0000
1000
0002
0000
0000
0000
1003
0000
0000
0000
,  // measure 41
0110
1001
1100
0011
,  // measure 42
1000
0000
0001
0000
1000
0000
0001
0000
0000
0000
0000
0000
1000
0000
0000
0100
0000
0000
1000
0000
0000
0100
0000
0000
,  // measure 43
0010
0001
0010
0001
1000
0010
1000
0010
,  // measure 44
0100
0001
0100
0001
1000
0001
1000
0001
,  // measure 45
0200
0000
0310
0000
0001
1000
0001
1000
,  // measure 46
0020
0000
0130
0001
1000
0100
1000
0100
,  // measure 47
0010
0001
0010
0001
1000
0001
0100
0010
,  // measure 48
1000
0001
0100
0010
1000
0100
0010
0001
,  // measure 49
1000
0001
0100
0010
2002
3003
1001
0000
,  // measure 50
0010
0000
0000
1000
0100
0000
0010
0000
0001
0000
0000
1000
0100
0000
0010
0000
,  // measure 51
0001
0000
0000
1000
0100
0000
0010
0000
0001
0000
0100
0000
0010
0000
1000
0000
,  // measure 52
0001
0000
0000
0001
0010
0000
0100
0000
1000
0000
0000
0001
0010
0000
0100
0000
,  // measure 53
1000
0000
0000
0001
0010
0000
0100
0000
1000
0000
0010
0000
0001
0000
0010
0000
,  // measure 54
1000
0000
0000
0100
1000
0000
0010
0000
0100
0000
0000
1000
0100
0000
0010
0000
,  // measure 55
0001
0000
0000
1000
0100
0000
0010
0000
0001
0000
0100
0000
0010
0000
1000
0000
,  // measure 56
0001
0100
0010
1000
0100
0010
0001
1000
,  // measure 57
0020
0230
0302
1003
,  // measure 58
2002
0000
0000
0000
,  // measure 59
0000
0000
0000
0000
,  // measure 60
3003
0000
0000
0000
;

//---------------dance-single - ----------------
#NOTES:
     dance-single:
     :
     Medium:
     8:
     0.355279,0.443219,0.599166,0.279064,0.000000,303.000000,230.000000,73.000000,34.000000,0.000000,0.000000,0.355279,0.443219,0.599166,0.279064,0.000000,303.000000,230.000000,73.000000,34.000000,0.000000,0.000000:
// measure 0
0000
0000
0000
0000
,  // measure 1
0000
0000
0000
0000
,  // measure 2
0000
0000
0000
0000
,  // measure 3
0000
0000
0000
0000
,  // measure 4
0110
0000
0110
0000
0110
0000
0110
1000
,  // measure 5
0001
1100
0011
0000
,  // measure 6
0001
1010
0101
0000
,  // measure 7
1001
1001
0000
1001
,  // measure 8
1001
0220
0330
0010
,  // measure 9
1000
0100
0001
0010
,  // measure 10
0001
0000
0100
0000
0010
1000
0010
0000
,  // measure 11
0001
0100
1000
0010
,  // measure 12
1000
0000
0001
1000
0001
1000
0001
0000
,  // measure 13
0010
1000
0100
1000
,  // measure 14
0010
0000
0001
0000
0100
0010
0100
0000
,  // measure 15
0001
0000
1000
0000
0010
0000
0100
0010
,  // measure 16
0100
0010
0100
0000
1001
0000
0010
0000
,  // measure 17
1100
0000
0011
0000
1000
0100
0001
0000
,  // measure 18
0110
2002
3003
0011
,  // measure 19
1100
0000
0010
0010
1100
0000
0011
0000
,  // measure 20
0100
0100
0011
0000
1100
0000
0110
0000
,  // measure 21
1000
0100
0001
0000
1010
0000
0202
0000
,  // measure 22
0303
0000
0110
0000
1001
0000
1000
1000
,  // measure 23
0001
0000
1000
0000
1001
0000
1000
0100
,  // measure 24
1000
0000
0001
0100
0001
0000
1000
0000
,  // measure 25
1010
0000
0101
0000
0000
0000
0001
0010
,  // measure 26
0001
0000
1000
0100
1000
0000
0110
0000
,  // measure 27
1001
0110
0000
0200
,  // measure 28
0302
2003
3002
1003
,  // measure 29
1100
0011
0100
0010
,  // measure 30
1000
0100
0010
0000
0100
0010
0001
0000
,  // measure 31
0100
2002
3003
0001
,  // measure 32
0001
1000
1000
0010
,  // measure 33
0100
0001
1000
2002
,  // measure 34
0000
0000
3003
0010
,  // measure 35
0100
0001
1001
1100
,  // measure 36
1100
2002
3003
0101
,  // measure 37
0101
2002
3003
0010
,  // measure 38
0100
1001
1001
0000
,  // measure 39
1000
0101
2200
3300
,  // measure 40
0001
1010
0022
0033
,  // measure 41
0100
1001
0010
1001
,  // measure 42
0100
0000
0110
0000
1000
0100
1000
0000
,  // measure 43
0001
0100
0001
0000
0110
0000
1001
0000
,  // measure 44
0220
0330
1100
0011
,  // measure 45
2002
3003
0011
1010
,  // measure 46
0220
0330
1001
1010
,  // measure 47
0001
0010
0100
1000
0001
0000
1100
0000
,  // measure 48
0022
0033
0110
1001
,  // measure 49
2200
3300
0000
1001
,  // measure 50
0010
0000
1000
0010
1000
0000
1000
0001
,  // measure 51
1000
0000
1000
0100
1000
0000
0010
0100
,  // measure 52
0010
0000
0001
0010
0001
0000
0001
1000
,  // measure 53
0001
0000
0001
0100
0001
0000
0100
0010
,  // measure 54
0100
0000
0001
0100
0010
0000
0001
0100
,  // measure 55
0010
0000
1000
0010
0100
0000
1000
0010
,  // measure 56
0100
0000
0001
1000
0010
0000
0001
1000
,  // measure 57
0010
0100
1000
0010
,  // measure 58
2002
0000
0000
0000
,  // measure 59
0000
0000
0000
0000
,  // measure 60
3003
0000
0000
0000
;

//---------------dance-single - ----------------
#NOTES:
     dance-single:
     :
     Easy:
     5:
     0.221609,0.270856,0.180571,0.172363,0.000000,189.000000,167.000000,22.000000,21.000000,0.000000,0.000000,0.221609,0.270856,0.180571,0.172363,0.000000,189.000000,167.000000,22.000000,21.000000,0.000000,0.000000:
// measure 0
0000
0000
0000
0000
,  // measure 1
0000
0000
0000
0000
,  // measure 2
0000
0000
0000
0000
,  // measure 3
0000
0000
0000
0000
,  // measure 4
2002
3003
2002
3003
,  // measure 5
0010
0100
0010
0000
,  // measure 6
0100
0010
0100
0000
,  // measure 7
2002
3003
0000
2002
,  // measure 8
3003
0020
0030
1000
,  // measure 9
0001
1000
0001
1000
,  // measure 10
0100
0010
0001
0001
,  // measure 11
1000
0001
1000
0001
,  // measure 12
0010
0100
1000
0010
,  // measure 13
0010
0100
0100
0001
,  // measure 14
0010
0100
1000
0010
,  // measure 15
0010
0100
0100
1000
,  // measure 16
0001
1000
0001
1000
,  // measure 17
0000
0100
0000
0010
,  // measure 18
0000
0001
0000
1001
,  // measure 19
1001
0000
1001
1001
,  // measure 20
0000
0001
0000
0010
,  // measure 21
0000
0100
0000
1000
,  // measure 22
0000
0110
0110
0000
,  // measure 23
0110
0110
0000
1000
,  // measure 24
0001
1000
0001
1000
,  // measure 25
0001
1000
0000
0001
,  // measure 26
1000
0001
1000
0001
,  // measure 27
1000
0001
0000
1000
,  // measure 28
0100
0010
0001
1000
,  // measure 29
1000
1000
0000
0001
,  // measure 30
0010
0100
1000
0001
,  // measure 31
0001
0001
0000
0100
,  // measure 32
0100
0100
0000
0010
,  // measure 33
0010
0010
0000
2002
,  // measure 34
0000
0000
0000
3003
,  // measure 35
0000
0000
0000
1000
,  // measure 36
0100
0010
0000
0001
,  // measure 37
0010
0100
0000
2002
,  // measure 38
3003
2002
3003
0000
,  // measure 39
0010
1000
0001
0000
,  // measure 40
1000
0001
0010
0000
,  // measure 41
0220
0330
2002
3003
,  // measure 42
0001
1001
1000
0100
,  // measure 43
0010
0000
0100
0010
,  // measure 44
0001
0000
0100
0010
,  // measure 45
1001
0000
0010
0100
,  // measure 46
1001
0000
0001
0010
,  // measure 47
0100
0000
1000
0100
,  // measure 48
0010
0000
0001
1000
,  // measure 49
1001
0000
0000
0010
,  // measure 50
1000
0100
0010
0001
,  // measure 51
1000
0100
1000
0100
,  // measure 52
0001
0010
0100
1000
,  // measure 53
0001
0010
0001
0010
,  // measure 54
1000
0100
0001
0010
,  // measure 55
1000
0010
1000
0010
,  // measure 56
0001
0100
1000
0010
,  // measure 57
0001
1000
0001
0100
,  // measure 58
2002
0000
0000
0000
,  // measure 59
0000
0000
0000
0000
,  // measure 60
3003
0000
0000
0000
;

//---------------dance-single - ----------------
#NOTES:
     dance-single:
     :
     Beginner:
     3:
     0.117254,0.196986,0.049247,0.032831,0.000000,100.000000,94.000000,6.000000,4.000000,0.000000,0.000000,0.117254,0.196986,0.049247,0.032831,0.000000,100.000000,94.000000,6.000000,4.000000,0.000000,0.000000:
// measure 0
0000
0000
0000
0000
,  // measure 1
0000
0000
0000
0000
,  // measure 2
0000
0000
0000
0000
,  // measure 3
0000
0000
0000
0000
,  // measure 4
0010
0000
0010
0000
,  // measure 5
1000
0000
0000
0000
,  // measure 6
0001
0000
0000
0000
,  // measure 7
0100
0000
0000
0100
,  // measure 8
0000
0000
0000
0001
,  // measure 9
0000
0001
0000
0001
,  // measure 10
0000
0001
0000
1000
,  // measure 11
0000
1000
0000
1000
,  // measure 12
0000
1000
0000
0001
,  // measure 13
0000
0001
0000
0001
,  // measure 14
0000
0001
0000
1000
,  // measure 15
0000
1000
0000
1000
,  // measure 16
0000
0000
0000
0010
,  // measure 17
0000
0100
0000
0010
,  // measure 18
0000
0100
0000
0010
,  // measure 19
0000
0000
0010
0000
,  // measure 20
0000
0001
0000
1000
,  // measure 21
0000
0001
0000
1000
,  // measure 22
0000
0010
0000
0000
,  // measure 23
0010
0000
0000
0100
,  // measure 24
0000
0100
0000
0010
,  // measure 25
0000
0010
0000
0100
,  // measure 26
0000
0010
0000
0100
,  // measure 27
0000
0010
0000
1000
,  // measure 28
0000
1000
0000
0001
,  // measure 29
0000
0001
0000
1000
,  // measure 30
0000
0001
0000
1000
,  // measure 31
0000
0001
0000
1000
,  // measure 32
0000
0100
0000
0010
,  // measure 33
0000
0001
0000
2002
,  // measure 34
0000
0000
0000
3003
,  // measure 35
0000
0000
0000
0010
,  // measure 36
0000
0000
0000
0100
,  // measure 37
0000
0000
0000
1001
,  // measure 38
0000
1001
0000
0000
,  // measure 39
0001
0000
0000
0000
,  // measure 40
1000
0000
0000
0000
,  // measure 41
1001
0000
1001
0000
,  // measure 42
0010
0010
0010
0000
,  // measure 43
1000
0000
0100
0000
,  // measure 44
0001
0000
1000
0000
,  // measure 45
1000
0000
0001
0000
,  // measure 46
0001
0000
0010
0000
,  // measure 47
0001
0000
0100
0000
,  // measure 48
1000
0000
0001
0000
,  // measure 49
0001
0000
0000
0000
,  // measure 50
1000
0000
1000
0000
,  // measure 51
0001
0000
0001
0000
,  // measure 52
0010
0000
0010
0000
,  // measure 53
0100
0000
0100
0000
,  // measure 54
0001
0000
0001
0000
,  // measure 55
1000
0000
1000
0000
,  // measure 56
0010
0000
0100
0000
,  // measure 57
0001
0000
0000
0000
,  // measure 58
2002
0000
0000
0000
,  // measure 59
0000
0000
0000
0000
,  // measure 60
3003
0000
0000
0000
;
