#TITLE:MeteorGlow Aftermath;
#SUBTITLE:;
#ARTIST:Pan;
#TITLETRANSLIT:;
#SUBTITLETRANSLIT:;
#ARTISTTRANSLIT:;
#GENRE:;
#CREDIT:;
#BANNER:MeteorGlow Aftermath.png;
#BACKGROUND:MeteorGlow Aftermath-bg.png;
#LYRICSPATH:;
#CDTITLE:;
#MUSIC:MeteorGlow Aftermath.ogg;
#OFFSET:-0.032000;
#SAMPLESTART:67.304817;
#SAMPLELENGTH:13.636368;
#SELECTABLE:YES;
#BPMS:0.000000=264.000000
,88.000000=132.000000
,160.000000=66.000000
,168.000000=264.000000
,294.000000=132.000000
,308.000000=264.000000
;
#STOPS:189.500000=0.455000
;
#BGCHANGES:;
#KEYSOUNDS:;
#ATTACKS:;

//---------------dance-single - ----------------
#NOTES:
     dance-single:
     :
     Challenge:
     18:
     1.004570,1.848898,0.823257,0.282995,0.896150,820.000000,724.000000,96.000000,33.000000,0.000000,0.000000,1.004570,1.848898,0.823257,0.282995,0.896150,820.000000,724.000000,96.000000,33.000000,0.000000,0.000000:
0000
0000
0000
0000
,
0000
0000
0000
0000
,
0000
0000
0000
0000
,
0000
0000
0000
0000
,
0000
0000
0000
0000
,
0000
0000
0000
0000
,
0000
0000
0000
0000
,
0000
0000
0000
0000
,
0000
0000
0000
0000
,
0000
0000
0000
0000
,
1010
0000
0000
1001
0000
0000
0101
0000
,
0000
0000
0000
0000
0000
0000
0001
0000
0000
1000
0000
0000
0001
0000
0010
0000
0100
0000
1000
0000
0100
0000
0010
0000
,
0001
0000
0000
1000
0100
1000
0100
0000
0000
1001
0000
0000
,
1000
0010
0100
0001
2000
0000
0000
0000
,
3010
0100
0001
1000
1001
0000
0010
0001
,
0101
0100
0000
1001
1000
0000
0001
1000
,
0101
0000
0010
1000
1100
0000
0010
0001
,
0101
0100
0010
1010
0000
0000
1001
0000
,
2000
3001
0100
0002
1003
0100
0002
0103
,
0001
0010
0100
1000
0100
0010
0001
1000
,
0001
0000
0100
0000
0001
0000
0100
0000
1000
0000
0100
0000
1000
0000
0100
0000
0001
0000
0100
0000
0000
2000
0000
0000
,
0000
0000
0000
3000
1001
0000
0000
0000
,
0110
0000
0000
0010
1010
0001
2000
0000
0000
3001
0010
0100
0110
0000
0001
0000
,
1001
0000
0001
0010
0100
1000
0002
0000
0000
0103
0010
0100
0101
0000
1010
0000
,
0101
0000
1000
0001
0101
0100
0020
0000
0000
1030
0100
0010
0011
0000
0101
0000
,
0001
0000
0000
0100
0000
0000
0001
0000
0000
1000
0000
0000
0100
0000
0000
1000
0000
0000
0001
0000
0000
0000
0000
0000
1000
0000
0100
0000
0010
0000
0001
0000
0000
1000
0000
0000
0001
0000
0000
0000
0000
0000
0110
0000
0000
0000
0000
0000
,
1001
0000
1000
0001
0101
0100
0020
0000
0000
1030
0001
1000
0100
0000
1100
0000
,
0101
0000
0000
0000
0000
0000
0100
0000
0000
0010
0000
0000
1000
0000
0000
0001
0000
0000
0200
0000
0000
0000
0000
0000
0000
0000
0000
0310
0000
0000
1000
0000
0010
0000
0100
0000
0001
0000
0000
0000
0000
0000
1010
0000
0000
0000
0000
0000
,
0100
0001
0100
0010
1000
0010
0200
0000
0000
0301
0010
0100
1000
0000
0101
0000
,
1000
0010
1000
0001
0100
0001
2000
0000
0000
3001
0010
0100
1000
0000
0101
0000
,
1000
0000
0001
0000
0100
0000
0010
0000
0000
1000
0000
0000
0001
0000
0010
0000
0100
0000
1000
0000
0000
0001
0000
0000
1000
0000
0010
0000
0100
0000
0001
0000
1000
0000
0010
0000
0100
0000
0001
0000
1000
0000
0100
0000
0010
0000
0001
0000
,
1000
0000
1000
0000
1000
0000
1000
0000
0000
1000
0000
0000
2000
0000
0000
0000
0000
0000
3002
0000
0000
0000
0000
0000
,
0103
0010
1000
0000
0001
0100
0000
0010
1000
0000
0001
0100
0000
1000
0100
0001
,
0100
0000
1000
0000
0100
0000
0010
0000
0001
0000
0010
0000
1000
0000
0010
0001
0010
0000
0001
0000
0100
0000
0010
0100
0010
0000
1000
0000
0001
0000
0100
0000
,
0010
0000
1000
0000
0010
0000
0100
0000
0001
0100
0010
0000
1000
0000
0010
0000
1000
0000
0010
0000
0001
0000
0010
0000
1000
0000
0100
0000
0001
0000
0100
0000
,
1000
0010
0001
0010
1000
0010
0001
0010
1000
0100
0010
0001
1000
0100
0001
0100
,
1000
0000
0010
0000
0100
0001
0100
0000
0001
0000
0010
0000
0100
0000
1000
0000
0010
0000
0001
0000
0100
0010
0100
0010
0100
0000
0001
0000
1000
0000
0010
0000
,
1000
0100
0010
0001
0010
0100
1000
0100
0010
0001
0010
0100
1000
0010
0100
0001
0100
0010
1000
0001
0100
0010
0100
0001
,
1000
0000
0010
1010
0000
0100
0101
0000
1000
0000
0001
0001
0100
0000
1010
0000
,
0011
0000
0000
0000
0000
0000
0100
0000
0010
0000
1000
0000
0001
0000
0000
0000
0000
0000
2100
0000
0000
0000
0000
0000
0000
0000
0000
0000
0000
0000
3001
0000
0000
0010
0000
0000
0100
0000
0000
1000
0000
0000
0100
0000
0000
0010
0000
0000
,
0002
2003
3020
0230
,
0301
0000
0000
0001
0000
0000
0001
0000
2000
0000
0000
0000
3020
0000
0000
0000
0130
0000
0000
0100
0000
0000
0100
0000
0002
0000
0000
0000
1003
0000
0000
0000
,
1100
0000
0001
0100
0101
0000
1010
0000
,
0001
0000
0000
0010
0000
0000
0100
0000
0000
1000
0000
0000
0001
0000
0010
0000
0001
0000
0010
0000
0000
0100
0000
0000
,
0010
0000
1000
0010
1010
0000
0101
0000
,
1000
0000
0000
0010
0000
0000
0001
0000
0000
0010
0000
0000
1000
0000
0100
0000
0010
0000
0001
0000
0000
0010
0000
0000
,
1000
0000
0001
0010
0110
0000
1001
0000
,
1000
0000
0010
0000
0100
0000
0002
0000
1003
0000
0100
1000
0100
0000
0001
0000
,
0010
0001
0010
0000
1001
0000
0010
0100
0010
0000
0100
0000
0001
0000
0010
0000
,
0100
1000
0100
0010
0001
0000
1100
0100
,
1000
0000
0011
0000
1000
0010
0100
0001
,
1000
0000
0100
0000
0010
0000
0001
0000
0000
1000
0000
0000
1001
0000
0000
0000
0000
0000
0010
0000
0000
0100
0000
0000
,
0110
0000
1100
0000
0001
0010
0100
1000
,
0001
0000
0100
0000
0001
0000
0100
0000
0000
0010
0000
0000
1010
0000
0000
0000
0000
0000
0101
0000
0000
0100
0000
0000
,
0001
0000
1010
0000
0001
0010
0100
1000
,
0001
1000
0100
0010
0001
0000
1100
0000
,
0001
0000
1000
0001
1000
0000
0010
0000
1000
0000
0100
0000
0010
0000
0001
0000
,
0010
0100
1000
0001
1000
0000
0110
0010
,
0100
0000
0101
0000
0010
1000
0010
1000
,
0001
0000
0100
0000
0010
0000
0100
0000
0000
0001
0000
0000
1000
0000
0000
0000
0000
0000
0010
0000
0000
1000
0000
0000
,
0100
0000
0000
0000
1000
0000
0000
0000
0100
0000
0000
0000
1000
0000
0000
0000
0001
0000
0000
0000
1000
0000
0000
0000
0001
0000
0000
0000
0000
0000
0010
0000
0000
0001
0000
0000
0010
0000
0000
0000
0000
0000
0001
0000
0000
0000
0000
0000
,
0100
0000
0010
0000
0100
0000
0001
0000
1000
0000
0001
0000
0100
0000
0000
0000
0000
0000
0010
0000
0000
1000
0000
0000
,
1010
0000
0101
0000
1000
0100
0010
0001
,
0100
0000
0000
0010
0000
0000
0100
0000
0000
0001
0000
0000
0100
0000
0001
0000
0100
0000
0001
0000
1000
0000
0001
0000
,
1000
0000
0001
0100
0001
0000
1000
0000
0010
0000
0000
1001
0000
0000
0100
0000
,
0001
0010
0100
1000
0002
0000
0000
1003
,
0100
0010
0001
1000
1100
0000
0010
0011
,
0000
1000
1001
0000
0110
0000
0101
0000
,
0011
0000
0000
0000
0000
0000
0000
0000
0001
0000
0000
0000
0000
0000
0000
0000
0001
0000
0000
0000
1000
0000
0000
0000
0001
0000
0000
0000
0000
0000
0000
0000
0000
0000
0000
0000
0100
0000
0000
0000
0000
0000
0010
0000
0000
0100
0000
0000
,
0010
0000
1000
0000
0101
0000
0001
0100
,
0000
1000
0000
1001
0000
0001
0100
0001
,
0010
0000
0001
1000
0001
0000
1000
0000
0020
0000
0000
0000
0000
0000
0000
0000
,
0130
1001
1100
0110
,
0001
0010
0100
1000
2002
0000
3003
0000
,
1000
0100
0010
0001
1000
0000
0010
0000
1000
0000
0001
0010
0001
0000
1000
0000
,
0001
0010
0100
1000
0010
0000
0100
0000
0001
0010
0001
0100
0001
1000
0002
0000
,
1003
0100
1000
0010
1000
0001
2000
0000
3020
0000
0030
0000
1010
0000
0101
0000
,
1001
0000
0000
1001
0000
0000
1001
0000
2000
0000
0001
0000
3001
0000
0000
0000
,
1010
0000
0101
0100
0001
0000
1100
0000
,
0001
0000
1000
0001
1000
0000
0010
0000
1000
0000
0001
0000
1000
0000
0010
0000
,
1000
0100
0001
0100
0001
0100
1000
0010
,
0001
0010
0001
0010
1000
0010
0001
0010
,
1000
0001
0100
0001
1000
0000
0011
0000
,
0001
1000
0100
1000
0001
1000
0100
1000
,
0001
0000
0100
0000
0001
0000
1000
0000
0001
0000
1000
0000
0010
0000
0000
1000
0000
0000
0001
0000
0000
1000
0000
0000
,
1001
0000
0000
1010
0000
0000
1000
0000
0001
0000
0000
0000
0110
0000
0000
0000
,
1001
0000
1100
1100
1100
0000
0011
0000
,
1000
0000
0010
0100
0010
0000
1000
0000
0001
0000
1000
0000
1100
0000
0000
0000
,
1001
0000
1000
0001
0101
0000
1100
0000
,
0001
0000
1000
0100
1000
0000
0001
0000
1000
0000
0100
0000
0010
0000
0001
0000
,
1000
0001
1000
0001
0011
0000
1100
0000
,
0001
0000
0000
1010
0000
0000
0101
0000
0000
1001
0000
0000
0001
0000
1000
0000
,
0001
0010
0100
1000
0100
0010
0001
0010
0100
1000
0100
0010
,
0001
1000
0100
0010
0001
0010
0100
1000
0100
0010
0001
2000
,
0002
0000
0000
0000
,
0000
0000
0000
0000
,
0000
0000
0000
0000
,
0000
0000
0000
0000
,
3003
0000
0000
0000
;

//---------------dance-double - ----------------
#NOTES:
     dance-double:
     :
     Challenge:
     18:
     0.923714,1.722837,0.660321,0.162936,0.741789,754.000000,677.000000,77.000000,19.000000,0.000000,0.000000,0.923714,1.722837,0.660321,0.162936,0.741789,754.000000,677.000000,77.000000,19.000000,0.000000,0.000000:
00000000
00000000
00000000
00000000
,
00000000
00000000
00000000
00000000
,
00000000
00000000
00000000
00000000
,
00000000
00000000
00000000
00000000
,
00000000
00000000
00000000
00000000
,
00000000
00000000
00000000
00000000
,
00000000
00000000
00000000
00000000
,
00000000
00000000
00000000
00000000
,
00000000
00000000
00000000
00000000
,
00000000
00000000
00000000
00000000
,
00110000
00000000
00000000
11000000
00000000
00000000
00110000
00000000
,
00000000
10000000
00100000
01000000
00010000
00000000
00100000
00001000
,
00011000
00010100
00001010
00001001
,
00000000
00000001
00000010
00000100
00002000
00000000
00000000
00000000
,
00003010
00000000
00001000
00000000
00001010
00000000
00001000
00000100
,
00001100
00000000
00010000
00011000
00000000
00100000
00110000
00000000
,
01010000
00000000
10000000
01000000
01100000
00000000
10000000
00010000
,
01010000
00000000
00100000
00110000
00000000
00100000
00101000
00000000
,
00011000
00000000
00000000
00001100
00000000
00000000
00001001
00000000
,
00001000
00000100
00010000
00000100
00010000
00001000
00100000
00010000
,
01000000
00100000
01000000
00100000
10000000
01000000
00100000
00010000
01000000
00100000
01000000
00100000
,
20000000
00000000
30020000
00000000
,
01030000
00000000
10000000
01000000
00100000
00010000
01000000
00000000
00000000
00001000
00010000
00000000
00000100
00001000
00000010
00000000
,
00000100
00000000
00000000
00000000
00000000
00000000
00000001
00000000
00000000
00000010
00000000
00000000
00000100
00000000
00000000
00001000
00000000
00000000
00000100
00000000
00000000
00000000
00000000
00000000
00000000
00000000
00000000
00010000
00000000
00000000
00001000
00000000
00100000
00000000
00001000
00000000
00100000
00000000
00000000
00000000
00000000
00000000
00010000
00000000
00000000
00000000
00000000
00000000
,
01000000
00000000
00100000
10000000
00100000
01000000
00010000
00000000
00000000
00100000
00001000
00010000
00001000
00000000
00010000
00000000
,
00000100
00000000
00001000
00000010
00000000
00000100
00000001
00000000
00000000
00001000
00000010
00000100
00001000
00000000
00000010
00000000
,
00001000
00000000
00010000
00001000
00010000
00001000
00010000
00000000
00100000
00010000
01000000
00100000
01000000
10000000
00010000
10000000
,
01000000
00000000
00000000
00000000
00000000
00000000
10000000
00000000
00000000
00100000
00000000
00000000
00010000
00000000
00000000
00100000
00000000
00000000
10000000
00000000
00000000
00000000
00000000
00000000
00000000
00000000
00000000
01000000
00000000
00000000
00010000
00000000
00100000
00000000
00010000
00000000
00100000
00000000
00000000
00000000
00000000
00000000
00001000
00000000
00000000
00000000
00000000
00000000
,
00010000
00000000
00000100
00001000
00000010
00001000
00000100
00000000
00000000
00001000
00000100
00000010
00000001
00000000
00001000
00000000
,
00000100
00010000
00000100
00010000
00001000
00010000
00001000
00000000
00000000
00100000
00010000
01000000
00100000
00000000
10000000
00000000
,
10000000
01000000
00100000
00010000
10000000
01000000
00010000
01000000
10000000
01000000
00100000
00010000
00100000
01000000
10000000
01000000
00100000
00010000
10000000
00000000
00000000
00100000
00000000
00000000
,
01000000
00000000
01000000
00000000
01000000
00000000
01000000
00000000
00000000
00001000
00000000
00000000
00010000
00000000
00000000
00000000
00000000
00000000
00001002
00000000
00000000
00000000
00000000
00000000
,
00001003
00000100
00000010
00000000
00001000
00000100
00000000
00010000
00001000
00000000
00100000
00010000
00000000
01000000
00100000
10000000
,
00010000
00000000
10000000
00000000
00010000
00000000
00100000
00000000
00001000
00000000
00010000
00000000
00000100
00010000
00000100
00000000
00001000
00000000
00000010
00000000
00000100
00000001
00000100
00000000
00000010
00000000
00001000
00000000
00000100
00000000
00010000
00000000
,
00001000
00000000
00000000
00100000
00000000
00000000
00010000
00000000
00000000
01000000
00000000
00000000
00010000
00000000
00100000
00000000
01000000
00000000
10000000
00000000
00000000
00100000
00000000
00000000
01000000
00000000
00000000
00001000
00000000
00000000
00010000
00000000
00000000
00000100
00000000
00000000
00001000
00000000
00000000
00000010
00000000
00000000
00000100
00000000
00000000
00000001
00000000
00000000
,
00001000
00000100
00000010
00000001
00000010
00000100
00001000
00000100
00000010
00000100
00010000
00001000
00100000
00010000
01000000
00100000
,
10000000
00000000
01000000
00000000
00100000
00010000
00100000
00000000
00010000
00000000
01000000
00000000
00100000
00000000
10000000
00000000
00010000
00000000
00100000
00000000
00001000
00010000
00001000
00000000
00010000
00000000
00000100
00000000
00001000
00000000
00000010
00000000
,
00001000
00000000
00000100
00000000
00000010
00000000
00000001
00000000
00000010
00000000
00000100
00000000
00001000
00000000
00000100
00000000
00000010
00000000
00000001
00000000
00000010
00000000
00000100
00000000
00001000
00000000
00000010
00000000
00000100
00000000
00000001
00000000
00000100
00000000
00000010
00000000
00001000
00000000
00000000
00000100
00000000
00000000
00010000
00000000
00000000
00001000
00000000
00000000
,
00100000
00000000
00000000
00110000
00000000
00000000
11000000
00000000
00000000
00010000
00100000
00000000
11000000
00000000
00110000
00000000
,
11000000
00000000
00000000
00000000
00000000
00000000
00010000
00000000
00100000
00000000
00001000
00000000
00100000
00000000
00000000
00000000
00000000
00000000
00020000
00000000
00000000
00000000
00000000
00000000
00000000
00000000
00000000
00000000
00000000
00000000
01030000
00000000
00000000
00010000
00000000
00000000
00100000
00000000
00000000
00010000
00000000
00000000
00100000
00000000
00000000
00001000
00000000
00000000
,
00020000
00030020
00000230
00000302
,
00002003
00000000
00003200
00000000
00020300
00000000
20030000
30000000
,
00110000
00000000
10000000
00010000
10100000
00000000
01010000
00000000
,
10000000
01000000
00100000
00010000
00001000
00000100
00000010
00000001
,
00001000
00000000
00000001
00001000
00000101
00000000
00001000
00000000
,
00000001
00000010
00000100
00001000
00010000
00100000
01000000
10000000
,
10010000
00000000
10000000
00100000
01000000
00000000
00110000
00000000
,
00100000
00001000
00010000
00002000
00013000
00000000
00000010
00000110
,
00000000
00000001
00001001
00000000
00001000
00001100
00000000
00010000
,
00010100
00000000
00011000
00000000
00101000
00000000
00100000
00010000
,
01010000
00000000
10010000
00000000
00100000
10000000
01000000
10000000
,
00100000
00000000
01000000
00000000
00100000
00000000
01000000
00000000
00000000
00010000
00000000
00000000
00100000
00000000
00000000
00000000
00000000
00000000
00001000
00000000
00000000
00010000
00000000
00000000
,
00001000
00000000
00010000
00000000
00000010
00001000
00000100
00001000
,
00000001
00000000
00000100
00000000
00000001
00000000
00000100
00000000
00000000
00000001
00000000
00000000
00001000
00000000
00000000
00000000
00000000
00000000
00000010
00000000
00000000
00001000
00000000
00000000
,
00001010
00000000
00011000
00000000
00110000
00000000
00100000
00010000
,
01000000
00100000
10000000
01000000
00100000
00010000
01000000
00010000
,
10000000
00000000
01000000
00000000
00100000
00000000
00010000
00000000
00000000
10000000
00000000
00000000
00010000
00000000
00000000
00100000
00000000
00000000
00001000
00000000
00000000
00010000
00000000
00000000
,
00000010
00001000
00000100
00000010
00000001
00000000
00001000
00000010
,
00001010
00000000
00001100
00000000
00000100
00010000
00001000
01000000
,
00010000
01000000
10000000
01000000
00010000
00000000
00100000
00001000
,
00011000
00000000
00010010
00000000
00001000
00000010
00000001
00000010
,
00001000
00000100
00000010
00000001
00001000
00000000
00000100
00010000
,
00001000
00000000
00101000
00000000
10010000
00000000
10000000
01000000
,
00100000
00000000
00000000
00010000
00000000
00000000
00100000
00000000
00000000
00001000
00000000
00000000
00010000
00000000
00001000
00000000
00010000
00000000
00001000
00000000
00100000
00000000
00001000
00000000
,
00100000
00000000
00010000
01000000
00010000
00000000
01000000
00000000
00100000
00000000
00000000
10100000
00000000
00000000
00100000
00000000
,
10000000
01000000
00100000
00010000
00001000
00000000
00010000
00001000
,
00000100
00000010
00000001
00001000
00001001
00000000
00010000
00011000
,
00000000
00100000
00110000
00000000
11000000
00000000
01100000
00000000
,
10000000
00000000
00000000
00000000
00100000
00000000
00000000
00000000
01000000
00000000
00000000
00000000
00010000
00000000
00000000
00000000
00000000
00000000
00100000
00000000
00000000
00001000
00000000
00000000
,
00010000
00000000
00010100
00000000
00001010
00000000
00001000
00001001
,
00000000
00001100
00000000
00001010
00000000
00011000
00000000
00000100
,
00010000
00001000
00100000
00010000
02000000
00000000
00000000
00000000
,
13000000
00010000
10000000
00010000
10000000
01000000
00100000
00001000
,
00010000
00000000
00000010
00001000
00000010
00000000
00001000
00000000
00000002
00000000
00000000
00000000
00000003
00000000
00000000
00000000
,
00000010
00001000
00000100
00000000
00010000
00001000
00100000
00000000
00010000
00000000
10000000
01000000
00100000
00000000
00010000
00000000
,
01000000
00001000
01000000
00000000
00001000
00010000
00001000
00000000
00010000
00000000
00000100
00001000
00000010
00000100
00000001
00000000
,
00001000
00000000
00000100
00010000
00001000
00100000
00001000
00000000
00100000
00010000
01000000
00000000
00100000
10000000
01000000
00000000
,
10010000
00000000
00000000
10010000
00000000
00000000
10010000
00000000
00020000
00000000
00000000
00000000
00130000
00000000
00000000
00000000
,
11000000
00000000
00110000
00010000
01000000
00000000
01010000
00000000
,
10000000
00100000
01000000
00010000
00001000
00010000
00000010
00001000
,
00000100
00000000
00001000
00000001
00000101
00000000
00001100
00000000
,
00000010
00001000
00000100
00010000
00001000
01000000
00100000
10000000
,
01000000
00000000
00100000
00010000
01010000
00000000
00011000
00000000
,
00001100
00000000
00001000
00000010
00000100
00000001
00001000
00000100
,
00010000
00000000
00000000
00000000
00010000
00000000
00001000
00000000
00000000
00000000
00001000
00000000
00100000
00000000
00010000
00000000
00100000
00000000
00010000
00000000
00000000
01000000
00000000
00000000
,
00100000
00000000
00000000
10010000
00000000
00000000
01000000
00000000
00100000
00000000
10000000
00000000
00010000
00000000
01000000
00000000
,
00100000
00000000
10000000
00100000
00010000
00000000
10000000
01000000
,
00010000
10000000
00010000
10000000
00010000
00100000
00001000
00010000
,
00000010
00000000
00001000
00000100
00000010
00000000
00001001
00000000
,
00000001
00000010
00001000
00000010
00000001
00001000
00000100
00000001
,
00000100
00001000
00000010
00001000
00000100
00000000
00011000
00000000
,
00100000
00000000
00000000
01010000
00000000
00000000
10100000
00000000
00000000
01100000
00000000
00000000
01000000
00000000
00010000
00000000
,
10000000
00100000
10000000
00100000
01000000
00010000
01000000
00010000
00100000
00001000
00100000
00001000
,
00010000
00000100
00010000
00000100
00001000
00000010
00001000
00000010
00001000
00000100
00000010
00000002
,
00002000
00000000
00000000
00000000
,
00000000
00000000
00000000
00000000
,
00000000
00000000
00000000
00000000
,
00000000
00000000
00000000
00000000
,
00003003
00000000
00000000
00000000
;

//---------------dance-single - ----------------
#NOTES:
     dance-single:
     :
     Hard:
     16:
     0.757102,1.260612,0.385902,0.282995,0.338736,618.000000,573.000000,45.000000,33.000000,0.000000,0.000000,0.757102,1.260612,0.385902,0.282995,0.338736,618.000000,573.000000,45.000000,33.000000,0.000000,0.000000:
0000
0000
0000
0000
,
0000
0000
0000
0000
,
0000
0000
0000
0000
,
0000
0000
0000
0000
,
0000
0000
0000
0000
,
0000
0000
0000
0000
,
0000
0000
0000
0000
,
0000
0000
0000
0000
,
0000
0000
0000
0000
,
0000
0000
0000
0000
,
0110
0000
0000
1001
0000
0000
0101
0000
,
0000
0000
0001
1000
0001
1000
0010
0000
,
0110
0000
1000
0001
1000
0000
1001
0000
,
0000
0100
0010
2000
0002
0000
3003
0000
,
0110
0000
0001
0000
1001
0000
0010
0100
,
0001
0000
1000
0001
0000
1000
0001
0000
,
0101
0000
0010
1000
0001
0000
0010
0100
,
0001
0000
0100
0010
0000
1000
0001
0000
,
1001
0000
0000
0101
0000
0000
1100
0000
,
0000
0000
1000
0001
0010
0001
1000
0001
,
1000
0001
1000
0001
0100
0010
0100
0020
,
0000
0030
1001
0000
,
0010
0000
0000
1000
0010
0000
1001
0000
0000
0000
0001
0000
0101
0000
1000
0000
,
0100
0000
0000
0001
1000
0000
0101
0000
0000
0000
1000
0000
0110
0000
1000
0000
,
0001
0000
0000
0100
0010
0000
0101
0000
0000
0001
0100
0000
1010
0000
0100
0000
,
0001
0000
1000
0010
0000
1000
0100
0000
0000
1000
0010
1000
0001
0100
0001
0100
,
0010
0000
0000
0001
0100
0010
1000
0000
0000
0010
1000
0001
0100
0000
1000
0000
,
0010
0000
0000
0100
0001
1000
0010
0000
0000
1000
0001
0100
0010
0000
1000
0000
,
0001
0000
1000
0001
0000
1000
0020
0000
0000
0000
0130
0000
1001
0000
0000
0000
,
0001
0000
1000
0010
0000
1000
0200
0000
0000
0000
1300
0000
1001
0000
0001
0000
,
0200
0302
0023
2030
,
3001
0000
0100
0000
0001
0000
0100
0000
0000
0010
0000
0000
0110
0000
0000
0000
0000
0000
1001
0000
0000
0000
0000
0000
,
1000
0000
0001
0000
1000
0100
0000
1000
0010
0000
1000
0001
0000
1000
0100
0010
,
0001
1000
0001
0010
0100
1000
0001
0100
0001
1000
0100
0010
0001
1000
0010
0001
,
0010
1000
0001
0000
1000
0001
0010
0001
0000
1000
0001
0000
1000
0100
0001
0100
,
1000
0000
1000
0001
0000
0001
0010
0000
0010
0001
0000
0001
0100
0000
1001
0000
,
0100
0010
1000
0000
0001
0100
0001
0100
0010
0100
0010
0000
1000
0100
0010
0100
,
2000
0000
3200
0000
0320
0000
0032
0000
0023
0000
0230
0000
1300
0001
0100
0001
,
1000
0000
0000
0110
0000
0000
1001
0000
0000
0000
0001
0010
0001
0000
1100
0000
,
0101
0000
1000
0010
0100
0000
2002
0000
0000
0000
0000
3003
1001
0000
0000
0000
,
0002
0000
2003
0000
3010
0001
0200
0000
,
0302
0000
2003
3020
0230
0000
0302
1003
,
1100
0000
0001
0100
0001
0000
1000
0000
,
0001
0100
0001
0100
0010
1000
0100
1000
,
0010
0000
0100
0001
0100
0000
0010
0000
,
1000
0100
0010
0100
1000
0010
0100
0010
,
1000
0000
0001
0100
0001
0000
1000
0000
,
1000
0100
0010
0002
1003
0000
1000
0001
,
0000
0001
1000
0000
0010
0100
0000
0001
,
0010
0100
1000
0100
0010
0000
1000
0100
,
1000
0000
1001
0000
0010
0100
0010
1000
,
0001
0100
0010
0000
0001
0000
0100
0010
,
0100
0000
1001
0000
0010
0100
1000
0100
,
0010
0100
1000
0000
0101
0000
1000
0010
,
1000
0000
0101
0000
1000
0000
0010
0100
,
0010
0001
0010
0100
0010
0000
0001
0000
,
0010
0100
0010
0100
0010
0000
1000
0100
,
0000
0001
0010
0100
1000
0000
0001
0100
,
0001
0000
1100
0000
0001
0010
0100
1000
,
0010
0100
0001
0000
1001
0000
0001
0100
,
1000
0000
0101
0000
1000
0010
1000
0010
,
0100
0001
0100
0001
1000
0000
0001
0010
,
0100
1000
0001
0000
0100
0010
1000
0010
,
0100
0000
0000
0010
0000
0000
1000
0000
0000
0100
0000
0000
0010
0000
0000
0000
0010
0000
0001
0000
0000
0000
0001
0000
,
0100
0000
0010
0000
1000
0000
0001
0000
0100
0000
0000
0001
0000
0000
1000
0000
,
0010
0000
0100
0000
1002
0000
0000
1003
,
0100
0010
0001
0000
1100
0000
0000
0011
,
0000
0010
0110
1000
,
0010
0000
0001
0000
1000
0000
0001
0000
0000
1001
0000
0000
,
0010
0000
1000
0000
0101
0000
0001
0100
,
0000
1000
0001
1000
0000
0001
1000
0001
,
0010
0001
0100
0001
2000
0000
0000
0000
,
3010
1000
0010
1000
0001
0010
0001
0010
,
0100
1000
0001
0010
0200
0000
0300
0000
,
0001
0000
0100
0000
1000
0000
0000
0000
0100
0000
0010
1000
0010
0000
0100
0000
,
1000
0000
0100
0000
0001
0000
0010
0000
0100
0000
1000
0010
0100
0000
0001
0000
,
0010
0000
0001
0100
0010
0000
1000
0000
0001
0000
0010
0000
0100
0000
1000
0000
,
0001
0000
0000
1000
0000
0000
0001
0000
0000
0000
1000
0000
0001
0000
0000
0000
,
0010
0000
0100
0001
0100
0000
0010
0000
,
1000
0100
0010
0001
0010
0100
1000
0001
,
0100
0001
0100
0010
1000
0010
1000
0001
,
0010
0100
1000
0100
0010
0001
1000
0010
,
0100
0000
0001
0100
0001
0000
1100
0000
,
0001
0010
0100
1000
0010
0100
0001
1000
,
0100
0000
0000
0000
1000
0000
0001
0000
0000
0000
1000
0000
0010
0000
0000
1000
0000
0000
0001
0000
0000
1000
0000
0000
,
0100
0000
0000
1000
0000
0000
0001
0000
1000
0000
0010
0000
0100
0000
0001
0000
,
1000
0010
0100
0010
1000
0100
0010
0001
,
0100
0001
0010
0001
0100
0010
1000
0010
,
0100
0001
1000
0001
0010
0001
1000
0001
,
1000
0100
0010
0001
1000
0001
0100
0010
,
1000
0100
0010
0001
1000
0010
0100
0000
,
0001
0000
0000
0100
0000
0000
0001
0000
1000
0000
0010
0000
1000
0000
0001
0000
,
1000
0001
1000
0001
1000
0001
1000
0001
1000
0001
1000
0002
,
2000
0000
0000
3003
,
2002
0000
0000
0000
,
0000
0000
0000
0000
,
0000
0000
0000
0000
,
0000
0000
0000
0000
,
3003
0000
0000
0000
;

//---------------dance-double - ----------------
#NOTES:
     dance-double:
     :
     Hard:
     16:
     0.727700,1.050510,0.334448,0.300146,0.291570,594.000000,555.000000,39.000000,35.000000,0.000000,0.000000,0.727700,1.050510,0.334448,0.300146,0.291570,594.000000,555.000000,39.000000,35.000000,0.000000,0.000000:
00000000
00000000
00000000
00000000
,
00000000
00000000
00000000
00000000
,
00000000
00000000
00000000
00000000
,
00000000
00000000
00000000
00000000
,
00000000
00000000
00000000
00000000
,
00000000
00000000
00000000
00000000
,
00000000
00000000
00000000
00000000
,
00000000
00000000
00000000
00000000
,
00000000
00000000
00000000
00000000
,
00000000
00000000
00000000
00000000
,
01100000
00000000
00000000
10010000
00000000
00000000
01100000
00000000
,
00000000
00000000
00100000
00001000
00010000
00000000
00001000
00000000
,
00011000
00000000
00010000
00001000
00100000
00000000
00101000
00000000
,
00000000
00000000
00100000
00020000
20000000
00000000
30030000
00000000
,
00100000
00000000
10000000
00010000
00100000
00000000
00100000
00001000
,
00010000
00000000
00010000
00000100
00000000
00001000
00000010
00000000
,
00000100
00000000
00000001
00001000
00000100
00000000
00000100
00010000
,
00001000
00000000
00100000
00001000
00000000
01000000
00010000
00000000
,
00100000
00000000
10000000
00010000
00000000
00010000
00100000
00000000
,
00000000
00000000
00001000
00010000
00001000
00010000
00000100
00000000
,
00001000
00000010
00000100
00000010
00000100
00000001
00001000
00000020
,
00000000
00000000
00010030
00000000
,
00011000
00000000
00000000
00100000
00001000
00010000
00001000
00000000
00000000
00100000
00010000
00000000
01010000
00000000
00000000
00000000
,
00100000
00000000
00000000
10000000
01000000
10000000
00100000
00000000
00000000
10000000
00010000
00000000
00110000
00000000
00100000
00000000
,
00001000
00000000
00000000
00010000
00000100
00010000
00001000
00000000
00000000
00010000
00000100
00000000
00001000
00000000
00000010
00000000
,
00000100
00000000
00000001
00001000
00000000
00000100
00001000
00000000
00000000
00000100
00010000
00001000
00100000
00000000
00010000
00000000
,
01010000
00000000
01000000
00100000
10000000
00010000
10000000
00000000
00000000
00000000
01010000
00000000
01100000
00000000
00000000
00000000
,
00001000
00000000
00010000
00000100
00010000
00001000
00010000
00000000
00000000
00000000
00001000
00000000
00010000
00000000
00000010
00000000
,
00001000
00000000
00000100
00001000
00000000
00000001
00001000
00000000
00000000
00000010
00001000
00000000
00000100
00000000
00010000
00000000
,
00001000
00000000
00100000
00001000
00000000
01000000
00001000
00000000
00000000
01000000
00010000
00000000
10000000
00000000
00100000
00000000
,
20000000
30020000
00032000
00003002
,
00000103
00000000
00000100
00000000
00000100
00000000
00000100
00000000
00000000
00000010
00000000
00000000
00001000
00000000
00000000
00000000
00000000
00000000
00022000
00000000
00000000
00000000
00033000
00000000
,
00010000
00000000
00001000
00000000
00100000
00010000
00000000
01000000
00010000
00000000
10000000
00010000
00000000
00100000
00010000
01000000
,
00010000
00000000
00100000
00001000
00010000
00001000
00100000
00000000
00001000
00010000
00000100
00010000
00001000
00000000
00010000
00000010
,
00001000
00000000
00000001
00000000
00001000
00000100
00001000
00000000
00010000
00000000
00001000
00000000
00100000
00010000
00100000
00000000
,
00010000
00000000
01000000
00100000
00000000
10000000
00010000
00000000
01000000
00100000
00000000
10000000
00010000
00000000
00100000
00000000
,
00001000
00000000
00010000
00000000
00000010
00001000
00000100
00010000
00000100
00000000
00010000
00000000
00001000
00100000
00001000
01000000
,
00002000
00023000
00230000
02300000
23000000
30200000
00320000
02030000
,
03001000
00000000
00000000
00010100
00000000
00000000
00001010
00000000
00000000
00000000
00001000
00000001
00000100
00000000
00000010
00000000
,
00001000
00000000
00000100
00010000
00000100
00000000
00022000
00000000
00000000
00000000
00000000
00033000
00011000
00000000
00000000
00000000
,
00200000
00000000
00302000
00000000
00003002
00000203
00020300
00000000
,
00032000
02003000
23000000
30010000
,
00101000
00000000
00010000
00001000
00010000
00000000
00000100
00000000
,
00001000
00000100
00000010
00000001
00000010
00000100
00001000
00000000
,
00001100
00000000
00000100
00010000
00000100
00000000
00011000
00000000
,
00001000
00100000
00010000
00100000
00010000
01000000
00100000
10000000
,
01000000
00000000
10000000
00100000
01000000
00000000
01010000
00000000
,
01000000
00010000
00100000
00020000
10030000
00000000
10000000
01000000
,
00000000
01000000
00010000
00000000
00010000
00100000
00000000
00100000
,
00001000
00000000
00011000
00000000
00010100
00000000
00000100
00001000
,
00000010
00000000
00001001
00000000
00000001
00000010
00000100
00000010
,
00000001
00000100
00000010
00001000
00000100
00000000
00010000
00001000
,
00010000
00000000
00001000
00000000
00100000
00010000
01000000
00010000
,
00100000
01000000
10000000
01000000
00100000
00000000
00010000
01000000
,
00100000
00000000
11000000
00000000
00100000
00010000
01000000
00010000
,
00100000
00010000
10000000
00010000
10000000
00000000
01000000
00000000
,
00100000
10000000
01000000
10000000
00100000
01000000
00010000
00100000
,
00010000
01000000
00010000
10000000
00010000
00000000
00100000
00001000
,
00010000
00000000
00000100
00000000
00001000
00000100
00000010
00000001
,
00000010
00000100
00001000
00000000
00000100
00000000
00010000
00001000
,
00100000
00000000
00010000
00000000
01000000
00100000
10000000
00010000
,
10000000
00100000
01000000
00010000
00100000
00000000
00001000
00010000
,
00000100
00000000
00010000
00000000
00000010
00001000
00000100
00001000
,
00000010
00000000
00000000
00000000
00000000
00000000
00000100
00000000
00000000
00000001
00000000
00000000
00001000
00000000
00000000
00000000
00001000
00000000
00000001
00000000
00000000
00000000
00000001
00000000
,
00000100
00000000
00000010
00000000
00001000
00000000
00000100
00000000
00001000
00000000
00000000
00000100
00000000
00000000
00010000
00000000
,
00001000
00100000
00001000
00000000
00022000
00000000
00033000
00010000
,
00001000
00100000
00010000
01000000
00100000
00000000
00000000
10100000
,
00000000
00110000
01000000
00001000
,
00010000
00000000
00000000
00000000
00000100
00000000
00000000
00000000
00010000
00000000
00000000
00000000
00000100
00000000
00000000
00000000
00000000
00000000
00001000
00000000
00000000
00000010
00000000
00000000
,
00000100
00000000
00001001
00000000
00001100
00000000
00000100
00010000
,
00000000
00011000
00000000
00100000
00000000
00001000
00000000
00100000
,
00010000
01000000
00010000
10000000
00010000
00000000
00100000
00000000
,
00001000
00010000
00000100
00010000
00000010
00010000
00000010
00001000
,
00000001
00000010
00000100
00001000
00000020
00000000
00000030
00000000
,
00000001
00000010
00001000
00000000
00010000
01000000
10000000
01000000
,
00010000
00100000
01000000
10000000
00110000
01000000
10100000
00000000
,
00110000
00100000
00011000
00000000
00001100
00001000
00000101
00000000
,
00000010
00000000
00000000
00001000
00000000
00000000
00000100
00000000
00000000
00000000
00000000
00000000
00001001
00000000
00000000
00000000
,
00001000
00000000
00000100
00010000
00000100
00000000
00010000
00000000
,
00001000
00100000
00010000
00100000
00001000
00100000
00010000
01000000
,
00100000
00000000
10000000
01000000
00100000
00000000
10000000
00000000
,
00010000
00100000
00010000
01000000
00010000
00100000
00001000
00010000
,
00000100
00000000
00001000
00000100
00000010
00000000
00001001
00000000
,
00000001
00000100
00000010
00001000
00000100
00010000
00000100
00010000
,
00000010
00000000
00000010
00010000
00000000
00010000
00001000
00000000
00001000
00100000
00000000
00100000
,
00010000
00000000
00000000
01000000
00000000
00000000
00100000
00000000
10000000
00000000
00100000
00000000
01000000
00000000
00010000
00000000
,
10000000
01000000
10000000
01000000
00100000
00010000
00100000
00010000
,
10000000
01000000
00100000
01000000
00010000
01000000
00001000
00010000
,
00001000
00010000
00000010
00010000
00000100
00010000
00000010
00001000
,
00000100
00000010
00000001
00000010
00000100
00001000
00000100
00010000
,
00001000
00100000
00010000
01000000
00010000
10000000
00010000
01000000
,
00001000
00000000
00000000
00010000
00000000
00000000
00000010
00000000
00000000
00000000
00001000
00000000
00000100
00000000
00000010
00000000
,
00000001
00001000
00000001
00001000
00000001
00001000
00000001
00001000
00000001
00001000
00000001
00002000
,
00000002
00000000
00000000
00003003
,
00022000
00000000
00000000
00000000
,
00000000
00000000
00000000
00000000
,
00000000
00000000
00000000
00000000
,
00000000
00000000
00000000
00000000
,
00033000
00000000
00000000
00000000
;

//---------------dance-single - ----------------
#NOTES:
     dance-single:
     :
     Medium:
     14:
     0.562314,0.924449,0.334448,0.308721,0.115771,459.000000,420.000000,39.000000,36.000000,0.000000,0.000000,0.562314,0.924449,0.334448,0.308721,0.115771,459.000000,420.000000,39.000000,36.000000,0.000000,0.000000:
0000
0000
0000
0000
,
0000
0000
0000
0000
,
0000
0000
0000
0000
,
0000
0000
0000
0000
,
0000
0000
0000
0000
,
0000
0000
0000
0000
,
0000
0000
0000
0000
,
0000
0000
0000
0000
,
0000
0000
0000
0000
,
0000
0000
0000
0000
,
0010
0000
0000
1000
0000
0000
1001
0000
,
0000
0000
0110
0000
,
0010
0001
0100
1001
,
0000
0010
0200
0000
,
0301
0000
1001
0000
,
1010
0000
0000
1010
0000
0000
1000
0000
,
1001
0000
1001
0000
,
0101
0000
0000
0101
0000
0000
0100
0000
,
0110
0000
0000
0110
0000
0000
1001
0000
,
0000
0001
0100
1000
,
0010
0100
0001
2000
,
0000
0000
3001
0000
,
0100
0000
0000
0000
0010
1000
0010
0000
0000
0000
0100
0000
0001
0000
0000
0000
,
0100
0000
0000
0000
0001
0100
0001
0000
0000
0000
1000
0010
1000
0000
0000
0000
,
0010
0000
0000
0000
1000
0100
1000
0000
0000
0000
0010
0000
0100
0000
0000
0000
,
0001
0000
0000
1001
0000
0000
1001
0000
0000
0000
0010
0000
1000
0000
0100
0000
,
1000
0000
0000
0000
0010
0100
0010
0000
0000
0000
1000
0000
0100
0000
0010
0000
,
0001
0000
0000
0000
0010
1000
0010
0000
0000
0000
0100
0010
0100
0000
1000
0000
,
0001
0000
0000
0010
0000
0000
2002
0000
3003
0000
0001
0000
0100
0000
1000
0000
,
0010
0000
0000
1000
0000
0000
2002
0000
3003
0000
0100
0000
0010
0000
1000
0000
,
0200
2300
3020
0032
,
0203
0000
0000
0310
1000
0000
0101
0000
,
1000
0000
0010
0000
1000
0001
0000
1000
0001
0000
1000
0001
0000
0000
1000
0000
,
0100
0010
0001
0010
1000
0100
0010
0001
,
1000
0000
0010
0000
0100
0001
0100
0000
0010
0000
1000
0000
0100
1000
0100
0000
,
1000
0000
0001
1000
0000
0001
0100
0000
0001
0010
0000
0001
0100
0000
0001
0000
,
1000
0000
0010
0100
0010
0000
1000
0000
0001
0000
0010
0001
0010
0000
0001
0000
,
0100
0100
0001
0001
0010
0010
1000
1000
,
0100
0000
0000
0110
0000
0000
1001
0000
0000
0000
0001
0000
0010
0000
0100
0000
,
1000
0010
0100
2002
0000
0000
3003
0000
,
0020
0000
0032
0000
0103
0100
0200
0000
,
0320
2030
3200
0301
,
1001
0000
1000
0001
0100
0000
0001
0000
,
1000
0010
1000
0000
0001
0100
0001
0000
,
1001
0000
1000
0100
1000
0000
0010
0000
,
0100
0001
0100
0000
0010
1000
0010
0000
,
0100
0000
1000
0001
1000
0000
0010
0000
,
1000
0001
1000
0002
0013
0000
0000
0101
,
0000
0000
1010
0000
0000
0101
0000
0000
,
0010
0000
0100
0000
0001
0000
1000
0001
,
1000
0000
0010
0000
1000
0001
1000
0000
,
0001
0100
0001
0000
1000
0000
0010
0100
,
0010
0000
1000
0000
0001
0100
0001
0000
,
1000
0100
1000
0000
0010
0000
0100
0001
,
0100
0000
0010
0000
1000
0000
0100
1000
,
0100
0010
0100
0001
,
1000
0001
1000
0001
1000
0000
0001
0100
,
0000
0010
1000
0000
0001
0000
1000
0010
,
0100
0000
0001
0000
1000
0001
1000
0000
,
1000
0100
1000
0000
0010
0000
0100
0001
,
0100
0000
0010
0000
1000
0001
1000
0000
,
0001
0100
0001
0000
1000
0000
0010
0100
,
0010
0000
1000
0000
0001
0000
0100
0001
,
0100
0010
1000
0100
,
0010
0001
0110
0000
,
1001
0000
0001
0000
0110
0000
0000
1000
,
0010
0000
0010
0100
0001
0000
0000
1000
,
0001
0000
0100
0001
0100
0000
0001
0000
,
1000
0000
0000
0010
0000
0000
1000
0000
0010
0000
0000
0000
0000
0000
0000
0000
,
0100
0000
0001
0000
1001
0000
0000
0010
,
0000
0100
0000
1000
0000
0001
0000
0100
,
0000
0010
1000
0010
1000
0000
0000
0000
,
0001
0100
1000
0010
,
0001
1000
0001
1000
0002
0000
0003
0000
,
0010
1000
0010
0000
0100
0001
0100
0000
,
0010
0100
0010
0000
2200
0000
3300
0000
,
0022
0033
0220
0330
,
1000
0000
0000
1000
0000
0000
1000
0000
0000
0000
0000
0000
1001
0000
0000
0000
,
0000
0000
0010
1000
0010
0000
0100
0000
,
0001
1000
0001
0000
1000
0100
1000
0000
,
0001
0000
0010
0001
0010
0000
0001
0000
,
0100
0010
0100
0000
0001
1000
0001
0000
,
1000
0000
0010
0100
0010
0000
1000
0000
,
0001
0000
0010
0001
0010
0000
0001
0000
,
0100
1001
1100
0101
,
0100
0000
0000
0100
0000
0000
0100
0000
0001
0000
0000
0000
1000
0000
0000
0000
,
0011
0000
0100
0001
0100
0000
0010
0000
,
1000
0100
1000
0000
0001
0010
0001
0000
,
1000
0010
1000
0000
0001
0100
0001
0000
,
1000
0100
0010
0000
0001
0000
0100
0000
,
0001
0100
0001
0100
0001
0000
1000
0000
,
0001
0000
0000
0100
0000
0000
0001
0000
1000
0000
0000
0100
0000
0000
1000
0000
,
0002
0203
2300
3020
,
0032
0203
2300
3010
,
2002
0000
0000
0000
,
0000
0000
0000
0000
,
0000
0000
0000
0000
,
0000
0000
0000
0000
,
3003
0000
0000
0000
;

//---------------dance-double - ----------------
#NOTES:
     dance-double:
     :
     Medium:
     14:
     0.557414,1.050510,0.265843,0.291570,0.158648,455.000000,424.000000,31.000000,34.000000,0.000000,0.000000,0.557414,1.050510,0.265843,0.291570,0.158648,455.000000,424.000000,31.000000,34.000000,0.000000,0.000000:
00000000
00000000
00000000
00000000
,
00000000
00000000
00000000
00000000
,
00000000
00000000
00000000
00000000
,
00000000
00000000
00000000
00000000
,
00000000
00000000
00000000
00000000
,
00000000
00000000
00000000
00000000
,
00000000
00000000
00000000
00000000
,
00000000
00000000
00000000
00000000
,
00000000
00000000
00000000
00000000
,
00000000
00000000
00000000
00000000
,
00100000
00000000
00000000
01000000
00000000
00000000
10010000
00000000
,
00000000
10000000
00100000
01000000
,
00010000
00000000
00100000
00010000
00100000
00000000
00020000
00000000
,
00000000
00130000
00002000
00000000
,
00013000
00000000
00010100
00000000
,
00001000
00000000
00000000
00000010
00000000
00000000
00000001
00000000
,
00001000
00000000
00001001
00000000
,
00000100
00000000
00000000
00010000
00000000
00000000
00001000
00000000
,
01000000
00000000
00000000
10010000
00000000
00000000
00100000
00000000
,
00000000
00010000
00100000
00001000
,
00010000
00000010
00001000
00000100
,
00002000
00000000
00003002
00000000
,
00001003
00000000
00000000
00000000
00000010
00001000
00000010
00000000
00000000
00000000
00001000
00000000
00001100
00000000
00000000
00000000
,
00010000
00000000
00000000
00000000
00001000
00100000
00001000
00000000
00000000
00000000
00100000
00000000
00010000
00000000
01000000
00000000
,
00100000
00000000
00000000
10000000
00100000
10000000
00100000
00000000
00000000
00000000
01000000
00000000
00010000
00000000
00100000
00000000
,
00001000
00000000
00000000
00010000
00000000
00000000
00001100
00000000
00000000
00000000
00001000
00000000
00000010
00000000
00000100
00000000
,
00000001
00000000
00000000
00000100
00001000
00000100
00001000
00000000
00000000
00000000
00010000
00000000
00001000
00000000
00100000
00000000
,
00010000
00000000
00000000
00100000
00010000
00100000
00010000
00000000
00000000
00000000
01000000
00000000
00100000
00000000
10000000
00000000
,
00010000
00000000
00000000
10000000
00000000
00000000
20020000
00000000
30030000
00000000
00100000
00000000
00010000
00000000
00000000
00000000
,
00001000
00000000
00000000
00010000
00000000
00000000
00022000
00000000
00033000
00000000
00010000
00000000
00000100
00000000
00000000
00000000
,
00002000
00003020
00000032
00000203
,
00000320
00000000
00000000
00001030
00000100
00000000
00011000
00000000
,
00100000
00000000
00010000
00000000
01000000
00010000
00000000
10000000
00010000
00000000
01000000
00010000
00000000
00100000
00010000
00000000
,
01000000
00000000
00100000
00000000
10000000
00100000
10000000
00000000
00100000
00000000
01000000
00000000
00010000
00100000
00010000
00000000
,
01000000
00000000
00001000
00000000
00010000
00001000
00010000
00000000
00000100
00000000
00001000
00000000
00000010
00001000
00000010
00000000
,
00001000
00000000
00000001
00001000
00000000
00000010
00001000
00000000
00000100
00001000
00000000
00000010
00001000
00000000
00000100
00000000
,
00010000
00000000
00001000
00000000
00100000
00010000
00100000
00010000
00100000
00000000
00010000
00000000
10000000
01000000
10000000
01000000
,
10000000
00000000
00100000
01000000
00100000
00000000
01000000
00010000
01000000
00000000
00010000
00000000
00100000
00001000
00010000
00001000
,
00010000
00000000
00000000
00011000
00000000
00000000
00010100
00000000
00000000
00000000
00000100
00000000
00001000
00000000
00000010
00000000
,
00000001
00000100
00000010
00002002
00000000
00000000
00003003
00000000
,
00000002
00000000
00002003
00000000
00013000
00010000
00020000
00000000
,
00032000
00023000
20030000
30100000
,
10010000
00000000
10000000
00100000
10000000
00000000
00010000
00000000
,
00100000
00001000
00100000
00000000
00001000
00010000
00001000
00000000
,
00010000
00000000
00000100
00001000
00000100
00000000
00001000
00000000
,
00000001
00001000
00000001
00000000
00000010
00001000
00000010
00000000
,
00001000
00000000
00000100
00010000
00000100
00000000
00010000
00000000
,
00001000
00000000
00100000
00020000
01030000
00000000
00000000
01100000
,
00000000
00000000
10010000
00000000
00000000
01100000
00000000
00000000
,
10000000
00000000
10010000
00000000
10000000
00000000
00100000
01000000
,
00100000
00000000
10000000
00000000
00010000
00100000
00010000
00000000
,
01000000
00000000
00001000
00000000
00010000
00000000
00000100
00010000
,
00000100
00010000
00000010
00001000
,
00000001
00001000
00000001
00000000
00001000
00000000
00000100
00001000
,
00000100
00000000
00010000
00000000
00001000
00000000
01000000
00001000
,
01000000
00010000
10000000
00100000
,
01000000
00010000
01000000
00000000
00100000
00000000
10000000
00010000
,
00000000
10000000
00010000
00000000
10000000
00000000
00100000
01000000
,
00100000
01000000
00001000
00010000
,
00000010
00000000
00001000
00000001
00001000
00000000
00000100
00001000
,
00000100
00010000
00001000
01000000
,
00100000
10000000
00100000
00000000
01000000
00000000
00010000
00100000
,
00010000
00000000
00100000
00000000
00001000
00000000
00010000
00000100
,
00010000
00000100
00001100
00000110
,
00000011
00000000
00000000
00000000
00000110
00000000
00000000
00000000
00000001
00000000
00000000
00000001
00000000
00000000
00000001
00000000
,
00001000
00000000
00000010
00000000
00001001
00000000
00000000
00001000
,
00000100
00000000
00010000
00000000
00011000
00000000
00000000
00101000
,
00000000
00100000
00010000
01000000
,
00100000
00000000
00000000
00100000
00000000
00000000
10000000
00000000
00010000
00000000
00000000
00000000
00000000
00000000
10000000
00000000
,
00010000
00000000
01000000
00000000
01010000
00000000
00000000
00100000
,
00000000
00001000
00000000
00010000
00000000
00000010
00000000
00001000
,
00000000
00000001
00000010
00000100
00001000
00000000
00000100
00000000
,
00010000
00001000
00100000
00010000
,
01000000
00100000
01000000
00000000
20020000
00000000
30030000
00000000
,
10000000
01000000
00010000
00000000
00001000
00000000
00000100
00000000
,
00000001
00000100
00001000
00000000
00010000
00000000
01000000
00000000
,
10000000
00100000
00010000
00000000
00001000
00000000
00000010
00000000
,
00001000
00000000
00000000
00001000
00000000
00000000
00001000
00000000
00000000
00000000
00000000
00000000
00001001
00000000
00000000
00000000
,
00000000
00000000
00000010
00001000
00000010
00000000
00001000
00000000
,
00000100
00010000
00001000
01000000
,
00100000
00000000
10000000
00010000
10000000
00000000
00100000
00000000
,
01000000
00001000
00010000
00000010
,
00001000
00000000
00000001
00001000
00000100
00000000
00001000
00000000
,
00000100
00000000
00010000
00001000
00010000
00000000
00001000
00000000
,
00101000
00110000
00101000
01001000
,
00010000
00000000
00000000
00010000
00000000
00000000
00010000
00000000
10000000
00000000
00000000
00000000
00100000
00000000
00000000
00000000
,
10000000
00000000
00010000
01000000
00010000
00000000
01000000
00000000
,
00001000
00010000
00001000
00000000
00010000
00000010
00010000
00000000
,
00000100
00001000
00000100
00000000
00001000
00000001
00001000
00000000
,
00000010
00001000
00000010
00000000
00000010
00000000
00000100
00000000
,
00010000
00000100
00001000
00100000
,
00010000
00000000
00000000
00010000
00000000
00000000
00010000
00000000
20000000
00000000
00000000
00000000
30010000
00000000
00000000
00000000
,
00200000
20300000
30200000
00320000
,
00230000
02300000
03002000
00023000
,
00002000
00000000
00000000
00000000
,
00000000
00000000
00000000
00000000
,
00000000
00000000
00000000
00000000
,
00000000
00000000
00000000
00000000
,
00033000
00000000
00000000
00000000
;

//---------------dance-double - ----------------
#NOTES:
     dance-double:
     :
     Easy:
     10:
     0.384677,0.714347,0.180087,0.394477,0.025727,314.000000,293.000000,21.000000,46.000000,0.000000,0.000000,0.384677,0.714347,0.180087,0.394477,0.025727,314.000000,293.000000,21.000000,46.000000,0.000000,0.000000:
00000000
00000000
00000000
00000000
,
00000000
00000000
00000000
00000000
,
00000000
00000000
00000000
00000000
,
00000000
00000000
00000000
00000000
,
00000000
00000000
00000000
00000000
,
00000000
00000000
00000000
00000000
,
00000000
00000000
00000000
00000000
,
00000000
00000000
00000000
00000000
,
00000000
00000000
00000000
00000000
,
00000000
00000000
00000000
00000000
,
00001000
00000000
00000000
00010000
00000000
00000000
00011000
00000000
,
00000000
00100000
00001000
00000000
,
00100000
00010000
01000000
00100000
,
00000000
00000000
10010000
00000000
,
10000000
00000000
01000000
00000000
,
00220000
00000000
00330000
00000000
,
00001000
00000000
00000100
00000000
,
00000022
00000000
00000033
00000000
,
00000001
00000000
00000000
00000010
00000000
00000000
00001100
00000000
,
00000000
00000100
00010000
00000000
,
00001000
00000000
00100000
00000000
,
02000000
00000000
03100000
00000000
,
10000000
00000000
10010000
00010000
00000000
01000000
00100000
00000000
,
10000000
00000000
10010000
10000000
00000000
00100000
01000000
00010000
,
00100000
00000000
00011000
00010000
00000000
00000100
00001000
00000000
,
00000010
00000000
00000000
00000010
00000000
00000000
00000010
00000000
00000000
00000000
00001000
00000000
00001001
00000000
00000000
00000000
,
00000010
00000000
00001010
00001000
00000000
00000100
00010000
00000000
,
00001000
00000000
01001000
01000000
00000000
00100000
10000000
01000000
,
10000000
00000000
00000000
10000000
00000000
00000000
20000000
00000000
00000000
00000000
00000000
00000000
30010000
00000000
00000000
00000000
,
00100000
00000000
00000000
00100000
00000000
00000000
00200000
00000000
00000000
00000000
00000000
00000000
00301000
00000000
00000000
00000000
,
00020000
00030200
00000320
00000032
,
00000203
00000000
00020300
00032000
,
01003000
00010000
10000000
00000000
00100000
10000000
01000000
00000000
,
10000000
00100000
00010000
00000000
00100000
00001000
00010000
00000000
,
00001000
00010000
00000010
00000000
00000010
00001000
00000001
00000000
,
00001001
00000000
00000000
00001001
00000000
00000000
00001100
00000000
00000000
00001100
00000000
00000000
00001000
00000000
00000100
00000000
,
00010000
00001000
00020000
00000000
00031000
01000000
00002000
00000000
,
01003000
00010000
01000000
00010000
10000000
00100000
10000000
00100000
,
01000000
00000000
00000000
10010000
00000000
00000000
00100000
00000000
00000000
00000000
10000000
00000000
01000000
00000000
00100000
00000000
,
00010000
01000000
00100000
20020000
00000000
00000000
30030000
00000000
,
20000000
00000000
32000000
00000000
03010000
00010000
00020000
00000000
,
00032000
00003200
00000302
00000023
,
00001030
00000100
00001000
00000100
,
00010000
00001000
00010000
00001000
,
00100000
00010000
00100000
00010000
,
10000000
01000000
10000000
00100000
,
01000000
00010000
01000000
00001000
,
00020000
00000000
00000000
00031000
00010000
00000000
00000000
00000100
,
00000000
00000000
00001000
00000000
00000000
00000010
00000000
00000000
,
00001001
00000000
00001000
00000010
,
00001000
00000010
00010000
00001000
,
00010000
00001000
00100000
00010000
,
00100000
00010000
10000000
01000000
,
00100000
00010000
00100000
00001000
,
00100000
00001000
00010000
00000010
,
00010000
00000010
00001000
00000100
,
00000010
00000001
00000200
00000000
,
00000320
00000000
00001030
00000100
,
00001000
00000100
00010000
00001000
,
00010000
00001000
01000000
00010000
,
01000000
00010000
10000000
00100000
,
10000000
00100000
10000000
01000000
,
00100000
00010000
10000000
01000000
,
00100000
00010000
00200000
00000000
,
00302000
00000000
00013000
00000000
,
00000100
00001000
00000001
00000000
,
00001000
00000100
00001000
00000000
,
00000100
00010000
00000100
00010000
,
00001000
00010000
00001000
00000000
,
00100000
00010000
01000000
00000000
,
10010000
00000000
00100000
00000000
,
10000000
01000000
00100000
00000000
,
00001000
00010000
00000200
00000000
,
00002300
00000000
00003010
00000000
,
00000002
00000003
00000200
00000300
,
00002000
00003000
00020000
00030000
,
02000000
03000000
20000000
30000000
,
20020000
00000000
30030000
00000000
,
00100000
00000000
00001000
00000000
,
00010000
00001000
00010000
00000000
,
00000100
00001000
00000010
00001000
,
00000100
00001000
00000010
00000000
,
00000100
00000001
00000010
00000000
,
00000001
00000010
00000100
00000000
,
00001000
00000100
00001000
00000100
,
00020000
00000000
00032000
00000000
,
00103000
00010000
01000000
00010000
,
00100000
00001000
00100000
00001000
,
00010000
00000010
00001000
00000010
,
00001000
00000001
00001000
00000100
,
00010000
00000000
00001000
00000000
,
00100000
00000000
00001000
00000000
,
00020000
00000000
00000000
00000000
,
00002000
00000000
00000000
00033000
,
00022000
00000000
00000000
00000000
,
00000000
00000000
00000000
00000000
,
00000000
00000000
00000000
00000000
,
00000000
00000000
00000000
00000000
,
00033000
00000000
00000000
00000000
;

//---------------dance-single - ----------------
#NOTES:
     dance-single:
     :
     Easy:
     10:
     0.389577,0.714347,0.145785,0.360175,0.025727,318.000000,301.000000,17.000000,42.000000,0.000000,0.000000,0.389577,0.714347,0.145785,0.360175,0.025727,318.000000,301.000000,17.000000,42.000000,0.000000,0.000000:
0000
0000
0000
0000
,
0000
0000
0000
0000
,
0000
0000
0000
0000
,
0000
0000
0000
0000
,
0000
0000
0000
0000
,
0000
0000
0000
0000
,
0000
0000
0000
0000
,
0000
0000
0000
0000
,
0000
0000
0000
0000
,
0000
0000
0000
0000
,
1000
0000
0000
0001
0000
0000
1001
0000
,
0000
0010
0100
0000
,
0001
0010
0100
1000
,
0000
0001
1001
0000
,
1000
0000
0100
0000
,
0001
0000
0000
0001
0000
0000
0001
0000
,
1000
0000
0010
0000
,
0001
0000
0000
0001
0000
0000
0001
0000
,
0100
0000
0000
0010
0000
0000
0100
0000
,
0000
0001
1000
0000
,
0010
0000
1000
0000
,
0200
0000
0301
0000
,
1000
0000
1001
0001
0000
0100
0010
0000
,
1000
0000
1001
1000
0000
0010
0100
0001
,
0010
0000
0001
0100
0000
0010
0100
0000
,
0010
0000
0000
0010
0000
0000
0010
0000
0000
0000
0001
0000
1001
0000
0000
0000
,
0010
0000
0011
0001
0000
0100
0001
0000
,
1000
0000
1001
0001
0000
0010
1000
0100
,
1000
0000
0000
1000
0000
0000
2000
0000
0000
0000
0000
0000
3001
0000
0000
0000
,
0010
0000
0000
0010
0000
0000
0020
0000
0000
0000
0000
0000
0031
0000
0000
0000
,
0002
0023
0230
2300
,
3020
0000
0032
2003
,
3010
0001
1000
0000
0010
1000
0100
0000
,
1000
0010
0001
0000
0001
0010
1000
0000
,
0010
0100
0001
0000
0010
1000
0001
0000
,
1001
0000
0000
1001
0000
0000
0101
0000
0000
0101
0000
0000
0100
0000
0001
0000
,
1000
0000
0002
0000
0103
0001
2000
0000
,
3010
1000
0010
1000
0001
0100
0001
0100
,
0010
0000
0000
1001
0000
0000
0100
0000
0000
0000
1000
0000
0100
0000
0010
0000
,
0001
0100
0010
2002
0000
0000
3003
0000
,
2000
0000
3200
0000
0301
0001
0002
0000
,
0203
2300
3020
0032
,
0103
0010
0100
0010
,
1000
0001
1000
0001
,
0010
0001
0010
0001
,
1000
0100
1000
0010
,
0100
0001
0100
0001
,
2000
0000
0000
3001
0100
0000
0000
0010
,
0000
0000
1000
0000
0000
0001
0000
0000
,
1001
0000
1000
0010
,
1000
0010
0100
0001
,
0100
0001
1000
0100
,
0010
0001
1000
0100
,
0010
0001
0100
0001
,
0010
0001
1000
0010
,
0100
0010
1000
0100
,
0010
0001
0200
0000
,
0320
0000
1030
0100
,
1000
0100
0010
0001
,
0010
0001
0100
0010
,
1000
0001
0100
0010
,
1000
0001
1000
0100
,
0010
0001
0010
0100
,
1000
0001
0020
0000
,
2030
0000
3001
0000
,
0100
0010
1000
0000
,
0010
1000
0010
0000
,
0100
0001
0100
0001
,
1000
0001
1000
0000
,
0010
0001
0100
0000
,
1001
0000
0010
0000
,
1000
0100
0010
0000
,
1000
0001
0200
0000
,
0320
0000
1030
0000
,
0002
0003
0020
0030
,
2000
3000
0002
0003
,
0200
0300
2000
3000
,
2002
0000
3003
0000
,
0010
0000
1000
0000
,
0001
0100
0001
0100
,
0010
1000
0010
1000
,
0001
0010
0100
1000
,
0010
0100
0010
0100
,
1000
0100
0001
0100
,
1000
0001
1000
0001
,
0200
0000
0320
0000
,
1030
0001
0100
0001
,
0010
0001
0100
0001
,
1000
0100
0010
0001
,
1000
0010
1000
0100
,
1000
0000
0010
0000
,
0001
0000
0100
0000
,
2000
0000
0000
0000
,
0002
0000
0000
3003
,
2002
0000
0000
0000
,
0000
0000
0000
0000
,
0000
0000
0000
0000
,
0000
0000
0000
0000
,
3003
0000
0000
0000
;

//---------------dance-single - ----------------
#NOTES:
     dance-single:
     :
     Beginner:
     7:
     0.236441,0.403053,0.094332,0.180087,0.000000,193.000000,182.000000,11.000000,21.000000,0.000000,0.000000,0.236441,0.403053,0.094332,0.180087,0.000000,193.000000,182.000000,11.000000,21.000000,0.000000,0.000000:
// measure 0
0000
0000
0000
0000
,  // measure 1
0000
0000
0000
0000
,  // measure 2
0000
0000
0000
0000
,  // measure 3
0000
0000
0000
0000
,  // measure 4
0000
0000
0000
0000
,  // measure 5
0000
0000
0000
0000
,  // measure 6
0000
0000
0000
0000
,  // measure 7
0000
0000
0000
0000
,  // measure 8
0000
0000
0000
0000
,  // measure 9
0000
0000
0000
0000
,  // measure 10
0001
0000
0000
0001
,  // measure 11
0000
0000
1000
0000
,  // measure 12
1000
0000
0000
1000
,  // measure 13
0000
0000
0000
0000
,  // measure 14
0010
0000
0010
0000
,  // measure 15
0010
0000
0000
0000
,  // measure 16
0100
0000
0100
0000
,  // measure 17
0100
0000
0000
0000
,  // measure 18
0001
0000
1000
0000
,  // measure 19
0001
0000
1000
0000
,  // measure 20
0010
0000
0000
0000
,  // measure 21
0100
0000
0000
0000
,  // measure 22
0001
0100
0000
0100
,  // measure 23
1000
0100
0000
0100
,  // measure 24
0001
0100
0000
0100
,  // measure 25
1000
0100
0010
0001
,  // measure 26
1000
0100
0000
0100
,  // measure 27
0001
0100
0000
0100
,  // measure 28
1000
0010
0002
0003
,  // measure 29
0001
0100
2000
3000
,  // measure 30
0020
0030
0200
0300
,  // measure 31
0001
0100
2000
3000
,  // measure 32
0010
0010
1000
1000
,  // measure 33
0100
0100
0001
0001
,  // measure 34
0100
0100
1000
1000
,  // measure 35
0010
0010
0100
1001
,  // measure 36
0001
0001
1000
1000
,  // measure 37
0010
0010
0100
0100
,  // measure 38
0002
0003
2000
3000
,  // measure 39
0010
0100
2002
3003
,  // measure 40
0010
1000
0100
0001
,  // measure 41
0010
0001
0100
1000
,  // measure 42
0010
0000
0010
0000
,  // measure 43
0010
0000
1001
0000
,  // measure 44
0100
0000
0100
0000
,  // measure 45
0100
0000
1001
0000
,  // measure 46
0010
0000
0010
0000
,  // measure 47
0010
0000
1000
0000
,  // measure 48
0000
0001
0000
0000
,  // measure 49
1000
0000
0001
0100
,  // measure 50
0001
0000
0100
0000
,  // measure 51
0100
0000
1000
0000
,  // measure 52
1000
0000
0001
0000
,  // measure 53
0001
0000
1000
0010
,  // measure 54
1000
0000
0001
0000
,  // measure 55
0001
0000
1000
0000
,  // measure 56
0100
0000
0010
0000
,  // measure 57
1001
0000
0001
0100
,  // measure 58
0001
0000
0100
0000
,  // measure 59
0100
0000
0010
0000
,  // measure 60
0010
0000
1000
0000
,  // measure 61
1000
0000
0001
0000
,  // measure 62
0100
0000
1000
0000
,  // measure 63
0100
0000
0010
0000
,  // measure 64
1001
0000
0200
0000
,  // measure 65
0300
0000
0010
0000
,  // measure 66
1000
0001
1000
0000
,  // measure 67
0100
0000
0100
0000
,  // measure 68
0010
0000
0010
0000
,  // measure 69
0000
0000
1001
0000
,  // measure 70
0000
0000
0110
0000
,  // measure 71
0000
0000
1000
0000
,  // measure 72
0001
0000
0100
0000
,  // measure 73
0010
0000
2002
0000
,  // measure 74
0000
0000
3003
0000
,  // measure 75
0000
0000
0002
0003
,  // measure 76
2000
3000
0020
0030
,  // measure 77
0200
0000
0300
0000
,  // measure 78
0001
0100
0001
0000
,  // measure 79
0100
0000
0100
0000
,  // measure 80
0010
0000
0010
0000
,  // measure 81
1000
0000
1000
0000
,  // measure 82
0001
0000
0100
0000
,  // measure 83
1000
0000
0100
0000
,  // measure 84
0010
0010
0010
0000
,  // measure 85
0200
0000
0300
0000
,  // measure 86
0001
0000
1000
0000
,  // measure 87
0100
0100
0100
0000
,  // measure 88
1000
0000
0001
0000
,  // measure 89
0100
0100
0100
0000
,  // measure 90
0020
0000
0030
0000
,  // measure 91
0200
0000
0300
0000
,  // measure 92
2002
0000
0000
0000
,  // measure 93
0000
0000
0000
3003
,  // measure 94
1001
0000
0000
0000
;
