#TITLE:Made In Love;
#SUBTITLE:;
#ARTIST:黒魔;
#TITLETRANSLIT:;
#SUBTITLETRANSLIT:;
#ARTISTTRANSLIT:Chroma;
#GENRE:;
#CREDIT:;
#BANNER:Made In Love.png;
#BACKGROUND:Made In Love-bg.png;
#LYRICSPATH:;
#CDTITLE:;
#MUSIC:Made In Love.ogg;
#OFFSET:0.010000;
#SAMPLESTART:88.701897;
#SAMPLELENGTH:15.000000;
#SELECTABLE:YES;
#DISPLAYBPM:88.000000:176.000000;
#BPMS:0.000000=88.000000
,72.000000=176.000000
,76.000000=222.000000
,80.000000=258.000000
,86.000000=333.000000
,87.500000=348.000000
,89.000000=320.000000
,90.916664=88.000000
,102.000000=176.000000
,138.000000=44.000000
,140.000000=88.000000
,160.000000=176.000000
,248.000000=88.000000
;
#STOPS:
;
#BGCHANGES:;
#KEYSOUNDS:;
#ATTACKS:;

//---------------dance-single - ----------------
#NOTES:
     dance-single:
     :
     Hard:
     12:
     0.349706,0.539743,0.181061,0.398334,0.231758,338.000000,313.000000,25.000000,55.000000,0.000000,0.000000,0.349706,0.539743,0.181061,0.398334,0.231758,338.000000,313.000000,25.000000,55.000000,0.000000,0.000000:
0000
0000
0000
0000
,
0000
0000
0000
0000
,
0000
0000
0000
0000
,
0000
0000
0000
0000
,
0000
0000
0000
0000
,
0020
0000
0000
0000
0030
0001
0010
0100
,
1000
0000
0000
0001
0000
0000
0200
0000
0000
0000
0000
0000
0300
0000
0000
0000
,
0010
0000
1000
0010
0000
0000
0100
0000
0002
0000
0000
0000
2003
0000
0000
0000
,
3020
0000
0000
0000
,
0200
0000
0330
0002
,
2003
0000
0000
0000
3001
0100
0001
0100
0010
0000
0000
0000
1001
0000
0000
0000
,
0001
0001
1000
0100
0010
0010
0001
1000
,
0100
0100
0010
0001
1000
1000
0001
0100
,
0010
0010
1000
0001
0100
0100
0001
1000
,
0001
0000
0001
0000
0010
0000
0100
0000
1001
0000
0000
0000
0010
1000
0100
0000
,
1000
0000
1000
0000
0001
0100
0001
0000
1000
0000
1000
0000
0010
0100
0010
0000
,
1000
0000
1000
0000
0001
0010
0001
0000
1000
0000
1000
0000
0001
0100
0010
0000
,
1000
0000
1000
0000
0001
0100
0001
0000
1000
0000
1000
0000
0001
0010
0100
0000
,
2002
0000
0000
0000
,
0000
0000
0000
0000
,
0000
0000
0000
0000
,
0000
0000
0000
0000
,
0000
0000
0000
3003
,
0202
0000
0303
0000
1000
0000
0101
0000
1000
0000
0010
0100
0020
0000
0000
0000
,
0030
0000
1000
0000
0001
0000
1000
0000
0001
0100
0020
0000
2030
0000
3000
0001
,
0000
1000
0000
0000
0010
0000
0100
0000
0101
0000
0000
0000
1000
0000
1100
0000
,
0000
0010
0110
0000
1000
0100
0010
0100
,
0010
0001
1000
0010
0100
0010
0100
0002
,
2000
0000
3003
0000
1000
0001
1000
0010
,
0100
0010
1000
0001
1000
0010
0100
0010
,
1000
0100
0010
0001
1000
0100
1000
0001
,
0100
0001
1000
0100
1000
0001
0010
0001
,
1000
0100
0010
0001
1000
0010
0010
0100
,
0001
0001
2000
0000
3001
0010
0001
0010
,
0001
0100
0020
0000
0030
0000
0000
0000
,
1000
1000
0001
0001
0100
0100
0110
0000
,
1002
0203
0320
2030
,
3200
0000
0302
0000
0023
0000
2030
3000
,
0102
2003
3020
0230
,
0302
2003
3020
0230
,
0302
1003
1001
0100
,
0001
0000
0001
0100
0000
0100
0010
0000
0010
1000
0000
1000
,
0002
1003
1001
1000
,
1000
0000
1000
0010
0000
0010
0100
0000
0100
0001
0000
0001
,
0200
0310
1001
0100
,
0001
0100
0001
0100
0000
0000
0010
1000
0010
1000
0000
0000
,
0001
0000
0001
1000
0001
0000
1000
0000
1000
0001
1000
0000
,
0020
0230
0302
2003
,
3100
0000
0000
1001
0000
1000
0001
0000
0001
0100
0000
0100
,
0010
0000
0010
1000
0000
1000
0001
0000
0001
0100
0000
0000
,
0010
0000
0000
1001
0000
0001
1000
0000
1000
0100
0000
0100
,
1000
0000
1000
0001
0000
0001
1000
0000
1000
0010
0000
0000
,
1001
0000
0000
0001
1000
0001
1000
0000
1000
0010
0000
0000
,
0110
0000
0100
0010
0000
0000
1001
0000
1000
0001
0000
0000
,
2002
0000
0000
0000
,
0000
0000
0000
3003
,
0220
0000
0000
0000
,
0000
0000
0000
0330
,
2200
0000
0000
0000
,
0000
0000
0000
3300
,
0022
0000
0000
0000
,
0000
0000
0000
0033
,
2000
0000
0000
0000
3000
0001
0100
0010
,
1000
0000
0000
0001
0000
0000
0200
0000
0000
0000
0000
0000
0000
0000
0000
0000
,
0301
0000
0000
0000
0001
0000
0000
0000
0100
0000
0000
0000
0010
0000
1000
0000
0010
0000
0000
0000
1000
0000
0010
0000
1000
0000
0000
0000
0001
0000
0000
0000
1000
0000
0001
0000
1000
0000
0000
0001
0000
0000
1000
0000
0000
0001
0000
0000
,
0000
0000
0000
0000
0000
0000
1000
0000
0000
0000
0000
0000
0000
0000
0000
0000
0000
0000
0000
0000
0000
0000
0000
0000
0000
0000
0000
0000
0000
0000
0001
0000
0000
0000
0000
0000
0000
0000
0000
0000
0000
0000
0000
0000
0000
0000
0000
0000
0000
0000
0000
0000
0000
0000
1000
0000
0000
0000
0000
0000
0000
0000
0000
0000
0000
0000
0000
0000
0000
0000
0000
0000
0000
0000
0000
0000
0000
0000
0000
0000
0002
0000
0000
0000
0000
0000
0000
0000
0000
0000
0000
0000
0000
0000
0000
0000
0000
0000
0000
0000
0000
0000
0000
0000
0000
0000
0000
0000
0000
0000
0000
0000
0000
0000
0000
0000
0000
0000
0000
0000
0000
0000
0000
0000
0000
0000
0000
0000
0000
0000
0000
0000
0000
0000
0000
0000
0000
0000
0000
0000
0000
0000
0000
0000
0003
0000
0000
0000
0000
0000
0000
0000
0000
0000
0000
0000
0000
0000
0000
0000
0000
0000
0000
0000
0000
0000
0000
0000
0000
0000
0000
0000
0000
0000
0000
0000
0000
0000
0000
0000
0000
0000
0000
0000
0000
0000
0000
0000
0000
0000
0000
0000
,
2002
0000
0000
0000
,
0000
0000
0000
0000
0000
0000
0000
0000
0000
0000
0000
3003
1001
0000
0000
0000
;

//---------------dance-double - ----------------
#NOTES:
     dance-double:
     :
     Hard:
     11:
     0.313494,0.515209,0.137606,0.391092,0.130364,303.000000,284.000000,19.000000,54.000000,0.000000,0.000000,0.313494,0.515209,0.137606,0.391092,0.130364,303.000000,284.000000,19.000000,54.000000,0.000000,0.000000:
00000000
00000000
00000000
00000000
,
00000000
00000000
00000000
00000000
,
00000000
00000000
00000000
00000000
,
00000000
00000000
00000000
00000000
,
00000000
00000000
00000000
00000000
,
00020000
00000000
00000000
00000000
00030000
00100000
00001000
00010000
,
00000010
00000000
00000000
00001000
00000000
00000000
00002002
00000000
00000000
00000000
00000000
00000000
00003003
00000000
00000000
00000000
,
00000100
00010000
00001000
00000000
00200000
00000000
00310000
01000000
,
00200000
00000000
00000000
00000000
,
20000000
00000000
00000000
00000000
00000000
30300000
00020000
00030000
,
02000000
00000000
03000000
00000000
00100000
10000000
00100000
10000000
01000000
00000000
00000000
00000000
10010000
00000000
00000000
00000000
,
10000000
00100000
01000000
01000000
00001000
00010000
00000100
00000100
,
00001000
00000100
00000010
00000001
00001000
00001000
00000100
00010000
,
00001000
00001000
00100000
00010000
10000000
10000000
01000000
00100000
,
00010000
00010000
00100000
00001000
00010000
00010000
00000010
00000010
,
00001000
00000000
00001000
00000001
00001000
00000000
00000010
00000000
00001000
00000000
00001000
00000100
00001000
00000000
00000100
00000000
,
00010000
00000000
00010000
00001000
00010000
00000000
00000100
00000000
00010000
00000000
00010000
00001000
00010000
00000000
00001000
00000000
,
00100000
00000000
00100000
00010000
01000000
00000000
00100000
00000000
10000000
00000000
01000000
00000000
00100000
00000000
00010000
00000000
,
20020000
00000000
00000000
00000000
,
00000000
00000000
00000000
00000000
,
00000000
00000000
00000000
00000000
,
00000000
00000000
00000000
00000000
,
00000000
00000000
00000000
30030000
,
00200000
00000000
00300000
00000000
10000000
00000000
01010000
00000000
10000000
00000000
00100000
01000000
00020000
00000000
00000000
00000000
,
00030000
00000000
00100000
00000000
00001000
00000000
00010000
00000000
00000100
00001000
00000100
00001000
00000100
00000000
00000000
00001000
,
00000000
00000001
00000000
00000000
00001000
00000000
00000010
00000000
00001010
00000000
00000000
00000000
00001000
00000000
00000100
00000000
,
00000000
00010000
00001000
00000000
00200000
00000000
00310000
02000000
,
00000000
03100000
20000000
00000000
30010000
00200000
00000000
00301000
,
00010000
00000000
00011000
00000000
00010000
00000100
00010000
00000100
,
00001000
00000100
00001000
00000100
00000010
00000001
00001000
00000100
,
00000010
00000001
00001000
00000100
00010000
00001000
00010000
00001000
,
00100000
00001000
00100000
00010000
10000000
01000000
00100000
00010000
,
10000000
01000000
00100000
00010000
00100000
00001000
00100000
00001000
,
00010000
00001000
00020000
00000000
00030100
00010000
00000100
00010000
,
00001000
00010000
00002000
00000000
00003000
00000000
00000000
00000000
,
00100000
00100000
00100000
00100000
00010000
00010000
10010000
00000000
,
00200000
20300000
32000000
03020000
,
00032000
00003200
00000302
00000023
,
00000032
00000203
00000320
00002030
,
00003200
00020300
00031000
00010000
,
00011000
00000000
00000000
00001000
00000000
00001000
00100000
00000000
00100000
00010000
00000000
00000000
,
01000000
00000000
01000000
00010000
00000000
00000000
10000000
00000000
10000000
00100000
00000000
00000000
,
01100000
00000000
00000000
01000000
00000000
01000000
00010000
00000000
00010000
00100000
00000000
00000000
,
00100000
00000000
00100000
00001000
00000000
00000000
00010000
00000000
00010000
00001000
00000000
00000000
,
00010000
00000000
00000000
00000100
00000000
00000100
00001000
00000000
00001000
00000100
00000000
00000000
,
00001000
00000000
00001000
00000010
00000000
00000000
00000100
00000000
00000100
00000001
00000000
00000000
,
00001000
00000010
00001000
00000010
00000000
00000000
00000100
00000001
00000100
00000001
00000000
00000000
,
00001000
00000010
00000100
00000001
,
00001001
00000000
00000000
00000001
00000000
00000001
00001000
00000000
00000000
00000100
00000000
00000000
,
00020000
00032000
02003000
03010000
,
10010000
00000000
00000000
00100000
00000000
00100000
10000000
00000000
00000000
10010000
00000000
00000000
,
02000000
03020000
00230000
00301000
,
00011000
00000000
00000000
00010000
00000000
00010000
00000100
00000000
00000000
00001000
00000000
00000000
,
00000020
00000130
00002000
00003001
,
00002002
00000000
00000000
00000000
,
00000000
00000000
00000000
00003003
,
00020200
00000000
00000000
00000000
,
00000000
00000000
00000000
00030300
,
02002000
00000000
00000000
00000000
,
00000000
00000000
00000000
03003000
,
20020000
00000000
00000000
00000000
,
00000000
00000000
00000000
30030000
,
00200000
00000000
00000000
00000000
00300000
00010000
01000000
00100000
,
10000000
00000000
00000000
00010000
00000000
00000000
02000000
00000000
00000000
00000000
00000000
00000000
00000000
00000000
00000000
00000000
,
03100000
00100000
00000000
01000000
01000000
00000000
00010000
00010000
00000000
20000000
00000000
00000000
,
00020000
00000000
00000000
30030000
,
00022000
00000000
00000000
00000000
,
00000000
00000000
00000000
00000000
00000000
00000000
00000000
00000000
00000000
00000000
00000000
00033000
00011000
00000000
00000000
00000000
;

//---------------dance-double - ----------------
#NOTES:
     dance-double:
     :
     Medium:
     7:
     0.205892,0.318939,0.159334,0.354880,0.010864,199.000000,177.000000,22.000000,49.000000,0.000000,0.000000,0.205892,0.318939,0.159334,0.354880,0.010864,199.000000,177.000000,22.000000,49.000000,0.000000,0.000000:
00000000
00000000
00000000
00000000
,
00000000
00000000
00000000
00000000
,
00000000
00000000
00000000
00000000
,
00000000
00000000
00000000
00000000
,
00000000
00000000
00000000
00000000
,
02000000
00000000
00000000
00000000
03000000
00000000
10000000
00010000
,
20000000
00000000
30020000
00000000
,
00130000
00001000
00010000
00001000
,
00022000
00000000
00000000
00000000
,
00033000
00000000
00000000
00200000
,
00320000
02030000
03100000
10010000
,
10000000
01000000
10000000
00000000
00010000
01000000
00010000
00000000
,
10000000
00010000
10000000
00000000
00010000
00000000
00100000
00000000
,
00001000
00010000
00001000
00000000
00010000
00000010
00010000
00000000
,
00000010
00001000
00000010
00000000
00000100
00000000
00000001
00000000
,
00001000
00000100
00001000
00000000
00000100
00010000
00000100
00000000
,
00010000
00000000
00001000
00000000
00100000
00010000
00100000
00000000
,
00010000
00000000
01000000
00000000
00100000
10000000
00010000
00000000
,
20020000
00000000
00000000
00000000
,
00000000
00000000
00000000
00000000
,
00000000
00000000
00000000
00000000
,
00000000
00000000
00000000
00000000
,
00000000
00000000
00000000
30030000
,
00100000
00000000
10000000
01000000
00100000
00010000
10010000
00000000
,
00000000
00000000
00010000
00100000
00001000
00010000
00001000
00000000
,
00010000
00001000
00022000
00000000
,
00033000
00000000
00000000
00000000
00010000
00000000
00000000
00000100
,
00000000
00000000
00001000
00000000
00000000
00000001
00000000
00000000
,
00001001
00000000
00000001
00000100
,
00000010
00001000
00000100
00010000
,
00001000
01000000
00010000
00100000
,
01000000
10000000
00100000
01000000
,
00010000
00100000
00001000
00010000
,
00000010
00000000
00001000
00000100
,
00002002
00003003
00000000
00000000
,
00000010
00001000
00000100
00010000
,
00022000
00033000
00200000
00300000
,
00020000
00030000
02000000
03000000
,
20000000
30000000
00200000
00300000
,
00020000
00030000
00200000
00302000
,
00013000
00000000
00010000
00000100
,
00001000
00000010
00000100
00000001
,
00002002
00003003
00000010
00001000
,
00000100
00010000
00001000
01000000
,
20020000
30030000
10000000
00100000
,
01000000
00001000
00010000
00000010
,
00001000
00000000
00001000
00000100
00000000
00000000
00000010
00000000
00000010
00000001
00000000
00000000
,
00000100
00000010
00001000
00000100
,
00010000
00010000
00011000
00001000
,
01000000
00010000
10010000
00000000
,
10000000
10000000
10010000
00010000
,
00100000
00001000
00011000
00000000
,
00010000
00000100
00001000
00000010
,
00000220
00000330
00002002
00003003
,
00002200
00000000
00000000
00000000
,
00000000
00000000
00000000
00003300
,
00022000
00000000
00000000
00000000
,
00000000
00000000
00000000
00033000
,
00220000
00000000
00000000
00000000
,
00000000
00000000
00000000
00330000
,
02020000
00000000
00000000
00000000
,
00000000
00000000
00000000
03030000
,
20000000
00000000
00000000
00000000
30000000
00010000
01000000
00010000
,
01000000
00000000
00000000
01000000
00000000
00000000
00200000
00000000
00000000
00000000
00000000
00000000
00000000
00000000
00000000
00000000
,
02300000
03020000
00230000
00302000
,
00020000
00000000
00000000
00033000
,
00022000
00000000
00000000
00000000
,
00000000
00000000
00000000
00000000
00000000
00000000
00000000
00000000
00000000
00000000
00000000
00033000
00011000
00000000
00000000
00000000
;

//---------------dance-single - ----------------
#NOTES:
     dance-single:
     :
     Medium:
     7:
     0.205892,0.368007,0.166576,0.383849,0.010864,199.000000,176.000000,23.000000,53.000000,0.000000,0.000000,0.205892,0.368007,0.166576,0.383849,0.010864,199.000000,176.000000,23.000000,53.000000,0.000000,0.000000:
0000
0000
0000
0000
,
0000
0000
0000
0000
,
0000
0000
0000
0000
,
0000
0000
0000
0000
,
0000
0000
0000
0000
,
0200
0000
0000
0000
0300
0000
1000
0001
,
2000
0000
3002
0000
,
0013
0001
1000
0001
,
2002
0000
0000
0000
,
3003
0000
0000
0020
,
0032
0203
0310
1001
,
1000
0100
1000
0000
0001
0100
0001
0000
,
1000
0001
1000
0000
0001
0000
0010
0000
,
1000
0001
1000
0000
0001
0100
0001
0000
,
0010
1000
0010
0000
0100
0000
0001
0000
,
1000
0100
1000
0000
0001
0100
0001
0000
,
1000
0000
0001
0000
0100
0001
0100
0000
,
0010
0000
0100
0000
0010
1000
0001
0000
,
2002
0000
0000
0000
,
0000
0000
0000
0000
,
0000
0000
0000
0000
,
0000
0000
0000
0000
,
0000
0000
0000
3003
,
0010
0000
1000
0100
0010
0001
1001
0000
,
0000
0000
0001
0010
0001
1000
0001
0000
,
1001
0110
2002
0000
,
3003
0000
0000
0000
0001
0000
0000
0100
,
0000
0000
1000
0000
0000
0001
0000
0000
,
1001
0000
1000
0100
,
0010
0001
1000
0001
,
1000
0100
1000
0010
,
0100
0001
0010
0100
,
1000
0010
0100
0001
,
2002
3003
0100
0010
,
2002
3003
0000
0000
,
0010
0001
0100
1000
,
2002
3003
0020
0030
,
0002
0003
0200
0300
,
2000
3000
0020
0030
,
0002
0003
0020
2030
,
3001
0000
0001
1000
,
0010
0100
0001
1000
,
2002
3003
0010
0001
,
0100
0010
1000
0100
,
2002
3003
1000
0010
,
0100
0000
0001
0100
,
0010
0000
0010
1000
0000
0000
1000
0000
1000
0001
0000
0000
,
1000
0100
0010
0001
,
1000
0001
1000
0010
,
0010
0100
1001
0000
,
0001
1000
0001
0100
,
0100
0010
2002
3003
,
0010
0100
0001
1000
,
2002
3003
0220
0330
,
2002
0000
0000
0000
,
0000
0000
0000
3003
,
0220
0000
0000
0000
,
0000
0000
0000
0330
,
0022
0000
0000
0000
,
0000
0000
0000
0033
,
2200
0000
0000
0000
,
0000
0000
0000
3300
,
0020
0000
0000
0000
0030
1000
0100
0010
,
0001
0000
0000
0001
0000
0000
0200
0000
0000
0000
0000
0000
0000
0000
0000
0000
,
0302
2003
3020
0032
,
0200
0000
0000
0303
,
2002
0000
0000
0000
,
0000
0000
0000
0000
0000
0000
0000
0000
0000
0000
0000
3003
1001
0000
0000
0000
;

//---------------dance-single - ----------------
#NOTES:
     dance-single:
     :
     Easy:
     4:
     0.153126,0.269871,0.144849,0.311425,0.000000,148.000000,128.000000,20.000000,43.000000,0.000000,0.000000,0.153126,0.269871,0.144849,0.311425,0.000000,148.000000,128.000000,20.000000,43.000000,0.000000,0.000000:
0000
0000
0000
0000
,
0000
0000
0000
0000
,
0000
0000
0000
0000
,
0000
0000
0000
0000
,
0000
0000
0000
0000
,
0200
0000
0300
0000
,
2000
3000
0002
0003
,
0200
0300
0020
0030
,
2002
0000
0000
0000
,
3003
0000
0000
0020
,
0200
0330
0000
1001
,
1000
1000
0001
0001
,
1000
0001
1000
0001
,
1000
0001
1000
0000
0001
1000
0001
0000
,
0010
0001
0100
1000
,
0010
0100
0001
1000
,
0010
0100
1000
0001
,
0010
0100
0001
1000
,
2002
0000
0000
0000
,
0000
0000
0000
0000
,
0000
0000
0000
0000
,
0000
0000
0000
0000
,
0000
0000
0000
3003
,
0010
1000
0001
2002
,
3003
0000
1000
0000
0001
1000
0001
0000
,
1000
0001
2002
0000
,
3003
0000
0000
0000
1000
0000
0000
1000
,
0000
0000
0001
0000
0000
0001
0000
0000
,
1001
0000
1000
1000
,
1000
0000
0001
0001
,
0001
0000
0100
0100
,
0100
0000
0010
0010
,
0010
0000
1000
0000
,
2002
3003
0001
0000
,
2002
3003
0000
0000
,
0010
0001
0100
1001
,
0020
0000
0030
0000
,
0002
0000
0003
0000
,
0100
0100
0010
0010
,
1000
1000
2002
3003
,
1001
0000
0001
0000
,
0010
0000
0100
0000
,
2002
3003
1000
0000
,
0100
0000
0010
0000
,
2002
3003
0010
0000
,
0001
0000
0100
0000
,
0020
0030
0200
0300
,
0010
0100
0010
0000
,
1000
0001
1000
0000
,
0010
0010
0010
0000
,
0001
1000
0001
0000
,
0100
0100
0100
0000
,
0010
0100
0010
0000
,
1001
0000
0110
0000
,
2002
0000
0000
0000
,
0000
0000
0000
3003
,
0220
0000
0000
0000
,
0000
0000
0000
0330
,
2002
0000
0000
0000
,
0000
0000
0000
3003
,
0220
0000
0000
0000
,
0000
0000
0000
0330
,
2000
0000
3000
0000
,
0002
0000
0000
0003
,
0020
0000
0000
0030
,
0200
0000
0000
0300
,
2002
0000
0000
0000
,
0000
0000
0000
3003
;

//---------------dance-single - ----------------
#NOTES:
     dance-single:
     :
     Beginner:
     1:
     0.076563,0.147203,0.021727,0.057940,0.000000,74.000000,71.000000,3.000000,8.000000,0.000000,0.000000,0.076563,0.147203,0.021727,0.057940,0.000000,74.000000,71.000000,3.000000,8.000000,0.000000,0.000000:
0000
0000
0000
0000
,
0000
0000
0000
0000
,
0000
0000
0000
0000
,
0000
0000
0000
0000
,
0000
0000
0000
0000
,
0100
0000
0000
0000
,
0100
0000
0000
0000
,
0010
0000
0010
0000
,
0020
0000
0000
0000
,
0030
0000
0000
0100
,
0100
0000
0000
0000
,
1000
0000
0001
0000
,
1000
0000
0000
0000
,
0001
0000
1000
0000
,
0001
0000
0000
0000
,
0010
0000
0100
0000
,
0010
0000
0000
0000
,
0100
0000
0010
0000
,
0200
0000
0000
0000
,
0000
0000
0000
0000
,
0000
0000
0000
0000
,
0300
0000
0000
0000
,
0000
0000
0000
0000
,
0010
0000
0000
0001
,
0000
0000
0100
0000
,
0000
1000
0000
0000
,
0000
0000
1000
0000
,
0000
0001
0000
0000
,
0001
0000
0001
0000
,
0000
0000
1000
0000
,
0000
0000
0100
0000
,
0000
0000
0010
0000
,
0000
0000
1001
0000
,
0000
0000
1001
0000
,
0000
0000
0000
0000
,
0010
0010
0010
0000
,
0001
0000
0000
0000
,
0100
0000
0000
0000
,
1000
0000
1000
0000
,
0001
0001
0001
0000
,
0001
0000
0000
0000
,
0010
0000
0010
0000
,
0010
0000
0000
0000
,
0100
0000
0100
0000
,
0100
0000
0000
0000
,
0001
0000
0001
0000
,
0001
0000
0000
0000
,
1000
0000
0000
0000
,
0001
0000
0001
0000
,
0001
0000
0000
0000
,
1000
0000
1000
0000
,
1000
0000
0000
0000
,
0010
0000
0000
0000
,
0100
0000
0100
0000
,
0200
0000
0000
0000
,
0300
0000
0000
0000
,
0020
0000
0000
0000
,
0030
0000
0000
0000
,
2000
0000
0000
0000
,
3000
0000
0000
0000
,
0002
0000
0000
0000
,
0003
0000
0000
0000
,
1000
0000
0000
0000
,
0001
0000
0000
0000
,
0010
0000
0000
0000
,
0100
0000
0000
0000
,
2002
0000
0000
0000
,
0000
0000
0000
3003
;

//---------------dance-double - ----------------
#NOTES:
     dance-double:
     :
     Easy:
     4:
     0.150022,0.220804,0.094152,0.289698,0.000000,145.000000,132.000000,13.000000,40.000000,0.000000,0.000000,0.150022,0.220804,0.094152,0.289698,0.000000,145.000000,132.000000,13.000000,40.000000,0.000000,0.000000:
00000000
00000000
00000000
00000000
,
00000000
00000000
00000000
00000000
,
00000000
00000000
00000000
00000000
,
00000000
00000000
00000000
00000000
,
00000000
00000000
00000000
00000000
,
02000000
00000000
03000000
00000000
,
00001000
00010000
00002000
00003000
,
00010000
00001000
00100000
00010000
,
02000000
00000000
00000000
00000000
,
00200000
00000000
03300000
00020000
,
20030000
30000000
00100000
01000000
,
00010000
00000000
00010000
00100000
,
00001000
00000000
00001000
00010000
,
00000010
00000000
00001000
00000100
,
00000001
00000000
00000100
00010000
,
00001000
00000000
00100000
00010000
,
01000000
00000000
00100000
10000000
,
01000000
00000000
00100000
00001000
,
00022000
00000000
00000000
00000000
,
00000000
00000000
00000000
00000000
,
00000000
00000000
00000000
00000000
,
00000000
00000000
00000000
00000000
,
00000000
00000000
00000000
00033000
,
00000000
00010000
00000100
00001000
,
00000000
00000001
00001000
00000100
,
00000000
00010000
00002000
00000000
,
00003000
00000000
00100000
00000000
,
00000000
10010000
00000000
00000000
,
01000000
00000000
00100000
00100000
,
10000000
00010000
01000000
01000000
,
00010000
00100000
00001000
00001000
,
00010000
00000010
00001000
00001000
,
00000001
00000100
00000010
00001000
,
00000200
00000300
00010000
00001000
,
00022000
00033000
00000000
00000000
,
00100000
00010000
01000000
10010000
,
00200000
00300000
20000000
30000000
,
02000000
03000000
00020000
00030000
,
00100000
00001000
00010000
00000010
,
00001000
00000100
00000020
00000030
,
00002002
00003003
00000001
00000000
,
00001000
00000100
00001000
00000000
,
00002002
00003003
00001000
00000000
,
00001000
00000100
00010000
00000000
,
00022000
00033000
00001000
00000000
,
00100000
00010000
01000000
00000000
,
20020000
30030000
10000000
00000000
,
00010000
01000000
00001000
00000000
,
00010000
00010000
00001000
00000000
,
00010000
00000100
00001000
00000000
,
00000001
00000001
00001000
00000000
,
00000100
00010000
00001000
00000000
,
00010000
00010000
00001000
00000000
,
01000000
00000000
00010000
00000000
,
20020000
00000000
00000000
00000000
,
00000000
00000000
30030000
00000000
,
00022000
00000000
00000000
00000000
,
00000000
00000000
00033000
00000000
,
00002002
00000000
00000000
00000000
,
00000000
00000000
00003003
00000000
,
00022000
00000000
00000000
00000000
,
00000000
00000000
00033000
00000000
,
00200000
00000000
00300000
00010000
,
02000000
03000000
20000000
30000000
,
00200000
00000000
00300000
00000000
,
00002000
00000000
00003000
00000000
,
00022000
00000000
00000000
00000000
,
00000000
00000000
00000000
00033000
;

//---------------dance-single - ----------------
#NOTES:
     dance-single:
     :
     Challenge:
     14:
     0.443858,0.686945,0.333152,0.463516,0.441789,429.000000,383.000000,46.000000,64.000000,0.000000,0.000000,0.443858,0.686945,0.333152,0.463516,0.441789,429.000000,383.000000,46.000000,64.000000,0.000000,0.000000:
0000
0000
0000
0000
,
0000
0000
0000
0000
,
0000
0000
0000
0000
,
0000
0000
0000
0000
,
0000
0000
0000
0000
,
0020
0000
0000
0000
0030
1000
0010
0100
,
0002
0000
0000
0100
0000
0000
0203
0000
0000
0000
0000
0000
0300
0000
0000
0000
,
1000
0000
0001
1000
0000
0000
1000
0000
0020
0000
0000
0000
0230
0000
0000
0000
,
0302
0010
1000
0010
0100
0010
1000
0010
,
2000
0000
0000
0000
3003
0000
0020
0030
,
0200
0000
0000
0000
0300
0000
0000
0000
0001
0000
1000
0000
0010
0000
0100
0000
0001
0000
0000
0000
1000
0000
0010
1000
0010
0000
1000
0000
0100
0000
0000
0000
,
1000
0100
1001
0100
1000
0010
1001
0010
,
1000
0000
0100
0000
0010
0001
0010
0001
1000
0100
0010
0100
1000
0100
0010
0100
,
1000
1000
0101
1000
0010
0010
0101
0010
,
1000
0000
0010
0100
0001
0100
0010
0100
0001
0000
1000
0000
0010
0010
0100
0000
,
0001
0000
1000
0001
1000
0000
0010
0000
0100
0000
0100
0000
0110
0000
1000
0000
,
0101
0000
1000
0010
1000
0000
0001
0000
0100
0000
0100
0001
0010
0000
0001
0000
,
1000
0000
0001
0000
1000
0010
1000
0010
0100
0000
0001
0000
1010
0000
0001
0000
,
2002
0000
0000
0000
,
0000
0000
0000
0000
,
0000
0000
0000
0000
,
0000
0000
0000
0000
,
0000
0000
0000
3003
,
0020
0000
0000
0000
0030
0000
0000
0000
1001
0000
0000
0000
0110
0000
0000
0000
1000
0000
0000
1000
0010
0000
0100
0000
2002
0000
0000
0000
0000
0000
3003
0000
,
1001
0000
0000
0000
0000
0000
0000
0000
0000
0000
0000
0000
0000
0000
0000
0000
0000
0000
0000
0000
0000
0000
0000
0000
0010
0000
0000
0000
0000
0000
0000
0000
0000
0000
0000
0000
0000
0000
0000
0000
0000
0000
0000
0000
0000
0000
0000
0000
1000
0000
0000
0000
0000
0000
0000
0000
0000
0000
0000
0000
0010
0000
0000
0000
0000
0000
0000
0000
0000
0000
0000
0000
0100
0000
0000
0000
0000
0000
0000
0000
0000
0000
0000
0000
0000
0000
0000
0000
0000
0000
0000
0000
0000
0000
0000
0000
0001
0000
0000
0000
0000
0000
0000
0000
0000
0000
0000
0000
0000
0000
0000
0000
0000
0000
0000
0000
0000
0000
0000
0000
1000
0000
0000
0000
0000
0000
0001
0000
0000
0000
0000
0000
1000
0000
0000
0000
0000
0000
0001
0000
0000
0000
0000
0000
1000
0000
0000
0000
0000
0000
0000
0000
0001
0000
0000
0000
0000
0000
0000
0000
1000
0000
0000
0000
0000
0000
0000
0000
0000
0000
0000
0000
0000
0000
0000
0000
0000
0000
0000
0000
0001
0000
0000
0000
0000
0000
0000
0000
0000
0000
0000
0000
,
0000
0100
0010
0000
1000
0000
0001
0000
2002
0000
3003
0000
0100
0000
0202
0000
,
0303
0010
2020
3030
0101
0100
0010
1010
,
0010
0100
0101
0001
1000
1001
1000
0010
,
0220
0000
0000
0000
0000
0000
0330
0000
0010
0000
1000
0010
1000
0000
0010
0000
,
0100
0001
0100
0000
0001
0000
1000
0000
0001
0000
0100
0000
0010
0000
1000
0000
,
0001
0100
0001
0100
0010
0000
1000
0000
0001
0000
0010
0001
0010
0000
0001
0000
,
1000
0100
1000
0000
0100
0000
1000
0010
1000
0000
0010
0000
0100
0000
0001
0000
,
1000
0010
1000
0010
0100
0000
0001
0000
1000
0000
0001
0100
0001
0000
1000
0000
,
0010
0100
0010
0000
1000
0000
0001
0000
0100
0010
0100
0010
1000
0001
1000
0001
,
0100
0010
0100
0010
0200
0000
0000
0000
0300
0000
0000
0000
0000
0000
0000
0000
,
0001
0001
0001
0100
1000
1000
1001
0000
,
0020
0230
0302
2003
,
3002
0000
0203
0000
0320
0000
2030
3000
,
2002
3003
0220
0330
2200
3300
0022
0033
,
2020
3030
0202
0303
2000
0000
3002
0000
,
0103
0000
0000
1000
0100
0010
0001
0000
0001
0100
0000
0100
,
0001
0000
0001
1000
0001
1000
0010
0100
0001
0100
0010
1000
,
0001
0000
0000
0001
0010
0100
1000
0000
1000
0010
0000
0010
,
1000
0000
1000
0100
1000
0010
0100
0010
1000
0100
1000
0010
,
0100
0000
0000
0001
1000
0010
0100
0000
0100
0001
0000
0001
,
1000
0000
1000
0010
1000
0001
0100
0001
1000
0010
0100
0001
,
1000
0001
1000
0001
0000
0100
0010
0100
0010
0100
0000
0001
,
0100
0010
1000
0010
0100
0001
1000
0100
0010
0001
1000
0010
,
0100
0000
0000
1001
0000
0001
1000
0000
1000
0010
0000
0010
,
0100
0000
0100
0010
0000
0000
1010
0000
0000
0101
0000
0000
,
1001
0000
0000
0001
0000
0001
0010
0000
0010
0100
0000
0100
,
1000
0000
1000
0010
0000
0000
0110
0000
0000
1001
0000
0000
,
0011
0000
0000
0101
0000
0001
0100
0000
0100
0010
0000
0000
,
2020
3030
0202
0303
,
2002
0000
0000
0000
,
0000
0000
0000
3003
,
0220
0000
0000
0000
,
0000
0000
0000
0330
,
2200
0000
0000
0000
,
0000
0000
0000
3300
,
0022
0000
0000
0000
,
0000
0000
0000
0033
,
2000
0000
0000
0000
3000
0001
0100
0010
,
1000
0000
0000
1001
0000
0000
0220
0000
0000
0000
0000
0000
0000
0000
0330
0000
,
1000
0000
0000
0000
0100
0000
0000
0000
0010
0000
0000
0000
0001
0000
0100
0000
0010
0000
0000
0000
0100
0000
0010
0000
1000
0000
0010
0000
0000
0000
0100
0000
0001
0000
0100
0000
0001
0000
0000
1000
0000
0000
0100
0000
0000
0010
0000
0000
,
0000
0000
0000
0000
0000
0000
0001
0000
0000
0000
0000
0000
0000
0000
0000
0000
0000
0000
0000
0000
0000
0000
0000
0000
0000
0000
0000
0000
0000
0000
1000
0000
0000
0000
0000
0000
0000
0000
0000
0000
0000
0000
0000
0000
0000
0000
0000
0000
0000
0000
0000
0000
0000
0000
0001
0000
0000
0000
0000
0000
0000
0000
0000
0000
0000
0000
0000
0000
0000
0000
0000
0000
0000
0000
0000
0000
0000
0000
0000
0000
2002
0000
0000
0000
0000
0000
0000
0000
0000
0000
0000
0000
0000
0000
0000
0000
0000
0000
0000
0000
0000
0000
0000
0000
0000
0000
0000
0000
0000
0000
0000
0000
0000
0000
0000
0000
0000
0000
0000
0000
0000
0000
0000
0000
0000
0000
0000
0000
0000
0000
0000
0000
0000
0000
0000
0000
0000
0000
0000
0000
0000
0000
0000
0000
3003
0000
0000
0000
0000
0000
0000
0000
0000
0000
0000
0000
0000
0000
0000
0000
0000
0000
0000
0000
0000
0000
0000
0000
0000
0000
0000
0000
0000
0000
0000
0000
0000
0000
0000
0000
0000
0000
0000
0000
0000
0000
0000
0000
0000
0000
0000
0000
,
2002
0000
0000
0000
,
0000
0000
0000
0000
0000
0000
0000
0000
0000
0000
0000
3003
1001
0000
0000
0000
;

//---------------dance-double - ----------------
#NOTES:
     dance-double:
     :
     Challenge:
     14:
     0.409715,0.588810,0.246243,0.325910,0.372986,396.000000,362.000000,34.000000,45.000000,0.000000,0.000000,0.409715,0.588810,0.246243,0.325910,0.372986,396.000000,362.000000,34.000000,45.000000,0.000000,0.000000:
// measure 0
00000000
00000000
00000000
00000000
,  // measure 1
00000000
00000000
00000000
00000000
,  // measure 2
00000000
00000000
00000000
00000000
,  // measure 3
00000000
00000000
00000000
00000000
,  // measure 4
00000000
00000000
00000000
00000000
,  // measure 5
00200000
00000000
00000000
00000000
00300000
10000000
00010000
00100000
,  // measure 6
00001000
00000000
00000000
00010000
00000000
00000000
00022000
00000000
00000000
00000000
00000000
00000000
00033000
00000000
00000000
00000000
,  // measure 7
00010000
00000000
00010000
00000100
00000000
00000000
00001000
00000000
00000020
00000000
00000000
00000000
00000230
00000000
00000000
00000000
,  // measure 8
00000302
00000010
00000100
00001000
00000100
00000010
00001000
00000203
,  // measure 9
00000020
00000000
00000330
00000002
,  // measure 10
00002003
00000000
00000000
00000000
00003001
00000100
00000010
00001000
00000100
00000000
00000000
00000000
00011000
00000000
00000000
00000000
,  // measure 11
00110000
00010000
01010000
00010000
10000000
00100000
01010000
00100000
,  // measure 12
10000000
01000000
00110000
01000000
10000000
00010000
01100000
00010000
,  // measure 13
00100000
00001000
00011000
00010000
00000100
00001000
00001001
00001000
,  // measure 14
00000100
00000010
00000101
00000010
00001000
00000100
00011000
00000100
,  // measure 15
00010000
00000000
00001000
00010000
00001000
00000000
00100000
00000000
00010000
00000000
01000000
00000000
00100000
00000000
10000000
00000000
,  // measure 16
01000000
00000000
00100000
00010000
00100000
00000000
00001000
00000000
00010000
00000000
00000100
00001000
00000010
00000000
00000100
00000000
,  // measure 17
00000001
00000000
00001000
00000100
00010000
00000000
00001000
00000000
00010000
00000000
00001000
00000000
01000000
00000000
00010000
00000000
,  // measure 18
20020000
00000000
00000000
00000000
,  // measure 19
00000000
00000000
00000000
00000000
,  // measure 20
00000000
00000000
00000000
00000000
,  // measure 21
00000000
00000000
00000000
00000000
,  // measure 22
00000000
00000000
00000000
30030000
,  // measure 23
10100000
00000000
00000000
00000000
00000000
00000000
00000000
00000000
01000000
00000000
00000000
00000000
00010000
00000000
00000000
00000000
00100000
00000000
00000000
00100000
00010000
00000000
00100000
00000000
00002000
00000000
00000000
00000000
00000000
00000000
00000000
00000000
,  // measure 24
00003000
00000000
00000000
00000000
00000000
00000000
00010000
00000000
00000000
00000100
00000000
00000000
00001000
00000000
00000000
00000000
00000000
00000000
00000010
00000000
00000000
00000000
00000000
00000000
00000100
00000000
00000000
00000001
00000000
00000000
00001000
00000000
00000000
00000001
00000000
00000000
00001000
00000000
00000100
00000000
00000010
00000000
00000000
00000000
00000000
00001001
00000000
00000000
,  // measure 25
00000000
00000010
00000100
00000000
00000001
00000000
00001000
00000000
00000200
00000000
00000000
00000000
00000310
00000000
00002000
00000000
,  // measure 26
00000000
00003100
00010000
00000000
00101000
00001000
00100000
00110000
,  // measure 27
00010000
01000000
01010000
01000000
00100000
10100000
00100000
01000000
,  // measure 28
01100000
00000000
00000000
00000000
10010000
00000000
00000000
00000000
10000000
00000000
00100000
10000000
00100000
00000000
01000000
00000000
,  // measure 29
00010000
01000000
00010000
00000000
10000000
00000000
00010000
10000000
00010000
00000000
00100000
00000000
00001000
00000000
00010000
00000000
,  // measure 30
00000010
00000000
00001000
00000000
00000001
00000000
00000100
00000000
00000010
00000000
00001000
00000100
00001000
00000000
00000010
00000000
,  // measure 31
00000100
00000001
00000100
00000000
00000010
00000000
00001000
00000000
00000100
00000000
00010000
00000000
00001000
00000000
01000000
00000000
,  // measure 32
00010000
00000000
10000000
00000000
00100000
00000000
01000000
00000000
00010000
00000000
00100000
00010000
00100000
00000000
00001000
00000000
,  // measure 33
00010000
00001000
00010000
00000000
00000100
00000000
00000000
00000000
00001000
00000010
00001000
00000010
00000100
00000001
00000100
00000001
,  // measure 34
00001000
00000100
00001000
00000100
00002000
00000000
00000000
00000000
00003000
00000000
00000000
00000000
00000000
00000000
00000000
00000000
,  // measure 35
00000100
00000100
00010000
00010000
00001000
00001000
00011000
00000000
,  // measure 36
00002000
00203000
00320000
02030000
,  // measure 37
23000000
30200000
02300000
03020000
,  // measure 38
00230000
00302000
00023000
00030020
,  // measure 39
00000230
00000302
00001003
00000001
,  // measure 40
00001001
00000000
00000000
00000001
00000100
00000010
00001000
00000000
00001000
00000010
00000000
00000010
,  // measure 41
00000100
00000000
00000100
00000001
00000100
00000010
00001000
00000010
00000100
00000001
00000100
00000010
,  // measure 42
00001000
00000000
00000000
00001000
00000010
00000100
00000001
00000000
00000001
00001000
00000000
00001000
,  // measure 43
00000100
00000000
00000100
00010000
00000100
00010000
00001000
00010000
00001000
00100000
00001000
00100000
,  // measure 44
00010000
00000000
00000000
00010000
01000000
00100000
10000000
00000000
10000000
00100000
00000000
00100000
,  // measure 45
01000000
00000000
01000000
00100000
10000000
00100000
01000000
00010000
01000000
00010000
00100000
00010000
,  // measure 46
00100000
00010000
01000000
00010000
00000000
10000000
01000000
00100000
00010000
00100000
00000000
00001000
,  // measure 47
00010000
00001000
00010000
00000100
00000000
00001000
00000100
00000000
00000010
00000001
00000000
00000100
,  // measure 48
00000010
00000000
00000000
00001010
00000000
00000001
00000100
00000000
00000100
00000010
00000000
00000010
,  // measure 49
00001000
00000000
00001000
00000100
00000000
00000100
00010000
00000000
00000000
00011000
00000000
00000000
,  // measure 50
00101000
00000000
00000000
00100000
00000000
00100000
00010000
00000000
00010000
01000000
00000000
01000000
,  // measure 51
00100000
00000000
00100000
10000000
00000000
10000000
00010000
00000000
00000000
10010000
00000000
00000000
,  // measure 52
01100000
00000000
00000000
01010000
00000000
01000000
00010000
00000000
00010000
00100000
00000000
00100000
,  // measure 53
00002000
00013000
00020000
00031000
,  // measure 54
00022000
00000000
00000000
00000000
,  // measure 55
00000000
00000000
00000000
00033000
,  // measure 56
00002002
00000000
00000000
00000000
,  // measure 57
00000000
00000000
00000000
00003003
,  // measure 58
00022000
00000000
00000000
00000000
,  // measure 59
00000000
00000000
00000000
00033000
,  // measure 60
20020000
00000000
00000000
00000000
,  // measure 61
00000000
00000000
00000000
30030000
,  // measure 62
20000000
00000000
00000000
00000000
30000000
01000000
00100000
00010000
,  // measure 63
00100000
00000000
00000000
00001000
00000000
00000000
00020000
00000000
00000000
00000000
00000000
00000000
00000000
00000000
00000000
00000000
,  // measure 64
00030100
00000000
00000000
00000000
00001000
00000000
00000000
00000000
00000010
00000000
00000000
00000000
00000100
00000000
00000010
00000000
00001000
00000000
00000000
00000000
00000100
00000000
00000000
00000000
00010000
00000000
00001000
00000000
00010000
00000000
00000000
00000000
00001000
00000000
00100000
00000000
00010000
00000000
00000000
00100000
00000000
00000000
00010000
00000000
00000000
01000000
00000000
00000000
,  // measure 65
00000000
00000000
00000000
00000000
00000000
00000000
00100000
00000000
00000000
00000000
00000000
00000000
00000000
00000000
00000000
00000000
00000000
00000000
00000000
00000000
00000000
00000000
00000000
00000000
00000000
00000000
00000000
00000000
00000000
00000000
01000000
00000000
00000000
00000000
00000000
00000000
00000000
00000000
00000000
00000000
00000000
00000000
00000000
00000000
00000000
00000000
00000000
00000000
00000000
00000000
00000000
00000000
00000000
00000000
00100000
00000000
00000000
00000000
00000000
00000000
00000000
00000000
00000000
00000000
00000000
00000000
00000000
00000000
00000000
00000000
00000000
00000000
00000000
00000000
00000000
00000000
00000000
00000000
00000000
00000000
02000000
00000000
00000000
00000000
00000000
00000000
00000000
00000000
00000000
00000000
00000000
00000000
00000000
00000000
00000000
00000000
00000000
00000000
00000000
00000000
00000000
00000000
00000000
00000000
00000000
00000000
00000000
00000000
00000000
00000000
00000000
00000000
00000000
00000000
00000000
00000000
00000000
00000000
00000000
00000000
00000000
00000000
00000000
00000000
00000000
00000000
00000000
00000000
00000000
00000000
00000000
00000000
00000000
00000000
00000000
00000000
00000000
00000000
00000000
00000000
00000000
00000000
00000000
00000000
03000000
00000000
00000000
00000000
00000000
00000000
00000000
00000000
00000000
00000000
00000000
00000000
00000000
00000000
00000000
00000000
00000000
00000000
00000000
00000000
00000000
00000000
00000000
00000000
00000000
00000000
00000000
00000000
00000000
00000000
00000000
00000000
00000000
00000000
00000000
00000000
00000000
00000000
00000000
00000000
00000000
00000000
00000000
00000000
00000000
00000000
00000000
00000000
,  // measure 66
20020000
00000000
00000000
00000000
,  // measure 67
00000000
00000000
00000000
00000000
00000000
00000000
00000000
00000000
00000000
00000000
00000000
00000000
00000000
00000000
00000000
00000000
00000000
30030000
10010000
00000000
00000000
00000000
00000000
00000000
;
