#TITLE:MAXIMUM K.O.;
#SUBTITLE:;
#ARTIST:T.Smash vs TT Sound Team "[E]";
#TITLETRANSLIT:;
#SUBTITLETRANSLIT:;
#ARTISTTRANSLIT:;
#GENRE:;
#CREDIT:;
#BANNER:MAXIMUM KO.png;
#BACKGROUND:MAXIMUM KO-bg.png;
#LYRICSPATH:;
#CDTITLE:;
#MUSIC:MAXIMUM KO.ogg;
#OFFSET:0.780000;
#SAMPLESTART:51.975849;
#SAMPLELENGTH:12.799992;
#SELECTABLE:YES;
#DISPLAYBPM:75.000000:300.000000;
#BPMS:0.000000=150.000000
,36.000000=300.000000
,160.000000=150.000000
,186.000000=157.000000
,187.000000=152.000000
,192.000000=300.000000
,254.000000=1200.000000
,256.000000=75.000000
,256.500000=74.000000
,257.500000=75.000000
,271.500000=77.000000
,272.000000=300.000000
,302.000000=300.769989
,317.000000=301.000000
,336.000000=150.000000
,364.000000=800.000000
,365.000000=499.999969
,366.000000=300.000000
,366.500000=168.000000
,367.000000=128.000000
,367.500000=75.000000
,367.666656=300.000000
,420.000000=300.399994
,426.500000=300.000000
;
#STOPS:156.000000=0.600002,
157.000000=0.200001,
254.000000=0.074997,
254.500000=0.075000,
255.000000=0.075000,
255.500000=0.075000,
367.625000=0.676000
;
#BGCHANGES:;
#KEYSOUNDS:;
#ATTACKS:;

//---------------dance-single - ----------------
#NOTES:
     dance-single:
     :
     Hard:
     16:
     0.829816,1.319785,0.198588,0.107569,0.244098,702.000000,678.000000,24.000000,13.000000,0.000000,0.000000,0.829816,1.319785,0.198588,0.107569,0.244098,702.000000,678.000000,24.000000,13.000000,0.000000,0.000000:
// measure 0
0000
0000
0000
0000
,  // measure 1
0000
0000
0000
0000
,  // measure 2
0000
0000
0000
0000
,  // measure 3
0000
0000
0000
0000
,  // measure 4
0000
0000
0000
0000
,  // measure 5
0001
0100
1000
0000
0001
0010
1000
0000
,  // measure 6
0001
0100
1000
0100
0001
0100
1000
0000
,  // measure 7
1000
0010
0001
0000
1000
0100
0001
0000
,  // measure 8
1000
0010
0001
0010
1000
0100
0001
0000
,  // measure 9
1000
0010
1000
0000
0001
0100
0001
0000
,  // measure 10
1000
0100
1000
0000
0001
0100
0001
0000
,  // measure 11
1000
0010
1000
0000
0001
0010
0001
0000
,  // measure 12
1000
0100
0010
0000
0100
0000
0001
0000
,  // measure 13
1000
0010
1000
0000
0001
0010
0001
0000
,  // measure 14
1000
0100
1000
0000
0001
0100
0001
0000
,  // measure 15
1000
0100
0010
0000
0100
0010
0001
0000
,  // measure 16
1000
0001
1000
0000
0010
0000
0100
0000
,  // measure 17
0001
0010
0001
0000
1000
0100
1000
0000
,  // measure 18
0001
0100
0001
0000
1000
0010
1000
0000
,  // measure 19
0001
0010
0001
0000
1000
0100
0010
0000
,  // measure 20
0100
0001
0100
0000
0010
0000
1000
0000
,  // measure 21
0001
0010
0100
0000
0010
0100
1000
0000
,  // measure 22
0001
0100
0010
0000
1000
0010
1000
0000
,  // measure 23
0001
1000
0001
0000
0001
1000
0001
0000
,  // measure 24
1000
0100
0010
0001
0100
0010
1000
0001
,  // measure 25
1000
0100
1000
0000
0100
0000
0010
0000
,  // measure 26
0001
0100
0001
0000
0010
0000
0100
0000
,  // measure 27
1000
0010
1000
0000
0010
0000
0100
0000
,  // measure 28
0001
0100
0001
0000
0010
0000
0100
0000
,  // measure 29
1000
0100
1000
0000
0001
0000
0010
0000
,  // measure 30
0100
1000
0100
0000
0010
0000
0001
0000
,  // measure 31
1000
0010
1000
0000
0001
0000
0100
0000
,  // measure 32
1000
0100
1000
0000
0010
0000
0001
0000
,  // measure 33
1000
0100
1000
0000
1000
0100
1000
0000
,  // measure 34
0100
0010
0001
0000
1000
0100
0010
0000
,  // measure 35
0001
0100
0001
0000
0001
0100
0001
0000
,  // measure 36
0010
0100
1000
0000
0001
0010
0100
0000
,  // measure 37
1000
0100
0010
0001
0100
0010
1000
0100
,  // measure 38
1000
0001
0010
0100
1000
0010
0100
0001
,  // measure 39
1000
0001
1001
0000
,  // measure 40
1000
0000
0100
0000
1000
0100
0000
0010
0001
0000
0100
0000
0010
0000
1000
0000
,  // measure 41
0001
0000
0010
0000
0001
0010
0000
0100
1000
0000
0010
0000
0100
0000
0001
0000
,  // measure 42
1000
0000
1000
0000
1000
0100
0000
0010
0001
0000
0001
0000
0001
0100
0000
0010
,  // measure 43
1000
0000
0100
0000
0010
0001
0000
0001
0010
0000
0100
0000
1001
0000
0000
0000
,  // measure 44
1000
0000
0001
0000
1000
0010
0000
0010
0100
0000
0010
0000
1000
0000
0001
0000
,  // measure 45
1000
0000
0001
0000
0100
1000
0000
1000
0001
0000
0100
0000
0010
0000
1000
0000
,  // measure 46
0001
0000
0001
0000
0010
0100
0000
0100
1000
0000
1000
0000
0100
0010
0000
0001
,  // measure 47
2000
0000
0002
3003
,  // measure 48
0010
1000
0010
0000
0100
0001
0100
0000
,  // measure 49
1000
0100
1000
0100
0010
0001
0010
0001
,  // measure 50
1000
0010
1000
0000
0001
0100
0001
0000
,  // measure 51
0100
0010
0100
0010
1000
0100
0010
0001
,  // measure 52
1000
0100
1000
0000
0001
0010
0100
0000
,  // measure 53
1000
0010
1000
0010
0100
0001
0100
0001
,  // measure 54
1000
0100
0010
0000
0100
0001
0100
0000
,  // measure 55
0001
0010
0001
0010
0100
1000
0100
0010
,  // measure 56
0001
1000
0001
0000
1000
0100
1000
0000
,  // measure 57
0001
0100
0010
0100
0001
1000
0100
0010
,  // measure 58
0001
0100
0001
0000
1000
0010
1000
0000
,  // measure 59
0001
0100
0010
0100
0001
1000
0100
0010
,  // measure 60
0001
0100
0001
0100
0010
1000
0010
1000
,  // measure 61
0001
0010
0100
1000
0001
0010
0100
1000
,  // measure 62
0010
0100
0010
0000
0100
0010
0100
0000
,  // measure 63
0001
1000
0001
1000
0010
0100
0010
0100
,  // measure 64
0002
0000
1003
0100
0010
0000
1000
0000
0020
0000
0130
0010
0001
0000
1000
0000
,  // measure 65
0002
0000
0000
0000
1003
0000
0001
0000
0100
0000
0000
0000
0010
0000
0000
0000
2000
0000
0000
0000
3001
0000
1000
0000
0010
0000
0000
0000
1000
0000
0001
0010
,  // measure 66
0200
0000
0301
0010
0100
0000
0010
0100
2000
0000
3001
0100
0010
0000
1000
0010
,  // measure 67
0100
0010
0100
0010
1000
0100
0010
0001
1000
0010
0100
0001
2000
0000
3001
0000
,  // measure 68
1001
0000
1100
0000
1000
0100
0010
0001
,  // measure 69
1000
1010
0001
0101
,  // measure 70
0001
0000
0011
0000
0001
0100
0010
1000
,  // measure 71
0100
1100
0010
0011
,  // measure 72
1000
0000
1100
0000
1000
0100
0010
0001
,  // measure 73
0100
0110
0001
1001
,  // measure 74
1000
0000
1100
0000
1000
0100
0010
0001
,  // measure 75
1000
1001
0001
0101
,  // measure 76
0010
0100
0001
0000
1000
0010
1000
0001
,  // measure 77
1000
0100
1000
0000
0001
0010
0001
0000
,  // measure 78
1000
0100
0010
0000
1000
0100
1000
0010
,  // measure 79
1000
0001
1000
0000
0001
0010
0001
0000
,  // measure 80
1000
0010
1000
0010
0100
0001
0100
0001
,  // measure 81
0100
0010
0100
0000
0001
1000
0001
0000
,  // measure 82
1000
0100
1000
0000
0001
0010
0001
0000
,  // measure 83
1000
0100
0010
0001
1000
0010
1000
0010
,  // measure 84
0100
0010
0100
0000
0010
0100
0010
0000
,  // measure 85
1000
0001
1000
0001
1000
1000
1000
0000
,  // measure 86
0001
0000
0010
0000
0001
0010
0000
0000
1000
0000
0010
0000
1000
0010
0000
0000
,  // measure 87
1000
0000
0100
0000
0010
0001
0000
0001
0010
0000
0100
0000
1000
0000
0000
0000
,  // measure 88
0001
0000
1000
0010
1000
0010
1000
0100
0010
0000
0001
0100
0001
0100
0001
0010
,  // measure 89
0100
0000
1000
0001
1000
0001
1000
0010
0100
0000
0100
0000
1001
0000
0000
0000
,  // measure 90
0001
0000
0010
0001
0100
0001
1000
0000
1000
0000
0001
1000
0010
1000
0100
0000
,  // measure 91
2002
0000
0000
0000
0000
0000
0000
0000
0000
0000
0000
0000
0000
0000
0000
3003
,  // measure 92
1000
0000
0010
1000
0000
1000
0010
0000
,  // measure 93
0100
0000
0101
0000
0000
1001
0000
0000
,  // measure 94
0001
0000
0010
0001
0000
0001
0010
0000
,  // measure 95
0100
0000
1001
0000
0000
0110
0000
0000
,  // measure 96
1000
0000
0100
0010
0100
0010
1000
0000
,  // measure 97
0001
0000
0010
0100
0010
0100
0001
0000
,  // measure 98
1000
0000
0100
0010
0001
0010
0100
0000
,  // measure 99
1000
0000
0101
0000
0000
1001
0000
0000
,  // measure 100
0010
0000
1000
0100
0010
0000
0100
0000
,  // measure 101
0001
0000
1000
0100
0010
0000
1000
0000
,  // measure 102
0001
0000
0100
0010
1000
0000
0001
0000
,  // measure 103
0100
0000
0001
0010
0100
0000
1000
0000
,  // measure 104
0001
0010
0001
0010
0100
1000
0100
1000
,  // measure 105
0001
0010
0100
1000
0010
0100
0010
0100
,  // measure 106
0001
0000
1000
0000
0001
0000
1000
0000
0001
0000
1000
0000
,  // measure 107
0010
0000
0010
0000
0010
0000
0100
0000
0100
0000
0100
0000
,  // measure 108
2002
0000
0000
0000
,  // measure 109
0000
0000
0000
0000
,  // measure 110
3003
0000
0000
0000
;

//---------------dance-double - ----------------
#NOTES:
     dance-double:
     :
     Hard:
     15:
     0.702152,1.046726,0.107569,0.124118,0.161353,594.000000,581.000000,13.000000,15.000000,0.000000,0.000000,0.702152,1.046726,0.107569,0.124118,0.161353,594.000000,581.000000,13.000000,15.000000,0.000000,0.000000:
00000000
00000000
00000000
00000000
,
00000000
00000000
00000000
00000000
,
00000000
00000000
00000000
00000000
,
00000000
00000000
00000000
00000000
,
00000000
00000000
00000000
00000000
,
00100000
00100000
00100000
00000000
00001000
00010000
00001000
00000000
,
00010000
00001000
00010000
00001000
00010000
00001000
00010000
00000000
,
00000010
00000010
00000010
00000000
00010000
00001000
00010000
00000000
,
00001000
00010000
00100000
01000000
10000000
00100000
01000000
00000000
,
10000000
01000000
00100000
00010000
,
01000000
00000000
00010000
00000000
10000000
00010000
00100000
00000000
,
00001000
00010000
00001000
00000100
,
00001000
00000000
00000001
00000000
00000010
00000100
00001000
00000000
,
00000100
00001000
00000010
00001000
,
00000100
00000000
00010000
00000000
00001000
01000000
00010000
00000000
,
10000000
01000000
00010000
00000100
,
00010000
00000000
00000010
00000000
00001000
00000100
00000010
00000000
,
00000001
00001000
00000100
00010000
,
00001000
00000000
01000000
00000000
00010000
00100000
01000000
00000000
,
10000000
00100000
00010000
00001000
,
00000010
00000000
00000100
00000000
00000001
00001000
00000100
00000000
,
00001000
01000000
00010000
01000000
,
10000000
00000000
01000000
00000000
00100000
00010000
01000000
00000000
,
00100000
10000000
01000000
00000000
00100000
00010000
10000000
00000000
,
00010000
00100000
00010000
00100000
00010000
00100000
00001000
00000000
,
00020000
00000000
00030200
00000000
,
00001300
00000100
00000010
00000001
,
00000200
00000000
00000320
00000000
,
00010030
00001000
00000100
00001000
,
00020000
00000000
00032000
00000000
,
01003000
00010000
00100000
01000000
,
20000000
00000000
30020000
00000000
,
00130000
00010000
01000000
10000000
,
00100000
10000000
00100000
00000000
10000000
00100000
01000000
00000000
,
00010000
00100000
00001000
00010000
,
00001000
00010000
00000100
00000000
00000100
00001000
00000010
00000000
,
00000100
00000001
00001000
00000010
,
00000100
00000010
00000100
00000000
00001000
00000100
00010000
00000000
,
00001000
00100000
00010000
00100000
00010000
01000000
00100000
00000000
,
10010000
00100000
01100000
00000000
,
10000000
00000000
10000000
00000000
00000000
00010000
00000000
00010000
01000000
00000000
10000000
00000000
01000000
00000000
00010000
00000000
,
00100000
00000000
00100000
00000000
00000000
00001000
00000000
00001000
00010000
00000000
00000100
00000000
00000010
00000000
00000001
00000000
,
00001000
00000100
00000010
00000000
00000100
00000010
00000001
00000000
,
00001000
00000000
00000100
00000000
00010000
00001000
00010000
00001000
01000000
00000000
00010000
00000000
10000000
00000000
00000000
00000000
,
00010000
00000000
00010000
00000000
00000000
00100000
00000000
00100000
10000000
00000000
00100000
00000000
00010000
00000000
01000000
00000000
,
00010000
00000000
00010000
00000000
00000000
00100000
00000000
00100000
00001000
00000000
00010000
00000000
00000010
00000000
00001000
00000000
,
00000001
00000100
00001000
00000000
00010000
01000000
10000000
00000000
,
20020000
00000000
00000000
30030000
,
10000000
01000000
00100000
00000000
01000000
00100000
00010000
00000000
,
00100000
00001000
00010000
00001000
00010000
00000000
00000100
00000000
,
00001000
00000100
00001000
00000000
00000010
00000100
00000010
00000000
,
00001000
00000100
00010000
00001000
,
01000000
00010000
01000000
00000000
00010000
10000000
00010000
00000000
,
10000000
01000000
00100000
00000000
00010000
00000000
00001000
00000000
,
00010000
00001000
00010000
00000000
00001000
00010000
00001000
00000000
,
00010000
00000100
00001000
00000000
00000100
00001000
00000010
00000000
,
00001000
00000100
00001000
00000000
00000001
00001000
00000001
00000000
,
00001000
00000100
00000010
00000001
,
00000100
00000001
00000100
00000000
00000001
00001000
00000001
00000000
,
00000100
00001000
00010000
00001000
,
00100000
00010000
00100000
00000000
01000000
10000000
01000000
00000000
,
00100000
00001000
00010000
00000010
,
00000100
00000001
00000100
00000000
00000010
00001000
00000010
00000000
,
00001000
00000100
00020000
00000000
,
00031000
00000000
00010000
00100000
01000000
00000000
10000000
00000000
01000000
00000000
00100000
00001000
00010000
00000000
00000100
00000000
,
00001000
00000000
00000100
00000010
00000001
00000000
00001000
00000100
00000010
00000000
00001000
00000100
00010000
00000000
00001000
00000000
,
00100000
00000000
00010000
00100000
01000000
00000000
10000000
00000000
01000000
00000000
00100000
00001000
00010000
00000000
00000100
00000000
,
00001000
00000000
00000100
00000010
00000001
00000000
00001000
00000100
00000010
00000000
00010000
00001000
00000100
00000000
01000000
00000000
,
10010000
00000000
00100000
00000000
10000000
00100000
10000000
00100000
,
01000000
00000000
00010000
00100000
01000000
00000000
10000000
00000000
,
01000000
00100000
00010000
00000000
00100000
00001000
00100000
00001000
,
00010000
00000000
00000100
00000000
00001000
00000100
00000010
00000000
,
00000001
00000010
00000100
00000000
00000001
00000100
00000001
00000100
,
00001000
00000000
00000100
00000000
00000001
00000010
00000100
00001000
,
00000100
00000000
00010000
00000000
00001000
01000000
00001000
01000000
,
00010000
00000000
00100000
01000000
10000000
00000000
00100000
01000000
,
00010000
00000000
00100000
00000000
00001000
00010000
00001000
00010000
,
00000100
00000000
00000010
00001000
00000001
00000000
00001000
00000010
,
00000100
00000000
00000010
00000000
00010000
00000100
00010000
00000100
,
00001000
00000000
00100000
00010000
01000000
00000000
00100000
10000000
,
01000000
00000000
00100000
00001000
00010000
00001000
00010000
00001000
,
00100000
00001000
00010000
00000010
,
00001000
00000100
00000010
00000000
00000100
00000010
00000001
00000000
,
00001000
00000100
00001000
00000100
00010000
00001000
00010000
00001000
,
00100000
00000000
00010000
00000000
01000000
10000000
00100000
00000000
,
00100000
00010000
01000000
00010000
00100000
00100000
00100000
00000000
,
00001000
00010000
00000100
00000000
00001000
00000100
00000010
00000000
,
00000001
00000001
00000001
00000010
00000100
00001000
00001000
00000000
,
00000100
00000000
00010000
00000000
00001000
00010000
00000000
00010000
00001000
00000000
00100000
00000000
00010000
01000000
00000000
01000000
,
00100000
00000000
10000000
00000000
01000000
00100000
00000000
00100000
00010000
00000000
00100000
00000000
00001000
00000000
00000000
00000000
,
00010000
00000000
00000100
00001000
00000100
00001000
00000010
00000100
00000001
00000000
00000100
00000010
00000100
00000010
00001000
00000000
,
00022000
00000000
00000000
00000000
00000000
00000000
00000000
00000000
00000000
00000000
00000000
00000000
00000000
00000000
00000000
00033000
,
10010000
00000000
10000000
01000000
00000000
00100000
00010000
00000000
,
01000000
00000000
01010000
00000000
00000000
00011000
00000000
00000000
,
00000100
00000000
00001000
00000100
00000000
00000010
00000001
00000000
,
00001000
00000000
00001100
00000000
00000000
00011000
00000000
00000000
,
00001000
00000000
00100000
00010000
01000000
00010000
00100000
00000000
,
01000000
00000000
00100000
10000000
01000000
10000000
00100000
00000000
,
01000000
00000000
00010000
00100000
00001000
00100000
00010000
00000000
,
00100000
00000000
00101000
00000000
00000000
00011000
00000000
00000000
,
00010000
00000000
00000100
00001000
00000100
00000000
00000010
00000000
,
00000001
00000000
00000100
00000010
00000100
00000000
00000010
00000000
,
00001000
00000000
00000100
00010000
00001000
00000000
01000000
00000000
,
00010000
00000000
10000000
01000000
00100000
00000000
00001000
00000000
,
00010000
00001000
00010000
00000100
00001000
00000100
00000010
00000001
,
00001000
00000100
00001000
00000100
00010000
00001000
00010000
00000000
,
00001000
00000000
00100000
00000000
00001000
00000000
00010000
00000000
00000100
00000000
00010000
00000000
,
00001000
00000000
00001000
00000000
00001000
00000000
00010000
00000000
00010000
00000000
00010000
00000000
,
00022000
00000000
00000000
00000000
,
00000000
00000000
00000000
00000000
,
00033000
00000000
00000000
00000000
;

//---------------dance-double - ----------------
#NOTES:
     dance-double:
     :
     Medium:
     12:
     0.510656,0.819177,0.124118,0.165490,0.012412,432.000000,417.000000,15.000000,20.000000,0.000000,0.000000,0.510656,0.819177,0.124118,0.165490,0.012412,432.000000,417.000000,15.000000,20.000000,0.000000,0.000000:
00000000
00000000
00000000
00000000
,
00000000
00000000
00000000
00000000
,
00000000
00000000
00000000
00000000
,
00000000
00000000
00000000
00000000
,
00000000
00000000
00000000
00000000
,
00010000
00100000
01000000
00000000
10000000
01000000
00100000
00000000
,
10000000
00010000
10000000
00010000
10000000
00010000
00100000
00000000
,
00001000
00010000
00001000
00000000
00010000
00001000
00010000
00000000
,
00000100
00001000
00000100
00000010
00000001
00000100
00000010
00000000
,
00001000
00000100
00000010
00000001
,
00001000
00000100
00000010
00000001
,
00001000
00000100
00000010
00000001
,
00001000
00001000
00001000
00000000
,
00000010
00001000
00000100
00010000
,
00000010
00001000
00000100
00010000
,
00000010
00001000
00000100
00010000
,
00001000
00001000
00001000
00000000
,
00100000
00010000
10000000
01000000
,
00100000
00010000
10000000
01000000
,
00100000
00010000
10000000
01000000
,
00100000
00100000
00100000
00000000
,
00001000
00100000
00010000
01000000
,
00001000
00100000
00010000
01000000
,
00100000
00100000
00100000
00100000
,
10000000
01000000
00100000
00010000
10000000
01000000
00100000
00010000
,
20000000
00000000
30020000
00000000
,
00130000
00100000
00100000
00000000
,
00002000
00000000
00023000
00000000
,
00030100
00000100
00000100
00000000
,
00002000
00000000
00003002
00000000
,
00000013
00000100
00001000
00000000
,
00000200
00000000
00020300
00000000
,
00031000
00100000
00010000
00000000
,
02000000
00000000
03200000
00000000
,
10300000
01000000
00100000
00000000
,
00200000
00000000
00302000
00000000
,
00013000
00000100
00001000
00000000
,
00000010
00000100
00000001
00000000
,
00001000
00000100
00010000
00000000
,
00011000
00000000
10010000
00000000
,
00100000
00000000
00100000
00000000
10000000
01000000
00100000
00000000
,
01000000
00000000
01000000
00000000
00100000
00010000
01000000
00000000
,
00010000
00010000
00100000
00000000
00001000
00001000
00010000
00000000
,
00000100
00000100
00001000
00000100
00000010
00000001
00000100
00000000
,
00000010
00000000
00000010
00000000
00001000
00000100
00000010
00000000
,
00001000
00000000
00001000
00000000
00000100
00010000
00001000
00000000
,
00100000
00100000
00100000
00000000
00010000
01000000
00100000
00000000
,
20020000
00000000
00000000
30030000
,
10000000
00100000
10000000
00100000
,
01000000
00010000
01000000
00010000
,
10000000
01000000
00100000
00010000
,
00100000
00001000
00001000
00000000
,
00010000
00000010
00001000
00000010
,
00001000
00000100
00001000
00000100
,
00000010
00000001
00001000
00000100
,
00010000
00010000
00010000
00000000
,
00001000
00100000
00001000
00100000
,
00010000
10000000
01000000
00100000
,
00010000
00100000
00010000
00100000
,
00001000
00001000
00001000
00000000
,
00010000
00000100
00001000
00000000
,
00000001
00001000
00000100
00000000
,
00000010
00000000
00010000
00000000
,
00001000
00010000
00002000
00000000
,
01003000
00000000
10010000
00100000
10000000
00000000
10010000
00100000
,
00001000
00000000
00011000
00000010
00000100
00000000
00001001
00000100
,
00010000
00000000
00011000
01000000
00010000
00000000
10010000
00100000
,
00001000
00000000
00010100
00001000
00000010
00000001
00000100
00010000
,
00011000
00001000
00100000
00010000
,
10000000
01000000
00100000
00010000
,
00100000
00010000
00100000
00001000
,
00001000
00010000
00010000
00000000
,
00000100
00001000
00000100
00000010
,
00000001
00001000
00000100
00001000
,
00000100
00000100
00010000
00001000
,
00010000
00010000
00011000
00000000
,
00001000
00000000
00100000
00000000
00001000
00100000
00001000
00100000
,
00001000
00100000
00010000
01000000
,
00100000
00000000
10000000
00000000
00100000
10000000
00100000
10000000
,
00100000
01000000
00010000
00000000
,
00100000
00000000
00010000
00000000
00100000
00001000
00100000
00001000
,
00100000
00001000
00010000
00000010
,
00001000
00000000
00000100
00000000
00000010
00000001
00000010
00000001
,
00000010
00000001
00000100
00000000
,
00000010
00001000
00000100
00000001
,
00000010
00000000
00001000
00000000
00000100
00000010
00000001
00000000
,
00001000
00000100
00010000
00001000
,
00010000
00100000
01000000
10010000
,
10000000
01000000
00100000
00000000
01000000
00100000
00010000
00000000
,
00100000
00001000
00010000
00000010
,
00001000
00000100
00000010
00000000
00000100
00000010
00000001
00000000
,
00002002
00000000
00000000
00000000
00000000
00000000
00000000
00003003
,
00000001
00000000
00000000
00001000
00000000
00000001
00001000
00000000
,
00000010
00000000
00000000
00001000
00000000
00000000
00000100
00000000
,
00010000
00000000
00000000
00001000
00000000
00010000
00001000
00000000
,
00010000
00000000
00000000
00001000
00000000
00000000
01000000
00000000
,
00100000
00000000
00000000
10000000
00000000
00100000
10000000
00000000
,
00100000
00000000
00000000
01000000
00000000
00100000
01000000
00000000
,
00010000
00000000
00000000
00100000
00000000
00010000
00100000
00000000
,
00002000
00000000
00000000
00003000
,
00010000
00000000
00000000
00000100
00000000
00010000
00000100
00000000
,
00001000
00000000
00000000
00000001
00000000
00001000
00000001
00000000
,
00001000
00000000
00000000
00000010
00000000
00001000
00000010
00000000
,
00010000
00000000
00000000
00001000
00000000
00010000
00001000
00000000
,
00100000
00000000
00010000
00000000
10000000
01000000
00100000
00010000
,
10000000
01000000
00100000
00010000
10000000
01000000
00100000
00010000
,
10000000
00000000
00000000
00000000
01000000
00000000
00100000
00000000
00000000
00000000
00010000
00000000
,
00001000
00000000
00000000
00000000
00001000
00000000
00010000
00000000
00000000
00000000
00000000
00000000
,
00022000
00000000
00000000
00000000
,
00000000
00000000
00000000
00000000
,
00033000
00000000
00000000
00000000
;

//---------------dance-double - ----------------
#NOTES:
     dance-double:
     :
     Easy:
     9:
     0.349894,0.591628,0.091020,0.115843,0.000000,296.000000,285.000000,11.000000,14.000000,0.000000,0.000000,0.349894,0.591628,0.091020,0.115843,0.000000,296.000000,285.000000,11.000000,14.000000,0.000000,0.000000:
00000000
00000000
00000000
00000000
,
00000000
00000000
00000000
00000000
,
00000000
00000000
00000000
00000000
,
00000000
00000000
00000000
00000000
,
00000000
00000000
00000000
00000000
,
20000000
30000000
00010000
00100000
,
00002000
00013000
00000010
00001000
,
00000002
00001003
00000010
00010000
,
00002000
01003000
00100000
10010000
,
10000000
01000000
00100000
00000000
,
01000000
00100000
00010000
00000000
,
10000000
00010000
10000000
00010000
,
00100000
00100000
00100000
00000000
,
00001000
00010000
00001000
00000000
,
00010000
00001000
00010000
00000000
,
00000100
00001000
00000100
00000010
,
00000001
00000100
00000100
00000000
,
00000010
00001000
00000010
00000000
,
00000100
00000001
00000100
00000000
,
00000010
00001000
00000100
00001000
,
00000100
00000100
00000100
00000000
,
00010000
00001000
00010000
00000000
,
00001000
00010000
00001000
00000000
,
00100000
00010000
10000000
01000000
,
00100000
00010000
01000000
00000000
,
00100000
00000000
10000000
00000000
,
01000000
00000000
00010000
00000000
,
00000100
00000000
00001000
00000000
,
00000010
00000000
00000001
00000000
,
00000100
00000000
00001000
00000000
,
00010000
00000000
00100000
00000000
,
10000000
00000000
01000000
00000000
,
00010000
00000000
00000010
00000000
,
00000001
00000000
00000100
00000000
,
00000001
00000000
00000010
00000000
,
00010000
00000000
00001000
00000000
,
00100000
00000000
00010000
00000000
,
10000000
00000000
01000000
00000000
,
00100000
00000000
00001000
00000000
,
00011000
00000000
00000000
00000000
,
10000000
00000000
00000000
00000000
10000000
00010000
10000000
00000000
,
00010000
00000000
00000000
00000000
10000000
00010000
10000000
00000000
,
00010000
00100000
01000000
10000000
,
00010000
00000000
00100000
00000000
00001000
00010000
00010000
00000000
,
00000010
00000000
00000000
00000000
00000010
00000100
00000010
00000000
,
00000100
00000000
00000000
00000000
00000010
00000100
00000010
00000000
,
00001000
00000100
00000010
00000001
,
00002002
00000000
00003003
00000000
,
00001000
00000000
00000100
00000000
,
00001000
00000100
00000010
00000000
,
00000001
00000000
00000010
00000000
,
00000001
00000010
00000100
00000000
,
00001000
00000000
00000100
00000000
,
00010000
00000000
00001000
00000000
,
01000000
00000000
00010000
00000000
,
10000000
01000000
00100000
00000000
,
10000000
00000000
00100000
00000000
,
01000000
00100000
00010000
00000000
,
00100000
00000000
00001000
00000000
,
00010000
00001000
00010000
00000000
,
00000100
00001000
00000100
00000000
,
00000010
00000001
00000010
00000000
,
00000001
00000000
00000100
00000000
,
00001000
00000000
00011000
00000000
,
00100000
00000000
00010000
00010000
00100000
00000000
01000000
01000000
,
10000000
00000000
01000000
01000000
00100000
00000000
00010000
00100000
,
00001000
00000000
00001000
00001000
00010000
00000000
00000100
00000100
,
00001000
00000000
00000010
00000010
00000100
00000000
00000001
00000000
,
00001000
00000000
00000100
00000000
,
00001000
00000100
00001000
00000000
,
00000100
00000000
00000010
00000000
,
00000001
00000000
00000100
00000000
,
00000010
00000000
00001000
00000000
,
00000100
00001000
00000100
00000000
,
00010000
00000000
00001000
00000000
,
01000000
00000000
00010000
00000000
,
10000000
00000000
00010000
00000000
,
10000000
01000000
10000000
00000000
,
00100000
00000000
01000000
00000000
,
00001000
00000000
00010000
00000000
,
00000010
00000000
00000100
00000000
,
00000001
00001000
00000001
00000000
,
00001000
00000000
00000100
00000000
,
00010000
00000000
00001000
00000000
,
00012000
00000000
00103000
01000000
,
20020000
30030000
00100000
01000000
,
00002000
00000000
00013000
00000010
,
00000200
00000000
00000310
00010000
,
00001000
00000100
00000010
00000001
,
00000100
00000010
00001000
00000010
,
00000001
00000010
00001000
00000100
,
00020000
00000000
00000000
00000000
00000000
00000000
00000000
00030000
,
00001000
00000000
00000000
00000000
,
01000000
00000000
10010000
00000000
,
00100000
00000000
00000000
00000000
,
00001000
00000000
00011000
00000000
,
00010000
00000000
00000000
00000000
,
00000100
00000000
00001001
00000000
,
00000010
00000000
00000000
00000000
,
00001001
00000000
00000000
00000000
,
00000100
00000000
00000000
00010000
00000000
00000000
00010000
00000000
,
00001000
00000000
00000000
00001000
00000000
00000000
00010000
00000000
,
00001000
00000000
00000000
00001000
00000000
00000000
01000000
00000000
,
00010000
00000000
00000000
00010000
00000000
00000000
10000000
00000000
,
01000000
00100000
00010000
00000000
,
00100000
00001000
00010000
00000000
,
00000100
00000010
00000001
00000000
,
00001000
00000100
00010000
00000000
,
00022000
00000000
00000000
00000000
,
00000000
00000000
00000000
00000000
,
00033000
00000000
00000000
00000000
;

//---------------dance-single - ----------------
#NOTES:
     dance-single:
     :
     Easy:
     8:
     0.328616,0.500608,0.099294,0.231686,0.000000,278.000000,266.000000,12.000000,28.000000,0.000000,0.000000,0.328616,0.500608,0.099294,0.231686,0.000000,278.000000,266.000000,12.000000,28.000000,0.000000,0.000000:
// measure 0
0000
0000
0000
0000
,  // measure 1
0000
0000
0000
0000
,  // measure 2
0000
0000
0000
0000
,  // measure 3
0000
0000
0000
0000
,  // measure 4
0000
0000
0000
0000
,  // measure 5
0002
0003
2000
3000
,  // measure 6
0020
0030
0200
0300
,  // measure 7
0020
0030
0020
0030
,  // measure 8
1000
0001
2002
3003
,  // measure 9
1000
0000
1000
0000
,  // measure 10
0001
0000
0001
0000
,  // measure 11
1000
0000
0100
0000
,  // measure 12
0010
0001
1000
0000
,  // measure 13
0001
0000
0100
0000
,  // measure 14
0010
0000
0010
0000
,  // measure 15
0100
0000
1000
0000
,  // measure 16
0001
1000
0001
0000
,  // measure 17
1000
0100
1000
0000
,  // measure 18
0001
0010
0001
0000
,  // measure 19
1000
0100
1000
0000
,  // measure 20
0010
0001
0010
0000
,  // measure 21
0001
0000
0010
0000
,  // measure 22
0100
0000
1000
0000
,  // measure 23
0001
0010
0001
0010
,  // measure 24
0001
0000
1001
0000
,  // measure 25
0020
0000
0030
0000
,  // measure 26
0200
0000
0300
0000
,  // measure 27
0002
0000
0003
0000
,  // measure 28
2000
0000
3000
0000
,  // measure 29
0001
0000
0001
0000
,  // measure 30
0100
0000
1000
0000
,  // measure 31
1000
0000
1000
0000
,  // measure 32
0100
0000
0001
0000
,  // measure 33
1000
0000
0010
0000
,  // measure 34
0001
0000
0001
0000
,  // measure 35
0010
0000
1000
0000
,  // measure 36
1000
0000
0100
0000
,  // measure 37
0010
0000
0100
0000
,  // measure 38
1000
0000
0001
0000
,  // measure 39
2002
3003
0000
0000
,  // measure 40
0010
0000
1000
0100
,  // measure 41
0010
0000
0100
0010
,  // measure 42
0001
0001
1000
1000
,  // measure 43
0001
0010
0100
1000
,  // measure 44
0001
0000
1000
1000
,  // measure 45
0001
0000
0001
0001
,  // measure 46
1000
0100
0010
0001
,  // measure 47
2002
0000
0000
3003
,  // measure 48
0010
0000
0010
0000
,  // measure 49
0100
0000
0001
0000
,  // measure 50
1000
0000
1000
0000
,  // measure 51
0010
0100
0010
0000
,  // measure 52
0001
0100
0001
0000
,  // measure 53
1000
0100
1000
0000
,  // measure 54
0001
1000
0001
1000
,  // measure 55
0001
1000
0001
0000
,  // measure 56
1000
0000
0100
0000
,  // measure 57
0010
0001
0010
0000
,  // measure 58
0001
0000
0010
0000
,  // measure 59
0100
1000
0100
0000
,  // measure 60
0010
0100
0010
0000
,  // measure 61
1000
0001
1000
0000
,  // measure 62
0001
0010
0100
1000
,  // measure 63
0100
0010
0001
0000
,  // measure 64
2000
0000
3010
0000
1000
0100
0010
0000
,  // measure 65
0002
0000
0103
0000
0001
0010
0100
0000
,  // measure 66
2000
0000
3001
0000
0010
0100
0001
0000
,  // measure 67
0002
1003
0010
1000
,  // measure 68
0100
0000
0100
0000
,  // measure 69
0010
0000
0010
0000
,  // measure 70
1000
0001
1000
0000
,  // measure 71
0001
1000
0001
0000
,  // measure 72
0010
0000
0010
0000
,  // measure 73
0100
0000
0100
0000
,  // measure 74
1000
0100
1000
0000
,  // measure 75
0010
0001
0010
0000
,  // measure 76
0001
0000
0010
0000
,  // measure 77
0100
0100
0100
0000
,  // measure 78
1000
0000
0100
0000
,  // measure 79
0010
0010
0010
0000
,  // measure 80
1000
0001
1000
0000
,  // measure 81
0010
0100
0010
0000
,  // measure 82
1000
0000
0001
0000
,  // measure 83
0100
0000
0010
0000
,  // measure 84
2000
0000
3100
0010
,  // measure 85
0002
0000
0013
0100
,  // measure 86
1000
1000
0100
0010
,  // measure 87
0001
0001
0010
0100
,  // measure 88
1000
0100
0010
0001
,  // measure 89
1000
0100
0010
0001
,  // measure 90
0001
0010
0100
1000
,  // measure 91
2002
0000
0000
0000
0000
0000
0000
3003
,  // measure 92
1000
0000
0000
0100
0000
0000
1000
0000
,  // measure 93
1100
0000
0000
0000
,  // measure 94
0001
0000
0000
0100
0000
0000
0001
0000
,  // measure 95
0101
0000
0000
0000
,  // measure 96
0010
0000
0000
0100
0000
0000
0010
0000
,  // measure 97
0010
0000
0000
0100
0000
0000
0010
0000
,  // measure 98
1000
0000
0000
0001
0000
0000
1000
0000
,  // measure 99
1001
0000
0000
0000
,  // measure 100
1000
0000
0000
0100
0000
0000
0010
0000
,  // measure 101
0011
0000
0000
0000
,  // measure 102
0001
0000
0000
0100
0000
0000
0010
0000
,  // measure 103
1010
0000
0000
0000
,  // measure 104
1000
0000
0000
0001
0000
0000
0100
0000
,  // measure 105
0001
0000
0000
1000
0000
0000
0010
0000
,  // measure 106
0100
0000
0010
0000
,  // measure 107
2002
0000
3003
0000
,  // measure 108
2002
0000
0000
0000
,  // measure 109
0000
0000
0000
0000
,  // measure 110
3003
0000
0000
0000
;

//---------------dance-single - ----------------
#NOTES:
     dance-single:
     :
     Beginner:
     6:
     0.223412,0.409589,0.057922,0.057922,0.000000,189.000000,182.000000,7.000000,7.000000,0.000000,0.000000,0.223412,0.409589,0.057922,0.057922,0.000000,189.000000,182.000000,7.000000,7.000000,0.000000,0.000000:
0000
0000
0000
0000
,
0000
0000
0000
0000
,
0000
0000
0000
0000
,
0000
0000
0000
0000
,
0000
0000
0000
0000
,
0010
0000
0001
0000
,
0100
0000
1000
0000
,
0010
0000
1000
0000
,
0100
0000
0001
0000
,
1000
0000
1000
0000
,
1000
0000
1000
0000
,
0001
0000
0001
0000
,
0001
0000
0001
0000
,
1000
0000
1000
0000
,
0001
0000
0001
0000
,
1000
0000
0001
0000
,
0100
0000
0010
0000
,
1000
0000
1000
0000
,
1000
0000
0000
0000
,
0001
0000
0001
0000
,
0001
0000
0000
0000
,
0100
0000
0100
0000
,
0010
0000
0010
0000
,
0100
0000
0010
0000
,
1000
0000
0001
0000
,
1000
0000
0000
0000
,
0100
0000
0000
0000
,
0010
0000
0000
0000
,
0001
0000
0000
0000
,
0001
0000
0000
0000
,
0010
0000
0000
0000
,
0100
0000
0000
0000
,
1000
0000
0000
0000
,
0001
0000
0000
0000
,
0010
0000
0000
0000
,
0100
0000
0000
0000
,
1000
0000
0000
0000
,
0001
0000
0001
0000
,
0001
0000
0000
0000
,
2000
3000
0000
0000
,
0010
0000
0100
0000
,
0010
0000
0100
0000
,
0001
0001
0001
0000
,
1000
1000
1000
0000
,
0100
0000
0010
0000
,
0100
0000
0010
0000
,
1000
1000
1000
0000
,
2002
0000
3003
0000
,
0010
0000
0000
0000
,
0100
0000
0100
0000
,
0100
0000
0000
0000
,
0010
0000
0010
0000
,
1000
0000
0001
0000
,
1000
0000
1000
0000
,
0001
0000
1000
0000
,
0001
0000
0001
0000
,
0100
0000
0000
0000
,
0010
0000
0010
0000
,
0010
0000
0000
0000
,
0100
0000
0100
0000
,
0001
0000
1000
0000
,
0001
0000
1000
0000
,
0001
0000
0001
0000
,
1000
0000
0000
0000
,
0000
0100
0000
0100
,
0000
0010
0000
0010
,
0000
1000
0000
0001
,
0000
0100
0100
0100
,
0100
0000
0000
0000
,
0100
0000
0000
0000
,
0010
0000
0010
0000
,
0010
0000
0000
0000
,
1000
0000
1000
0000
,
0001
0000
0001
0000
,
1000
0000
0100
0000
,
0010
0000
0001
0000
,
1000
0000
1000
0000
,
1000
0000
1000
0000
,
0001
0000
0001
0000
,
0001
0000
0001
0000
,
0010
0000
0010
0000
,
0100
0000
0100
0000
,
0001
0000
0010
0000
,
0100
0000
0000
0000
,
1001
0000
0010
0010
,
0010
0000
0100
0100
,
0100
0000
0001
0001
,
0001
0000
1000
1000
,
0001
0001
1000
1000
,
0001
1000
0001
1000
,
0010
0010
0100
0000
,
2002
0000
0000
0000
,
3003
0000
0000
0000
,
0001
0000
1000
0000
,
1001
0000
0000
0000
,
1000
0000
0001
0000
,
1001
0000
0000
0000
,
0010
0000
0000
0000
,
0100
0000
0000
0000
,
1001
0000
0000
0000
,
1000
0000
0001
0000
,
1000
0000
0000
0000
,
0001
0000
1000
0000
,
0001
0000
0000
0000
,
0100
0000
0000
0000
,
0010
0000
0000
0000
,
1000
0000
1000
0000
,
0001
0000
0001
0000
,
2002
0000
0000
0000
,
0000
0000
0000
0000
,
3003
0000
0000
0000
;

//---------------dance-single - ----------------
#NOTES:
     dance-single:
     :
     Medium:
     12:
     0.490561,0.864687,0.190314,0.115843,0.033098,415.000000,392.000000,23.000000,14.000000,0.000000,0.000000,0.490561,0.864687,0.190314,0.115843,0.033098,415.000000,392.000000,23.000000,14.000000,0.000000,0.000000:
// measure 0
0000
0000
0000
0000
,  // measure 1
0000
0000
0000
0000
,  // measure 2
0000
0000
0000
0000
,  // measure 3
0000
0000
0000
0000
,  // measure 4
0000
0000
0000
0000
,  // measure 5
1000
0100
0010
0001
,  // measure 6
0001
0010
0100
1000
,  // measure 7
0001
0010
0100
1000
,  // measure 8
1000
0100
0010
0001
,  // measure 9
1000
0001
1000
0000
,  // measure 10
0001
1000
0001
0000
,  // measure 11
1000
0100
0010
0001
,  // measure 12
1000
0001
1000
0000
,  // measure 13
0001
0100
0001
0000
,  // measure 14
1000
0010
1000
0000
,  // measure 15
0001
0010
0100
1000
,  // measure 16
0100
0010
0001
0000
,  // measure 17
0100
0010
0100
0000
,  // measure 18
0010
0100
0010
0000
,  // measure 19
0001
0010
0100
1000
,  // measure 20
0100
0010
0001
0000
,  // measure 21
1000
1000
1000
0000
,  // measure 22
0001
0001
0001
0000
,  // measure 23
1000
0001
1000
0000
0001
1000
0001
0000
,  // measure 24
1000
0100
0010
0001
1000
0100
0010
0001
,  // measure 25
2000
0000
3000
0000
,  // measure 26
0001
0100
0001
0100
,  // measure 27
0002
0000
0003
0000
,  // measure 28
1000
0010
1000
0010
,  // measure 29
2000
0000
3000
0000
,  // measure 30
0001
0010
0100
1000
,  // measure 31
2000
0000
3000
0000
,  // measure 32
1000
0100
0010
0001
,  // measure 33
0002
0000
0003
0000
,  // measure 34
0100
0010
0100
0100
,  // measure 35
0200
0000
0300
0000
,  // measure 36
0010
0100
0010
0010
,  // measure 37
0010
0000
0000
0000
,  // measure 38
0100
0000
0000
0000
,  // measure 39
2002
3003
0000
0000
,  // measure 40
0010
0000
0000
0000
1000
0001
1000
0001
,  // measure 41
0100
0000
0000
0000
0001
1000
0001
1000
,  // measure 42
0100
0010
0001
1000
,  // measure 43
0001
1000
0001
1000
0010
0100
0010
0000
,  // measure 44
1000
0000
1000
0000
0001
0010
0100
0000
,  // measure 45
0001
0000
0001
0000
1000
0100
0010
0000
,  // measure 46
1000
0100
1000
0000
0001
0010
0001
0000
,  // measure 47
2002
0000
3003
0000
,  // measure 48
0010
0100
0010
0000
,  // measure 49
0100
0010
0100
0000
,  // measure 50
0001
0010
0001
1000
,  // measure 51
0100
1000
1000
0000
,  // measure 52
0001
0100
0001
0000
,  // measure 53
1000
0100
1000
0000
,  // measure 54
0001
0100
0001
0100
,  // measure 55
0100
0010
0100
0000
,  // measure 56
0001
0100
0010
0000
,  // measure 57
1000
0010
0100
0000
,  // measure 58
0001
1000
1000
0001
,  // measure 59
1000
0001
1000
0000
,  // measure 60
0010
0100
0010
0000
,  // measure 61
1000
0100
0010
0000
,  // measure 62
0100
0010
0001
0000
,  // measure 63
1001
0000
0000
0000
,  // measure 64
0010
0000
1001
0100
0010
0000
1001
0010
,  // measure 65
0100
0000
1100
0010
0001
0000
0011
0100
,  // measure 66
1000
0000
1010
0001
0100
0000
0101
1000
,  // measure 67
0010
0000
1100
0010
0101
0000
0110
0000
,  // measure 68
1000
0100
1000
0100
,  // measure 69
0010
0001
0010
0001
,  // measure 70
1000
0100
0010
0001
,  // measure 71
0001
0010
0100
1000
,  // measure 72
0010
0100
0010
0100
,  // measure 73
0001
0010
0100
1000
,  // measure 74
0100
0100
0010
0010
,  // measure 75
1000
0100
0010
0001
,  // measure 76
1000
0100
1000
0100
,  // measure 77
0010
0001
0100
0100
,  // measure 78
0001
0010
0001
0010
,  // measure 79
1000
0100
0010
0001
,  // measure 80
1000
0100
0010
0001
,  // measure 81
1000
0100
0010
0001
,  // measure 82
1000
0100
0010
0000
0100
0010
0001
0000
,  // measure 83
1000
0100
0010
0001
1000
0100
0010
0001
,  // measure 84
1000
0000
0000
1001
0000
0000
0000
0000
0001
0000
0010
0000
0100
0000
0000
0000
,  // measure 85
0001
0000
0000
1001
0000
0000
0000
0000
0010
0000
0100
0000
1000
0000
0000
0000
,  // measure 86
0010
0000
0000
0110
0000
0000
0000
0000
1000
0000
0010
0000
0001
0000
0000
0000
,  // measure 87
0100
0000
0000
0110
0000
0000
0000
0000
0001
0000
0100
0000
1000
0000
0000
0000
,  // measure 88
0001
0010
0100
1000
0001
0010
0100
0010
,  // measure 89
0001
1000
0100
0010
0001
0010
0100
1000
,  // measure 90
0001
0010
0001
0010
0100
1000
0100
0000
,  // measure 91
2002
0000
0000
0000
0000
0000
0000
3003
,  // measure 92
1000
0000
0000
0001
0000
1000
0001
0000
,  // measure 93
1001
0000
0000
0000
,  // measure 94
0001
0000
0000
1000
0000
0010
1000
0000
,  // measure 95
1001
0000
0000
0000
,  // measure 96
1000
0000
0000
0100
0000
1000
0100
0000
,  // measure 97
0010
0000
0000
0001
0000
0010
0001
0000
,  // measure 98
1000
0000
0000
0100
0000
0010
0001
0000
,  // measure 99
1001
0000
0000
0000
,  // measure 100
0010
0000
0100
0010
0100
0000
0100
0000
,  // measure 101
0010
0000
1001
0000
,  // measure 102
0010
0000
0100
0010
0100
0000
0010
0000
,  // measure 103
0010
0000
1001
0000
,  // measure 104
1000
0100
1000
0000
0001
0100
0001
0000
,  // measure 105
1000
0100
0010
0001
1000
0100
0010
0001
,  // measure 106
0100
0000
0000
0000
0100
0000
0010
0000
0000
0000
0010
0000
,  // measure 107
1000
0000
0100
0000
0010
0000
0001
0000
0000
0000
0000
0000
,  // measure 108
2002
0000
0000
0000
,  // measure 109
0000
0000
0000
0000
,  // measure 110
3003
0000
0000
0000
;
