#TITLE:MARS WAR 3;
#SUBTITLE:("FREEZE" Special);
#ARTIST:JET GIRL SPIN;
#TITLETRANSLIT:;
#SUBTITLETRANSLIT:;
#ARTISTTRANSLIT:;
#GENRE:;
#CREDIT:;
#BANNER:MARS WAR 3 (FREEZE Special).png;
#BACKGROUND:MARS WAR 3 (FREEZE Special)-bg.png;
#LYRICSPATH:;
#CDTITLE:;
#MUSIC:MARS WAR 3 (FREEZE Special).ogg;
#OFFSET:0.000000;
#SAMPLESTART:20.410000;
#SAMPLELENGTH:15.000000;
#SELECTABLE:YES;
#DISPLAYBPM:200.000000;
#BPMS:0.000000=200.000000
;
#STOPS:
;
#BGCHANGES:;
#KEYSOUNDS:;
#ATTACKS:;

//---------------dance-single - ----------------
#NOTES:
     dance-single:
     :
     Challenge:
     10:
     0.394596,0.529494,0.205993,1.114232,0.000000,295.000000,273.000000,22.000000,119.000000,0.000000,0.000000,0.394596,0.529494,0.205993,1.114232,0.000000,295.000000,273.000000,22.000000,119.000000,0.000000,0.000000:
0000
0000
0000
0000
,
0000
0000
0000
0000
,
0000
0000
0000
0000
,
0000
0000
0000
0000
,
0000
0000
0000
0000
,
0020
0000
0032
0000
,
0203
0000
0000
0000
,
2300
0000
0000
0000
,
3020
0000
0130
0000
,
0002
0000
0203
0000
,
2300
0000
0001
0000
,
0100
0000
0001
0000
,
0010
0000
3001
0000
,
0200
0000
0302
0000
,
0023
0000
1000
0000
,
0100
0000
1000
0000
,
0002
0033
1001
1001
,
0020
0000
0000
1000
0000
0001
0000
0001
,
0000
0100
0000
1030
0001
0000
1001
0000
,
0200
0000
0000
0001
0000
1000
0000
1000
,
0000
0001
0000
0010
1300
0001
0000
0000
,
0020
0000
0000
0001
0000
0100
0000
1000
,
0000
0100
0000
0031
1000
0000
0010
0000
,
2000
0000
0000
0010
0000
0001
0000
0100
,
0000
0001
0000
3010
0100
0010
0100
0010
,
1000
0000
0001
0020
0000
1000
0000
0001
,
0000
0031
0100
0010
1000
0000
1001
0000
,
1000
0000
0010
0200
0000
0001
0000
1000
,
0000
0301
0100
0010
0100
0001
1000
0000
,
0002
0203
0010
1000
,
0302
0023
1000
0001
,
0032
0100
2003
0100
,
3002
0010
2003
0010
,
3002
0000
0203
0000
,
1000
1000
0302
0000
,
0023
0000
2030
0000
,
0100
0100
3002
0000
,
0023
0000
2030
0000
,
0100
0100
3002
0000
,
0023
0000
0230
0000
,
0001
0001
2000
3300
,
0202
0303
2200
3300
,
0022
0033
2020
3030
,
0202
0303
0202
0303
,
2200
3300
2200
3300
,
0002
0010
0100
1000
,
2003
0100
0010
0001
,
3002
0010
0100
0010
,
2003
0100
0010
0100
,
3002
2000
3000
0020
,
0030
2000
3000
0203
,
0000
0020
0030
0002
,
0003
0010
0020
0030
,
0302
0000
0000
0203
0000
0010
0000
0001
,
0000
0010
0000
0301
1000
0000
0010
0000
,
2000
0000
0000
3002
0000
0010
0000
0010
,
0000
1000
0000
1003
0001
0100
0000
0000
,
0020
0230
0001
1300
,
0002
0023
1000
0031
,
0200
0001
2300
0001
,
3020
0001
2030
0100
,
3020
0100
2030
0100
,
0010
0001
3020
0100
,
2030
0100
3002
0010
,
0100
1000
0203
0010
,
2300
3001
0020
0001
,
0100
0100
0032
1000
,
2003
3010
0200
0001
,
0001
1000
0001
0310
,
2002
3003
2200
3300
,
2002
3003
0202
0303
,
2200
3300
0022
0033
,
2020
3030
0022
0033
,
2000
3100
0002
0103
,
2000
3010
0002
0013
,
2000
0100
0001
3100
,
0002
0100
1000
0103
,
0020
1000
0100
1000
,
0230
0001
0010
0001
,
2300
3100
0002
0103
,
2000
3010
0002
0013
,
1001
0000
0100
0010
0100
0000
0010
0100
,
0000
0001
1000
0001
1000
0000
0010
0000
,
0000
1000
0100
1000
0100
0000
1000
0001
,
0000
0100
0010
0100
0001
0000
0000
0000
,
2002
0000
0000
0000
,
0000
0000
0000
0000
,
3003
0000
0000
0000
;

//---------------dance-double - ----------------
#NOTES:
     dance-double:
     :
     Challenge:
     11:
     0.432049,0.529494,0.393258,1.273408,0.000000,323.000000,281.000000,42.000000,136.000000,0.000000,0.000000,0.432049,0.529494,0.393258,1.273408,0.000000,323.000000,281.000000,42.000000,136.000000,0.000000,0.000000:
// measure 0
00000000
00000000
00000000
00000000
,  // measure 1
00000000
00000000
00000000
00000000
,  // measure 2
00000000
00000000
00000000
00000000
,  // measure 3
00000000
00000000
00000000
00000000
,  // measure 4
00000000
00000000
00000000
00000000
,  // measure 5
00200000
00000000
00302000
00000000
,  // measure 6
00003020
00000000
00000100
00000000
,  // measure 7
00001000
00000000
00010000
00000000
,  // measure 8
00000200
00000000
00000330
00000000
,  // measure 9
00020000
00000000
00032000
00000000
,  // measure 10
02003000
00000000
00001000
00000000
,  // measure 11
00010000
00000000
10000000
00000000
,  // measure 12
00010000
00000000
03001000
00000000
,  // measure 13
00020000
00000000
00030020
00000000
,  // measure 14
00002030
00000000
00000100
00000000
,  // measure 15
00000001
00000000
00003100
00000000
,  // measure 16
00022000
00033000
10010000
10010000
,  // measure 17
01010000
00000000
00000000
00002000
00000000
01000000
00000000
00000100
,  // measure 18
00000000
01003000
00001000
01000000
00020000
00000000
00230000
00000000
,  // measure 19
00301000
00000000
00010000
00000200
00000000
00001000
00000000
00000001
,  // measure 20
00000000
00001300
00000100
00010000
00001000
01000000
00010000
00000000
,  // measure 21
00100000
00000000
00001000
00020000
00000000
00000100
00000000
00001000
,  // measure 22
00000000
00030010
00010000
00001000
00010000
00000000
00001000
00000000
,  // measure 23
00100000
00000000
00001000
02000000
00000000
00001000
00000000
00010000
,  // measure 24
00000000
03100000
01000000
00010000
10000000
00000000
10010000
00000000
,  // measure 25
01100000
00000000
20000000
00010000
00000000
01000000
00000000
30010000
,  // measure 26
00000000
01000000
00001000
00010000
00000200
00000000
00010000
00000000
,  // measure 27
00002300
00000000
00000000
00000001
00000000
00000100
00000000
00013000
,  // measure 28
00000000
00001000
01000000
00010000
01000000
00000000
10100000
00000000
,  // measure 29
01020000
01030000
00002000
00023000
,  // measure 30
00000010
00000010
00032000
02003000
,  // measure 31
03200000
10000000
01000000
20300000
,  // measure 32
00010000
00100000
30020000
00100000
,  // measure 33
02030000
00000000
03002000
00010000
,  // measure 34
00010000
00010000
00023000
00000010
,  // measure 35
00030020
00000100
00000230
00000001
,  // measure 36
00000010
00000001
00000302
00001000
,  // measure 37
00000203
00000001
00002300
00000100
,  // measure 38
00000001
00000100
00003020
00010000
,  // measure 39
00000230
00001000
00020300
00001000
,  // measure 40
01000000
00001000
00000020
00030030
,  // measure 41
00002002
00003003
20020000
30030000
,  // measure 42
00002200
00003300
02020000
03030000
,  // measure 43
00002020
00003030
20200000
30300000
,  // measure 44
00002200
00003300
00220000
00330000
,  // measure 45
02000000
00010000
10000000
00010000
,  // measure 46
00001000
00010000
00100000
00010000
,  // measure 47
03002000
00010000
00100000
01000000
,  // measure 48
00010000
00100000
00020000
00033000
,  // measure 49
00011000
00020000
00030020
00000032
,  // measure 50
00000023
00020030
00030200
00020300
,  // measure 51
02030000
23000000
32000000
03020000
,  // measure 52
00032000
00003200
00000302
00000003
,  // measure 53
00000210
00000000
00000000
00000001
00000000
00001000
00000000
00000301
,  // measure 54
00000000
00010000
00000100
01000000
00002000
00003000
02000000
00000000
,  // measure 55
03010000
00000000
01000000
00200000
00000000
10000000
00000000
00010000
,  // measure 56
00000000
10300000
00100000
01000000
00001000
00001000
00010000
00000000
,  // measure 57
00002100
00003100
00010000
00001000
,  // measure 58
02010000
03010000
00001000
00010000
,  // measure 59
00002200
00003300
00220000
00330000
,  // measure 60
00002020
00003030
02020000
03030000
,  // measure 61
20000000
00010000
30200000
01000000
,  // measure 62
00010000
01000000
20300000
00010000
,  // measure 63
30200000
00001000
00320000
00000100
,  // measure 64
00000010
00000100
00031000
00000001
,  // measure 65
00002000
00000100
00003002
00000010
,  // measure 66
00001000
00000010
00000203
00000001
,  // measure 67
00001000
00000001
00000320
00001000
,  // measure 68
00010000
00000100
00001000
00010030
,  // measure 69
00022000
00033000
02200000
03300000
,  // measure 70
00022000
00033000
00000220
00000330
,  // measure 71
00022000
00033000
20020000
30030000
,  // measure 72
00022000
00033000
00002002
00003003
,  // measure 73
00220000
00330000
00002020
00003030
,  // measure 74
02020000
03030000
00002200
00003300
,  // measure 75
20200000
30300000
00022000
00033000
,  // measure 76
00000022
00000033
00022000
00033000
,  // measure 77
02000000
00001000
00010000
03002000
,  // measure 78
00010000
00100000
00023000
00000100
,  // measure 79
00000010
00030200
00010000
00001000
,  // measure 80
00020300
00001000
00000100
00030010
,  // measure 81
00001010
00000000
00000001
00000000
00000100
00000000
00001000
00000100
,  // measure 82
00000000
00010000
00001000
00000000
00100000
00000000
00010000
00000000
,  // measure 83
00000000
00000000
10000000
00000000
00010000
00000000
00100000
00001000
,  // measure 84
00000000
00010000
00000010
00000000
00010000
00001000
00000000
00000000
,  // measure 85
00022000
00000000
00000000
00000000
,  // measure 86
00000000
00000000
00000000
00000000
,  // measure 87
00033000
00000000
00000000
00000000
;
