#TITLE:マイアガル、マイオドル;
#SUBTITLE:;
#ARTIST:chocck feat. 響華;
#TITLETRANSLIT:MAIAGARU, MAIODORU;
#SUBTITLETRANSLIT:;
#ARTISTTRANSLIT:chocck feat. kyoka;
#GENRE:;
#CREDIT:;
#BANNER:MAIAGARU, MAIODORU.png;
#BACKGROUND:MAIAGARU, MAIODORU-bg.png;
#LYRICSPATH:;
#CDTITLE:;
#MUSIC:MAIAGARU, MAIODORU.ogg;
#OFFSET:1.296000;
#SAMPLESTART:58.960175;
#SAMPLELENGTH:12.000000;
#LASTBEATHINT:0.873200;
#SELECTABLE:YES;
#DISPLAYBPM:177.000000;
#BPMS:0.000000=177.000000
;
#STOPS:175.916672=0.678000
;
#BGCHANGES:;
#KEYSOUNDS:;
#ATTACKS:;

//---------------dance-single - ----------------
#NOTES:
     dance-single:
     :
     Hard:
     15:
     0.828368,0.908594,0.410664,0.172479,0.595463,706.000000,656.000000,50.000000,21.000000,0.000000,0.000000,0.828368,0.908594,0.410664,0.172479,0.595463,706.000000,656.000000,50.000000,21.000000,0.000000,0.000000:
0000
0000
0000
0000
,
0000
0000
0000
0000
,
0000
0000
0000
0000
,
1001
0000
0000
1000
0010
0000
0100
0000
0001
0000
0000
0001
1000
0000
0010
0000
,
1000
0000
0000
1000
0001
0000
0100
0000
0010
0000
0000
0010
1000
0000
0001
0000
,
1000
0000
0000
1000
0100
0000
1000
0000
0010
0000
0100
0000
0001
0000
0100
0000
,
0010
0000
0000
0010
1000
0000
0001
0000
0100
0000
0010
0000
1010
0000
0000
0000
,
0001
1000
0000
1000
0010
0000
0100
0000
0001
1000
0000
1000
0100
0000
1000
0000
,
0010
0100
0000
0100
0001
0000
1000
0000
0010
0000
0000
0000
1000
0000
0001
0100
,
0001
0000
0000
1000
0010
0000
0100
0000
0000
0000
1001
0000
0000
0000
1000
0000
,
0110
0000
0000
1000
0000
0000
0001
0000
2002
0000
0000
0000
3003
0000
0000
0000
,
0001
0000
0000
0001
0000
0000
0001
1000
0100
0000
0000
0100
0000
0000
0100
1000
,
0010
0000
0000
0010
0000
0000
0100
0010
1000
0000
0001
0000
1000
0000
0001
0100
,
0010
0000
0000
0010
0000
0000
1000
0001
0100
0000
0000
0000
0001
0000
1000
0000
,
0100
0000
0000
0100
0000
0000
1000
0010
0100
0000
1000
0000
1001
0000
0000
0000
,
0010
0000
0000
0010
1000
0000
0001
0000
0100
0000
0000
0100
0001
0000
1000
0000
,
0001
0000
0000
0001
0010
0000
0001
0100
0010
0000
1000
0000
0010
0000
0100
0000
,
0002
0000
1003
0010
0000
1010
0000
0001
,
0110
0000
0000
1000
0000
0000
0001
0000
2002
0000
0000
0000
3003
0000
0000
0000
,
0020
0000
0030
0000
,
1100
0000
0101
0000
1100
0000
0001
0100
,
1000
0000
0100
0000
0001
0000
0020
0000
0000
0000
0000
0000
0000
0000
0031
0100
,
0020
0000
0000
0000
1030
0000
0000
0000
0001
0000
0000
0100
0000
0000
0010
0000
,
2000
0000
3100
0020
0000
0130
0001
0100
,
0010
0000
0001
1000
0100
0000
1000
0001
,
0010
0000
1000
0001
1000
0000
0010
0000
0200
0000
0000
0000
0301
0010
0001
0010
,
0001
0000
0000
0001
1000
0000
0000
1000
0010
0000
0000
1000
0000
0000
0001
0000
,
0200
0010
0010
0010
0010
0010
0010
0310
,
1000
0000
0001
0100
0001
0000
1000
0000
0010
0000
1000
0100
1000
0000
0010
0000
,
0100
0000
0001
1000
0001
0000
0100
0000
0010
0000
1000
0100
1000
0000
0010
0000
,
0100
0000
0001
1000
0010
0000
1000
0000
0001
0000
0100
0001
1000
0000
0010
0000
,
1000
0000
0100
0010
0001
0000
1000
0000
0010
0000
1000
0010
0100
0000
0001
0000
,
1000
0001
0100
0001
1000
0010
1000
0001
,
0100
0000
0001
1000
0100
0000
1000
0000
0010
0000
1000
0000
0001
0000
1000
0010
,
0100
0000
0000
0100
0001
0000
1000
0001
1000
0000
0000
1000
0010
0000
0100
0000
,
0020
0000
0100
0000
0000
0100
0130
0001
,
1000
0000
1001
1000
0000
0010
1000
0001
,
0000
1001
0001
0000
1000
0010
0100
0001
,
1000
0000
0101
0001
0000
1010
1000
0001
,
0000
0000
0000
1100
0000
0000
1000
0000
0000
0001
0000
0000
1000
0000
0010
0000
1000
0000
0001
0000
0100
0000
0001
0000
,
1000
0000
0001
0000
0100
0000
0010
0000
1000
0000
0001
1000
0001
0000
1000
0000
,
0010
0000
0100
0001
0100
0000
0010
0000
1000
0000
0100
1000
0100
0000
1000
0000
,
1001
0001
0000
0010
0110
0100
0000
0001
,
0101
0000
0000
0100
0000
0000
0010
0000
1000
0000
0100
0000
0010
0000
0001
0000
,
0000
0000
0000
0000
1000
0000
0001
0000
0101
0000
0000
0001
1000
0000
0010
1000
,
0010
0000
0100
0000
0001
0000
1000
0000
0100
0000
0000
1000
0010
0000
1000
0010
,
0100
0000
0010
0000
1000
0000
0001
0000
1000
0000
0000
1000
0001
0000
0100
0000
,
0001
0000
0000
0001
1000
0000
0010
0000
1000
0000
0000
1000
0001
0000
0100
0000
,
0010
0000
0010
0000
1000
0000
0001
0000
0100
0010
0000
0010
0100
0000
0001
0000
,
1000
0010
0000
0010
1000
0000
0001
0000
1000
0100
0000
0100
1000
0000
0010
0000
,
0100
0000
0001
0000
1000
0000
0010
1000
0200
0000
0000
0000
0301
0000
1001
0000
,
0000
1100
0000
0021
0000
0031
0100
0010
,
0100
0000
0001
0000
1000
0000
0010
0000
1010
0000
0000
0010
1000
0000
1000
0001
,
1000
0000
0010
0000
0100
0000
0001
0000
1001
0000
0000
0001
0100
0000
0010
0100
,
0001
0000
0100
0000
0010
0000
1000
0000
1100
0000
0000
0100
1000
0000
0010
0000
,
0100
0000
0000
0100
0001
0000
0100
0000
0010
0000
0000
0010
1000
0000
0010
0000
,
1000
0000
0100
0000
0010
0000
0001
0000
1000
0010
0000
0010
0100
0000
0010
0000
,
1000
0001
0000
0001
0010
0000
0001
0000
1000
0100
0000
0100
1000
0000
0010
0000
,
0100
0000
0001
0000
1001
0000
1000
0010
0100
0000
0000
0100
0010
0000
1000
0000
,
0000
0000
1002
0000
0000
0000
1003
0000
1000
0000
0000
0100
0010
0000
0001
0000
,
2002
0000
0000
0000
3003
0000
0000
0000
0001
0000
1000
0010
1000
0000
0001
0000
,
1000
0000
0000
1000
0010
0000
0100
0000
0001
0000
0000
1000
0010
0000
0100
0000
,
0001
0000
0000
0000
1000
0000
0010
0000
1000
0010
0100
0000
0010
1000
0100
1000
,
0010
0000
0100
0001
1000
0001
0100
0000
0010
0000
0100
0001
0100
0001
0100
0000
,
0001
0010
0100
1000
0001
1000
0100
0010
,
0001
0001
1000
0010
0100
0100
0001
1000
,
0010
0000
1000
0000
0010
1000
0100
1000
0010
0000
0100
0000
0001
0000
1000
0000
,
0001
0010
0001
0010
0001
0010
0001
0010
0001
0000
0000
0000
2002
0000
0000
0000
,
0000
0000
0000
0000
3003
0000
0000
0000
0100
0000
0001
1000
0001
0000
1000
0000
,
1001
0000
0001
0000
0100
0000
0000
0100
0010
0000
1000
0000
1010
0000
0010
0000
,
0110
0000
0100
0001
1000
0001
0100
0000
,
1010
0000
0000
0000
0011
0000
0000
0000
1000
0000
0010
0000
0100
0001
0100
0010
,
1000
0000
0010
0100
0001
0100
0010
0000
1000
0010
0100
0010
1000
0000
0010
0100
,
0001
0100
0010
0000
1000
0000
0100
0000
0010
0000
0001
0000
0100
0000
0010
0000
,
1000
0010
0100
0000
0101
0100
0010
1010
,
0010
0100
0101
0001
1000
1001
1000
0010
,
0110
0000
0000
0000
0001
0000
1001
0000
0000
0000
1000
0000
0100
0000
1000
0010
,
0000
0010
1000
0000
0001
0100
0000
0100
0001
0000
0000
0001
0100
0000
0000
0100
,
0010
0000
0000
0010
1000
0000
0000
1000
0100
0000
0000
0100
0010
0000
0000
0010
,
0001
0000
0000
0001
0100
0000
0000
0100
0010
0000
1000
0000
0001
0000
1000
0000
,
0100
0000
0000
0100
1000
0000
0000
1000
0001
0000
0000
0001
0100
0000
0000
0100
,
0001
0000
0000
0001
1000
0000
0000
1000
0010
0000
0000
0010
0100
0000
0000
0100
,
0001
0000
0000
0001
1000
0000
0000
1000
0010
0000
0000
0010
0100
0000
0000
0000
,
1001
0000
0110
0000
1100
0100
0010
0011
,
0010
0001
0101
0100
0010
1010
1000
0100
,
1100
0000
0000
0000
0001
0000
0101
0000
0000
0000
1000
0000
0010
1000
0010
1000
,
0010
0100
0001
0100
0001
0100
0010
1000
0002
0000
0000
0000
0000
0000
0000
0000
,
0000
0000
0000
0000
,
0000
0000
0003
0000
;

//---------------dance-double - ----------------
#NOTES:
     dance-double:
     :
     Hard:
     15:
     0.788475,0.908594,0.271038,0.114986,0.464050,672.000000,639.000000,33.000000,14.000000,0.000000,0.000000,0.788475,0.908594,0.271038,0.114986,0.464050,672.000000,639.000000,33.000000,14.000000,0.000000,0.000000:
// measure 0
00000000
00000000
00000000
00000000
,  // measure 1
00000000
00000000
00000000
00000000
,  // measure 2
00000000
00000000
00000000
00000000
,  // measure 3
01010000
00000000
00000000
01000000
00100000
00000000
10000000
00000000
00010000
00000000
00100000
00000000
00001000
00000000
00010000
00000000
,  // measure 4
00000100
00000000
00000000
00001000
00000001
00000000
00001000
00000000
00000010
00000000
00001000
00000000
00000100
00000000
00010000
00000000
,  // measure 5
00001000
00000000
00000000
00001000
00100000
00000000
00010000
00000000
00100000
00000000
00000000
00010000
01000000
00000000
00100000
00000000
,  // measure 6
10000000
00000000
00000000
10000000
00100000
00000000
01000000
00000000
00010000
00000000
00100000
00000000
00110000
00000000
00000000
00000000
,  // measure 7
00010000
00100000
00000000
00100000
00010000
00000000
00100000
00000000
00001000
00010000
00000000
00010000
00001000
00000000
00010000
00000000
,  // measure 8
00000100
00000000
00000000
00001100
00000000
00000000
00001000
00000000
00000001
00000000
00001000
00000000
00000010
00000000
00001000
00000100
,  // measure 9
00001000
00000000
00000000
00001000
00000100
00000000
00010000
00000000
00001000
00000000
00000000
00001000
00100000
00000000
00010000
00000000
,  // measure 10
01010000
00000000
00000000
01100000
00000000
00000000
00010000
00000000
20020000
00000000
00000000
00000000
30030000
00000000
00000000
00000000
,  // measure 11
10010000
00000000
00000000
00010000
00000000
00000000
01000000
00010000
01000000
00000000
00000000
00010000
00000000
00000000
10000000
00000000
,  // measure 12
00100000
00000000
00000000
01000000
00000000
00000000
00010000
00000000
01000000
00000000
00000000
00000000
00001000
00000000
00010000
00001000
,  // measure 13
00010000
00000000
00000000
00010000
00001000
00000000
00010000
00000000
00000100
00000000
00000000
00000100
00001000
00000000
00000010
00000000
,  // measure 14
00000100
00000000
00000000
00000010
00000100
00000000
00000001
00000000
00001000
00000000
00000000
00000000
00001100
00000000
00000000
00000000
,  // measure 15
00001000
00000000
00000000
00000010
00000000
00000000
00000010
00000000
00001000
00000000
00000000
00000100
00000000
00000000
00000100
00000000
,  // measure 16
00001000
00000000
00000000
00000001
00000000
00000000
00001000
00000000
00000100
00000000
00010000
00000000
00001000
00000000
00001000
00000000
,  // measure 17
00100000
00000000
00010000
01010000
00000000
11000000
00000000
00100000
,  // measure 18
10100000
00000000
00000000
01010000
00000000
00000000
20000000
00000000
00020000
00000000
00000000
00000000
30030000
00000000
00000000
00000000
,  // measure 19
02200000
00000000
03300000
00000000
,  // measure 20
00010000
00000000
00000000
00010000
10000000
00000000
00000000
10000000
00100000
00000000
00000000
00100000
01000000
00000000
00001000
00000000
,  // measure 21
00010000
00000100
00001000
00000001
00001000
00000100
00001000
00000010
,  // measure 22
00000100
00000000
00000000
00000100
00000001
00000000
00000000
00000001
00001000
00000000
00000000
00000100
00000000
00000000
00010000
00000000
,  // measure 23
00002000
00000000
00100000
00100000
00000000
00103000
00010000
10000000
,  // measure 24
00010000
00000000
10000000
00010000
00000000
00000000
00100000
00000000
01000000
00000000
00100000
01000000
00000000
00000000
00010000
00000000
,  // measure 25
10000000
00100000
01000000
00010000
00100000
00000000
00001000
00010000
,  // measure 26
00000010
00000000
00000000
00000000
00001001
00000000
00000000
00000000
00000001
00000000
00000000
00000100
00000000
00000000
00001000
00000000
,  // measure 27
00000200
00001000
00001000
00001000
00001000
00001000
00001300
00000000
,  // measure 28
00000001
00000000
00001000
00000010
00001000
00000000
00000100
00000000
00010000
00000000
00001000
00010000
00001000
00000000
00010000
00000000
,  // measure 29
00001000
00000000
01000000
00010000
01000000
00000000
00100000
00000000
00010000
00000000
10000000
00100000
10000000
00000000
00010000
00000000
,  // measure 30
01000000
00000000
00010000
00100000
00010000
00000000
00100000
00000000
00001000
00000000
00010000
00000000
00000100
00000000
00001000
00000000
,  // measure 31
00000010
00000000
00000100
00000001
00001000
00000000
00000001
00000000
00000100
00000000
00000010
00001000
00000100
00000000
00001000
00000000
,  // measure 32
00000100
00000000
00001000
00000100
00000000
00000000
00000010
00000001
00000000
00000000
00001000
00000000
00000100
00000000
00010000
00000000
,  // measure 33
00001000
00000000
00100000
00010000
00000000
00000000
10000000
00100000
00000000
00000000
01000000
00000000
00010000
00000000
00100000
00000000
,  // measure 34
00001000
00000000
00010000
00001000
00010000
00000000
00000100
00000000
00001000
00000000
00000000
00000001
00000000
00000000
00000200
00000000
,  // measure 35
00000020
00000000
00000000
00000000
00000330
00000001
00001000
00000100
,  // measure 36
00001100
00000100
00010000
00011000
00000000
00101000
00100000
00010000
,  // measure 37
00000000
01100000
00000000
10000000
00010000
01000000
00010000
00100000
,  // measure 38
00001000
00000000
00011000
00010000
00000000
00000100
00001000
00000010
,  // measure 39
00000000
00000000
00000000
00000010
00000000
00000000
00001000
00000000
00000000
00000001
00000000
00000000
00001000
00000000
00000100
00000000
00010000
00000000
00001000
00000000
00010000
00000000
00001000
00000000
,  // measure 40
00100000
00010000
01000000
00010000
00100000
00001000
00010000
00001000
,  // measure 41
00010000
00000100
00001000
00000001
00000010
00000000
00001000
00000100
,  // measure 42
00010000
00001000
00100000
00010000
10000000
01000000
00100000
00010000
,  // measure 43
00001000
00010000
00000010
00001000
00000001
00000001
00001000
00001000
,  // measure 44
00000000
00000000
00000000
00000000
00000010
00000000
00001000
00000000
00001100
00000000
00000000
00000100
00010000
00000000
00001000
00000000
,  // measure 45
00100000
00000000
00000000
00100000
00010000
00000000
01000000
00000000
00100000
00000000
00000000
00100000
10000000
00000000
01000000
00000000
,  // measure 46
00100000
00000000
00000000
00100000
00010000
00000000
01000000
00000000
01000000
00000000
00000000
00000000
00001000
00000000
00010000
00000000
,  // measure 47
00000100
00000000
00000000
00000100
00001000
00000000
00000010
00000000
00000100
00000000
00000001
00000000
00001000
00000000
00000100
00000000
,  // measure 48
00000010
00000000
00000001
00000000
00001001
00000000
00000000
00000000
00000010
00001000
00000000
00001000
00000100
00000000
00000000
00000000
,  // measure 49
00000100
00010000
00000000
00010000
00001000
00000000
00000000
00000000
00001000
00100000
00000000
00100000
00010000
00000000
01000000
00000000
,  // measure 50
00100000
00000000
10000000
00000000
10000000
00000000
00010000
10000000
00010000
00000000
00000000
00100000
00001000
00000000
00010000
00000000
,  // measure 51
00000000
00010000
00000100
00001100
00000000
00000010
00000100
00000001
,  // measure 52
00001000
00000100
00001000
00000000
00000010
00000100
00000010
00000000
00001000
00000000
00000000
00000100
00001000
00000000
00000100
00000000
,  // measure 53
00010000
00000000
00000000
00001000
00010000
00000000
00001000
00000000
00100000
00000000
00000000
00010000
00100000
00000000
00010000
00000000
,  // measure 54
01000000
00000000
00100000
00000000
10000000
00000000
00010000
00000000
00100000
00000000
00000000
00100000
00001000
00000000
00010000
00000000
,  // measure 55
00001000
00000000
00000000
00001000
00010000
00000000
00001000
00000000
00000100
00000000
00000010
00000000
00000001
00000000
00000100
00000000
,  // measure 56
00001000
00000000
00000000
00000000
00001010
00000000
00000000
00000000
00000010
00001000
00000000
00001000
00000100
00000000
00000000
00000000
,  // measure 57
00000100
00010000
00000000
00010000
00001000
00000000
00000000
00000000
00001000
00100000
00000000
00100000
00010000
00000000
01000000
00000000
,  // measure 58
00100000
00000000
00000000
00000000
10000000
00000000
00010000
01000000
00010000
00000000
00000000
00000000
10000000
00100000
10000000
00000000
,  // measure 59
00000000
00000000
00100000
00000000
01000000
00000000
00010000
00000000
00100000
00000000
00000000
00100000
00010000
00000000
00100000
00000000
,  // measure 60
00002000
00000000
00013000
00000000
00001000
00000100
00001000
00000010
,  // measure 61
00001000
00000000
00000000
00000001
00001000
00000000
00000100
00000000
00001000
00000000
00000000
00000100
00010000
00000000
00001000
00000000
,  // measure 62
00100000
00000000
00000000
00000000
00010000
00000000
01000000
00010000
01000000
00010000
01000000
00000000
00100000
10000000
00100000
10000000
,  // measure 63
00100000
00000000
01000000
00010000
01000000
00010000
01000000
00000000
00001000
00000000
00100000
00000000
00001000
00000000
00010000
00000000
,  // measure 64
00000100
00001000
00000010
00000100
00000001
00001000
00000100
00001000
,  // measure 65
00000100
00000000
00000000
00000100
00010000
00000000
00001000
00000000
00100000
00000000
00010000
00000000
10000000
00000000
01000000
00000000
,  // measure 66
00100000
00000000
01000000
00000000
00010000
00000000
00100000
00000000
00001000
00000000
00000000
00000000
00001000
00010000
00001000
00000000
,  // measure 67
00010000
00000100
00010000
00000000
00000100
00001000
00000100
00000000
00001000
00000000
00000000
00000000
00000220
00000000
00000000
00000000
,  // measure 68
00000000
00000000
00000000
00000000
00000330
00000000
00000000
00000000
00001000
00000000
00000100
00001000
00000100
00000000
00010000
00000000
,  // measure 69
00001000
00000000
00010000
00000000
00001000
00000000
00000000
00001000
00100000
00000000
00010000
00000000
01000000
00000000
00100000
00000000
,  // measure 70
10000000
00000000
00000000
10000000
00100000
00000000
01000000
00000000
00010000
00000000
00100000
00000000
00001000
00000000
00000000
00001000
,  // measure 71
00010000
00000000
00000100
00000000
00001000
00000000
00000000
00000000
00001000
00000010
00001000
00000000
00000100
00000000
00010000
00001000
,  // measure 72
00010000
00000000
00001000
00000000
00100000
00010000
00100000
00000000
00010000
00000000
01000000
00100000
01000000
00000000
00100000
00000000
,  // measure 73
10000000
01000000
00100000
00000000
00010000
00000000
00100000
00010000
00100000
00000000
00001000
00000000
00010000
00000000
00000100
00000000
,  // measure 74
00001000
00000010
00001000
00000000
00001010
00000010
00000100
00000101
,  // measure 75
00000001
00001000
00001010
00000010
00000100
00001000
00000100
00001000
,  // measure 76
00010000
00000000
00000000
00000000
00010000
00000000
00001000
00000000
00000000
00000000
00000000
00000000
00001000
00000000
00001000
00100000
,  // measure 77
00000000
00100000
00010000
00000000
00010000
01000000
00000000
01000000
00100000
00000000
10000000
00000000
00100000
00000000
01000000
00000000
,  // measure 78
00010000
00100000
00001000
00010000
00001000
00010000
00000100
00001000
,  // measure 79
00000010
00000100
00000001
00000100
00000010
00001000
00000100
00010000
,  // measure 80
00001000
00100000
00010000
01000000
00100000
10000000
01000000
00100000
,  // measure 81
00010000
00100000
00001000
00010000
00001000
00010000
00001000
00100000
,  // measure 82
00001000
00010000
00000100
00001000
00000010
00000100
00000001
00000010
,  // measure 83
00000100
00001000
00010000
00100000
00110000
01000000
00100000
10100000
,  // measure 84
00100000
01000000
01010000
00010000
00100000
00110000
00000000
00100000
,  // measure 85
00011000
00000000
00010000
00000000
00000100
00000000
00001100
00000000
00001000
00000000
00000010
00000000
00000100
00000001
00000100
00000010
,  // measure 86
00001000
00000010
00001000
00000100
00010000
00000100
00010000
00001000
00020000
00000000
00000000
00000000
00000000
00000000
00000000
00000000
,  // measure 87
00000000
00000000
00000000
00000000
,  // measure 88
00000000
00000000
00030000
00000000
;

//---------------dance-double - ----------------
#NOTES:
     dance-double:
     :
     Medium:
     9:
     0.472850,0.545157,0.451731,0.213545,0.008213,403.000000,348.000000,55.000000,26.000000,0.000000,0.000000,0.472850,0.545157,0.451731,0.213545,0.008213,403.000000,348.000000,55.000000,26.000000,0.000000,0.000000:
00000000
00000000
00000000
00000000
,
00000000
00000000
00000000
00000000
,
00000000
00000000
00000000
00000000
,
01010000
00000000
00010000
00000000
10000000
00010000
10000000
00000000
,
00010000
00000000
00100000
00000000
00010000
00100000
00010000
00000000
,
00100000
00001000
00010000
00000010
,
00001000
00000000
00000001
00000000
00000100
00000001
00000100
00000000
,
00000010
00001000
00000100
00010000
,
00001000
00000000
00100000
00000000
00010000
01000000
00100000
00000000
,
10000000
00000000
00100000
01000000
00000000
00100000
00000000
01000000
,
00100000
10000000
20020000
30030000
,
00100000
00001000
00010000
00000100
,
00001000
00000001
00000100
00000000
00001001
00000000
00000000
00000000
,
00000010
00001000
00000100
00010000
,
00001000
00000000
00100000
00010000
01000000
00000000
00000000
00000000
,
10100000
00100000
01000000
00010000
,
00110000
00100000
01000000
00100000
,
10000000
00000000
00100000
01000000
00000000
00100000
00000000
01000000
,
00010000
00100000
00022000
00033000
,
00020000
00000000
00000000
00030000
,
00000100
00001000
00000001
00001000
,
00000100
00000000
00001000
00000100
00000000
00000000
00010000
00000000
,
00001000
00100000
00110000
01100000
,
22000000
00000000
00000000
00000000
33000000
00000000
00100000
00010000
,
00100000
00000000
00001000
00000000
00010000
00000000
00000100
00001000
,
00000100
00000000
00001000
00000000
00000010
00000000
00000100
00000001
,
00000100
00000000
00000010
00001000
00000010
00000000
00000100
00000000
,
00000220
00000000
00000000
00000330
,
00001000
00000000
00000100
00000000
00010000
00000000
00001000
00010000
,
00001000
00000000
00100000
00000000
00010000
00000000
01000000
00100000
,
10000000
00000000
00100000
00000000
01000000
00000000
00010000
00100000
,
00020000
00000000
01030000
00100000
,
20200000
30300000
02020000
03030000
,
00100000
00001000
00011000
00000000
,
00010000
00000000
00000100
00001000
00000010
00000000
00000100
00000001
,
00002000
00000000
00003010
00000100
,
00001001
00000000
00000000
00001000
00000000
00000100
00000000
00010000
,
00000000
00001000
00000000
00000000
00100000
00000000
00010000
00000000
,
01100000
00000000
00000000
00010000
00000000
10000000
00000000
00100000
,
00000000
01000000
00000000
00000000
00010000
00000000
00100000
00000000
,
00011000
00000000
00010100
00000000
,
00000100
00001000
00000110
00000000
,
00000001
00000100
00001000
00010000
,
00100000
00000000
01000000
00000000
20020000
00000000
00000000
30030000
,
00000000
00000000
00100000
00001000
00100000
00000000
00001000
00000000
,
00010000
00001000
00010000
00001000
00010000
00000000
00000100
00000000
,
00001000
00000010
00001000
00000000
00001000
00000000
00001000
00000010
,
00000000
00000010
00000000
00000010
00000100
00000000
00000001
00000000
,
00001001
00000000
00001010
00000100
,
00000001
00000100
00001010
00000100
,
00010000
00000000
00001000
00000000
00110000
00000000
00010000
01000000
,
00000000
01000000
00000000
01000000
00200000
00000000
00000000
00300000
,
10000000
00010000
10000000
00010000
10000000
00000000
00000000
00000000
,
00010000
10000000
00010000
10000000
00010000
00000000
00000000
00000000
,
11000000
00000000
01100000
00000000
00110000
00000000
00100000
00001000
,
00000000
00010000
00000000
00001000
00000000
00100000
00001000
00000000
,
00010000
00000100
00001100
00000100
,
00000110
00000010
00000011
00000110
,
00001100
00000000
00000000
00000000
00000100
00000000
00010000
00001000
,
00000000
00001000
00000000
00001000
00010000
00000000
00001000
00000000
,
00022000
00000000
00033000
00000000
00100000
00000000
00000000
00010000
,
01000000
00000000
00000000
00100000
10000000
00000000
00100000
00000000
,
01000000
00000000
00000000
00000000
00010000
00100000
01000000
00000000
,
00010000
00100000
01000000
00000000
00010000
10000000
00100000
00000000
,
10010000
00000000
00100000
00001000
,
00010000
00000000
00000010
00000000
00001000
00000001
00000100
00000001
,
00001000
00000100
00010000
00001000
,
00010000
00001000
00022000
00033000
,
00202000
00303000
00110000
00010000
,
01000000
10100000
00100000
01000000
,
00110000
00100000
00001000
00011000
,
00010100
00010000
00010100
00000100
,
00001000
00000110
00000100
00000001
,
00001001
00001000
00001010
00000100
,
00001000
00000000
00010000
00000000
00001000
00010000
00001000
00010000
,
00000100
00010000
00001000
00010000
00001000
00010000
00001000
00100000
,
00001000
00000000
00000000
00000000
00010000
00000000
00001000
00000000
00000000
00000000
00000000
00000000
00100000
00000000
00000000
00010000
,
00000000
00000000
01000000
00000000
00000000
00100000
00000000
00000000
10000000
00000000
00000000
00000000
00100000
00000000
00000000
00000000
,
01000000
01010000
01000000
00100000
,
10100000
00100000
01000000
00110000
,
00100000
00001000
00010100
00001000
,
00000010
00000101
00000010
00001000
,
00010100
00001000
00010000
01100000
,
00010000
00000000
01000000
00000000
00100000
10000000
00100000
01000000
,
00010000
01000000
00100000
10000000
00100000
01000000
00010000
01000000
,
00100000
00000000
01000000
00010000
00000000
00000000
00110000
00000000
,
00011000
00001100
00022000
00000000
,
00000000
00000000
00000000
00000000
,
00000000
00000000
00033000
00000000
;

//---------------dance-single - ----------------
#NOTES:
     dance-single:
     :
     Medium:
     9:
     0.505704,0.654188,0.574930,0.213545,0.000000,431.000000,361.000000,70.000000,26.000000,0.000000,0.000000,0.505704,0.654188,0.574930,0.213545,0.000000,431.000000,361.000000,70.000000,26.000000,0.000000,0.000000:
0000
0000
0000
0000
,
0000
0000
0000
0000
,
0000
0000
0000
0000
,
0010
0000
1000
0000
0001
0100
0001
0000
,
1000
0000
0010
0000
0100
0001
0100
0000
,
0001
0000
1000
0001
0000
0001
0000
0001
,
1000
0010
0000
0000
1100
0000
0011
0000
,
1000
0000
0010
0100
0010
0000
1000
0010
,
1000
0000
0001
0100
0001
0000
1000
0000
,
0010
0000
0100
0010
0000
0010
0000
0010
,
0100
0010
2002
3003
,
0001
0000
0100
0001
0100
0000
0001
1000
,
0001
0000
1000
0010
1000
0000
0000
0001
,
0001
0000
1000
0010
1000
0000
0010
0100
,
0010
0000
0100
0001
0100
0000
0000
0000
,
0010
1100
0011
0100
,
0010
1010
0101
0100
,
0010
0000
1000
0001
0000
0001
0000
0001
,
1000
0010
0220
0330
,
2002
0000
0000
3003
,
0010
0000
1100
0000
0011
0000
0000
1000
,
0010
0100
0001
0100
0000
0000
0000
0001
,
1000
0010
0100
0001
,
2002
0000
3003
0010
,
0110
0000
0000
1000
0001
0000
0000
1000
,
0100
0010
1001
0000
,
0001
0000
0100
0010
0000
0100
0000
0001
,
2000
0000
3010
0000
,
0001
0000
0101
0000
1010
0000
0000
0001
,
0100
0000
0100
0010
0000
0000
0000
0000
,
1010
0101
1010
0101
,
2002
0000
0000
0000
3003
0000
0010
0100
,
0001
0000
0001
1000
0010
0000
0010
1000
,
0100
0000
0100
1000
0010
0000
0010
0000
,
0101
1000
1010
0100
,
2002
0000
3003
0010
,
0100
0000
0001
1000
0000
1000
0000
1000
,
0000
1000
0001
0000
0100
0000
0010
0000
,
1001
0000
0100
0010
0000
0010
0000
0010
,
0000
0100
0001
0000
1100
0000
0011
0000
,
1000
0000
0010
0100
0010
0000
1000
0001
,
1000
0000
0001
0100
0001
0000
1000
0000
,
0010
0100
0001
1000
,
0010
0100
0010
0100
0020
0000
0000
0030
,
0000
0000
1001
0000
,
0010
0100
0010
0100
0010
0000
0000
0000
,
1000
0010
1000
0010
1000
0000
0001
0100
,
0000
0100
0000
0100
0000
0020
0000
0000
,
1030
0101
1000
0010
,
1100
0011
0100
0001
,
1010
0000
0101
0000
1000
0000
0001
0100
,
0000
0100
0000
0020
0000
0000
0030
0000
,
1000
0001
1000
0001
1000
0000
0110
0000
,
0001
1000
0001
1000
0001
0000
0110
0000
,
1000
0010
1000
0010
1000
0000
0001
0100
,
0000
0010
0000
1000
0000
0001
0000
0000
,
1100
0011
1000
1010
,
0001
0101
0100
0110
,
1001
0000
0000
0001
0010
0000
0001
0100
,
0000
0010
0000
1000
0010
0000
0110
0000
,
1001
0000
0002
0100
,
0103
0020
1000
1000
,
1030
0000
0101
0000
1000
0001
1000
0000
,
0001
1000
0001
0000
0100
0000
0010
0000
,
0110
0000
0001
0100
,
1000
0000
0100
0000
0001
0000
1000
0001
,
1000
0010
0100
0100
,
0001
0001
2000
3000
,
0020
0030
0100
1000
,
0001
0100
1000
0001
,
0010
1000
0001
0010
,
1000
0001
1100
1100
,
0011
1010
1010
0101
,
1100
1100
0011
0110
,
0110
0000
1001
0000
0001
0100
0001
0100
,
0001
0100
0010
1000
0010
1000
0010
1000
,
0010
0000
0100
0010
0000
0000
2002
0000
,
3003
0220
0000
0330
0001
0000
0100
0000
,
1000
0110
0001
1000
,
0110
0001
1000
0011
,
1100
0011
1010
0100
,
0001
1010
0100
0001
,
1100
0010
0001
1000
,
0010
0000
0101
0000
0010
1000
0010
0100
,
0010
0100
0010
1000
0010
0100
0010
1000
,
0001
0000
1000
0001
0000
0000
1100
0000
,
0010
0100
0000
0000
2002
0000
0000
0000
,
0000
0000
0000
0000
,
0000
0000
3003
0000
;

//---------------dance-single - ----------------
#NOTES:
     dance-single:
     :
     Beginner:
     2:
     0.141972,0.213135,0.016427,0.000000,0.000000,121.000000,119.000000,2.000000,0.000000,0.000000,0.000000,0.141972,0.213135,0.016427,0.000000,0.000000,121.000000,119.000000,2.000000,0.000000,0.000000,0.000000:
0000
0000
0000
0000
,
0000
0000
0000
0000
,
0000
0000
0000
0000
,
0001
0000
0000
0000
,
1000
0000
0000
0000
,
0010
0000
0000
0000
,
0100
0000
0000
0000
,
0001
0000
0010
0000
,
0100
0000
1000
0000
,
0001
0000
0100
0000
,
0010
0000
1000
0000
,
0001
0000
0000
0000
,
1000
0000
0000
0000
,
0010
0000
0000
0000
,
0100
0000
0000
0000
,
0010
0000
0010
0000
,
0100
0000
0100
0000
,
1000
0000
0001
0000
,
1000
0000
0001
0000
,
1001
0000
0000
0000
,
0010
0000
0000
0000
,
1000
0000
0000
0000
,
0100
0000
0100
0000
,
0100
0000
0000
0000
,
0010
0000
0000
0000
,
0001
0000
0000
0000
,
0100
0000
0100
0000
,
0100
0000
0000
0000
,
0001
0000
0000
0000
,
1000
0000
0000
0000
,
0010
0000
0010
0000
,
0010
0000
0000
0000
,
1000
0000
0000
0000
,
0001
0000
0000
0000
,
0100
0000
0100
0000
,
0100
0000
0000
0000
,
0001
0000
0000
0000
,
1000
0000
0000
0000
,
0010
0000
0000
0000
,
0100
0000
0000
0000
,
0001
0000
0001
0000
,
0001
0000
0000
0000
,
1000
0000
1000
0000
,
1000
0000
0000
0000
,
0000
0000
0001
0000
,
0000
0000
1000
0000
,
0000
0000
0001
0000
,
0001
0000
0001
0000
,
0000
0000
1000
0000
,
1000
0000
1000
0000
,
0000
0000
0001
0000
,
0001
0000
0001
0000
,
0000
0000
0100
0000
,
0000
0000
0010
0000
,
0000
0000
0100
0000
,
0100
0000
0100
0000
,
0000
0000
0010
0000
,
0010
0000
0010
0000
,
0000
0000
0100
0000
,
0100
0000
0100
0000
,
0000
0000
0001
0000
,
0000
0000
1000
0000
,
0000
0000
0001
0000
,
0001
0000
1000
0000
,
1000
0000
0001
0000
,
1000
0000
0001
0000
,
1000
0000
0001
0000
,
0001
0000
1000
0000
,
0000
0000
0010
0000
,
0000
0001
0000
0000
,
0100
0000
0000
1000
,
0000
0000
0010
0000
,
0000
1000
0000
0000
,
0100
0000
0000
0001
,
0000
0000
0000
0000
0010
0000
0000
0010
,
0000
0010
0000
0000
,
0100
0000
0000
0100
0000
0000
0100
0000
,
0000
0000
0001
0000
,
0000
0100
0000
0000
,
1000
0000
0000
0010
,
0000
0000
0001
0000
,
0000
0010
0000
0000
,
1000
0000
0000
0100
,
0000
0000
0000
0000
0001
0000
0000
0001
,
0000
0001
0000
0000
,
1000
0000
0000
1000
0000
0000
1000
0000
,
0000
0000
1001
0000
;

//---------------dance-double - ----------------
#NOTES:
     dance-double:
     :
     Easy:
     5:
     0.298025,0.363438,0.098559,0.147839,0.000000,254.000000,242.000000,12.000000,18.000000,0.000000,0.000000,0.298025,0.363438,0.098559,0.147839,0.000000,254.000000,242.000000,12.000000,18.000000,0.000000,0.000000:
00000000
00000000
00000000
00000000
,
00000000
00000000
00000000
00000000
,
00000000
00000000
00000000
00000000
,
00100000
00000000
00001000
00000000
,
00010000
00000000
00000100
00000000
,
00001000
00000001
00001000
00000001
,
00000100
00000010
00000100
00000000
,
00000010
00000000
00001000
00000000
,
00010000
00000000
00001000
00000000
,
00100000
00010000
01000000
10000000
,
01000000
00010000
00100000
00000000
,
00010000
00000000
00001000
00000000
,
00010000
00000000
00000010
00000000
,
00001000
00000100
00000010
00000001
,
00000010
00000100
00001000
00000000
,
00000100
00000000
00010000
00000000
,
00001000
00000000
00100000
00000000
,
00010000
00100000
01000000
10000000
,
01000000
00100000
00010000
00000000
,
00022000
00000000
00033000
00000000
,
00010000
00000000
00000100
00000000
,
00010000
00001000
00010000
00000000
,
00001000
00000000
00100000
00000000
,
00001000
00010000
00001000
00000000
,
00010000
00000000
00000100
00000000
,
00001000
00000100
00000010
00000001
,
00001000
00000000
00000100
00000000
,
00020000
00000000
00031000
00000000
,
00001000
00000000
00100000
00000000
,
00010000
00000000
00100000
00000000
,
00001000
00010000
00001000
00000000
,
00010000
00000100
00010000
00000000
,
00001000
00000000
00100000
00000000
,
00010000
00100000
01000000
10000000
,
00010000
00000000
00100000
00000000
,
00220000
00000000
00330000
00000000
,
00010000
00000000
01000000
00000000
,
10000000
01000000
00010000
00000000
,
00001000
00000000
00000100
00000000
,
00000001
00000100
00001000
00000000
,
00010000
00000000
00001000
00000000
,
00100000
00010000
01000000
00000000
,
00100000
10000000
00010000
10000000
,
00100000
00000000
02200000
03300000
,
00000000
00000000
10010000
00000000
,
00100000
00001000
00010000
00000000
,
00001000
00010000
00000010
00000010
,
00000100
00000100
00000001
00001000
,
00000001
00001000
00000200
00000300
,
00020000
00030000
00002000
00003000
,
02000000
03000000
00100000
10000000
,
01000000
00010000
00200000
00300000
,
00001000
00010000
00011000
00000000
,
00010000
00001000
00011000
00000000
,
00010000
00000100
00002000
00003000
,
00000002
00000003
00000100
00000010
,
00000110
00000000
00000001
00000100
,
00001000
00000000
00010000
01000000
,
10000000
00000000
00100000
10000000
,
00010000
01000000
00100000
00100000
,
20020000
30030000
10000000
00000000
,
00010000
00000000
00100000
00010000
,
01000000
00000000
00100000
10000000
,
01000000
00100000
00010000
00100000
,
00010000
00000000
00001000
00000000
,
00010000
00000000
00000010
00001000
,
00000100
00000000
00001000
00000010
,
00000100
00000001
00001000
00000000
,
00011000
00000000
00010000
00010000
,
00010000
00001000
00001000
00001000
,
00010000
00001000
01000000
00001000
,
00010000
00000100
00001000
00000100
,
00000010
00000001
00000010
00000100
,
00001000
00000100
00010000
00001000
,
00100000
00000000
00010000
00000000
01000000
00000000
00000000
00010000
,
00000000
00000000
10000000
00000000
00000000
00010000
00000000
00000000
,
00100000
00000000
00000000
00001000
00000000
00000000
00010000
00000000
,
00000000
00000100
00000000
00000000
00001000
00000000
00000100
00000000
,
00000010
00000001
00000010
00000100
,
00001000
00000100
00010000
00001000
,
01000000
00010000
10000000
01000000
,
00010000
00001000
00000010
00000001
,
00000100
00001000
00010000
01000000
,
10000000
00000000
00100000
00000000
10010000
00000000
00000000
00100000
,
00000000
00000000
00001000
00000000
00000000
00010000
00000000
00000000
,
00001000
00000000
00000000
00000100
00000000
00000000
00000010
00000000
,
00000000
00001001
00000000
00000000
00022000
00000000
00000000
00000000
,
00000000
00000000
00000000
00000000
,
00000000
00000000
00033000
00000000
;

//---------------dance-single - ----------------
#NOTES:
     dance-single:
     :
     Easy:
     6:
     0.321491,0.399782,0.205332,0.295678,0.000000,274.000000,249.000000,25.000000,36.000000,0.000000,0.000000,0.321491,0.399782,0.205332,0.295678,0.000000,274.000000,249.000000,25.000000,36.000000,0.000000,0.000000:
0000
0000
0000
0000
,
0000
0000
0000
0000
,
0000
0000
0000
0000
,
0010
0000
0100
0000
,
0001
0000
1000
0000
,
0010
0100
0010
0100
,
0001
1000
1001
0000
,
0100
1000
0001
0000
,
0100
0001
1000
0000
,
0010
0001
0100
1000
,
0100
0010
0001
0000
,
1000
0000
0100
0000
,
0002
0100
0103
0000
,
0001
0000
0100
0000
,
2000
0100
3100
0000
,
0010
0100
0010
0100
,
1000
0001
1000
0001
,
1000
0000
0001
0000
,
1000
0001
1001
0000
,
2002
0000
3003
0000
,
0001
0100
0100
0000
,
1000
0100
0100
0000
,
1000
0100
0010
0001
,
2002
0000
3003
0000
,
0001
0100
1000
0000
,
1000
0010
0001
0000
,
1000
0100
0010
0001
,
2002
0000
3003
0000
,
0200
0010
0310
0000
,
0020
0100
0130
0000
,
0001
0100
1000
0100
,
0001
0000
1001
0000
,
0010
1000
0100
0000
,
0010
0001
0100
0000
,
0001
1000
0100
0010
,
0002
0000
1003
0000
,
0020
0000
1000
0000
,
1030
0000
0000
0000
,
0200
0000
0001
0000
,
0301
0000
0000
0000
,
0020
0000
0100
0000
,
0130
0100
0100
0000
,
1000
0100
0010
0001
,
1000
0001
2002
3003
,
0000
0000
0110
0000
,
0001
0100
1001
0000
,
1000
0100
0010
0001
,
0010
0100
2000
0002
,
3003
0000
0010
0100
,
0110
0000
0100
0010
,
0110
0000
0001
0100
,
1000
0100
0001
1000
,
1001
0000
0110
0000
,
1100
0000
0011
0000
,
1000
0100
0010
0001
,
0010
0100
2000
0002
,
3003
0000
0001
0100
,
0001
0100
1000
0100
,
0001
0000
1000
0010
,
0001
0010
1000
0001
,
2002
3003
0020
0030
,
0002
0003
0200
0300
,
2000
3000
0010
0001
,
0100
1000
0010
1000
,
0100
0001
0020
0030
,
0200
0300
0002
0003
,
2000
3000
0010
0100
,
0001
1000
2002
3003
,
0220
0330
0010
0001
,
0001
0100
1000
1000
,
0010
0001
0010
1000
,
0100
1000
0010
1000
,
0100
1000
0010
0001
,
0010
0001
0100
0001
,
0100
0000
1000
0000
0010
0000
0000
1000
,
0000
0000
0100
0000
0000
0001
0000
0000
,
0010
0000
0000
1000
0000
0000
0001
0000
,
0000
1001
0000
0000
0010
0000
0001
0000
,
0010
0001
0100
0001
,
0100
1000
0100
1000
,
0010
0001
0100
1000
,
0100
0001
0010
0001
,
0010
1000
0010
1000
,
0100
0000
0001
0000
0010
0000
0000
1001
,
0000
0000
0100
0000
0000
1001
0000
0000
,
0010
0000
0000
1001
0000
0000
0110
0000
,
0000
1001
0000
0000
0220
0000
0000
0000
,
0000
0000
0000
0000
,
0000
0000
0330
0000
;
