#TITLE:Loki;
#SUBTITLE:;
#ARTIST:Lotze 「EZ2AC」 より;
#TITLETRANSLIT:;
#SUBTITLETRANSLIT:;
#ARTISTTRANSLIT:Lotze from "EZ2AC";
#GENRE:;
#CREDIT:Toxsa Dalton;
#BANNER:Loki.png;
#BACKGROUND:Loki-bg.png;
#LYRICSPATH:;
#CDTITLE:;
#MUSIC:Loki.ogg;
#OFFSET:1.760000;
#SAMPLESTART:54.839977;
#SAMPLELENGTH:12.000000;
#LASTBEATHINT:1.773333;
#SELECTABLE:YES;
#BPMS:0.000000=140.000000
;
#STOPS:
;
#BGCHANGES:;
#KEYSOUNDS:;
#ATTACKS:;

//---------------dance-single - ----------------
#NOTES:
     dance-single:
     :
     Hard:
     14:
     0.652609,0.651075,0.204986,0.097612,0.639361,468.000000,447.000000,21.000000,10.000000,0.000000,0.000000,0.652609,0.651075,0.204986,0.097612,0.639361,468.000000,447.000000,21.000000,10.000000,0.000000,0.000000:
0000
0000
0000
0000
,
0000
0000
0000
0000
,
0000
0000
0000
0000
,
0000
0000
0000
0000
,
0000
0000
0000
0000
,
0010
0000
1000
0000
0000
0010
0000
0000
0100
0000
0000
0001
0000
0000
1000
0000
,
0001
0000
0010
0000
0000
0001
0000
0000
0100
0000
0000
0010
0000
0000
1000
0000
,
0001
0000
0100
0000
0000
0100
0000
0000
0010
0000
0000
1000
0000
0000
0001
0000
,
0010
0000
0001
0000
1000
0000
0001
1000
0000
0000
1000
0010
0000
1000
0010
1000
,
0010
0000
1000
0000
0001
1000
0000
0000
0010
0000
0000
1010
0000
0000
0010
0000
,
0100
0000
0001
0000
0100
0001
0000
0000
1000
0000
0000
1001
0000
0000
0001
0000
,
0100
0000
0010
0000
1000
0010
0000
0000
1000
0000
0000
1010
0000
0000
0010
0000
,
0100
0000
0001
0000
1000
0000
0001
1000
0000
0000
0001
0000
1000
0001
1000
0000
,
0001
0001
0001
0001
0001
0001
2002
3003
,
1000
1000
1000
1000
1000
1000
2002
3003
,
0010
0010
0010
0010
0010
0010
2002
3003
,
0100
0100
0100
0100
0100
0100
2002
3003
,
0010
0000
0001
0000
1000
0001
0000
0000
1001
0000
0000
1000
0000
0000
0010
0000
,
0100
0000
0010
0000
0100
0010
0000
0000
0110
0000
0000
0010
0000
0000
1000
0000
,
0001
0000
1000
0000
0001
0010
0000
0000
0011
0000
0000
0001
0000
0000
0100
0000
,
0010
0000
1000
0000
0100
0000
1000
0100
0000
0000
0010
0001
0000
0001
0100
0001
,
0100
0000
0001
0000
1000
0001
0000
0000
1001
0000
0000
1000
0000
0000
0010
0000
,
0100
0000
0001
0000
1000
0010
0000
0000
1010
0000
0000
0010
0000
0000
0100
0000
,
0001
0000
1000
0000
0100
1000
0000
0000
1100
0000
0000
1000
0000
0000
0010
0000
,
0100
0001
0100
0000
0001
0000
1000
0001
0000
0000
1000
0010
1000
0010
1000
0000
,
0001
0000
0000
1001
0000
0000
1000
0000
0010
0100
0000
0100
0010
0000
1000
0000
,
0001
0000
0010
0000
0001
0000
0100
0000
0001
1000
0000
1000
0001
0000
0100
0000
,
0010
0000
0000
1010
0000
0000
1000
0000
0001
0100
0000
0100
0001
0000
1000
0000
,
0010
0000
0100
0000
0010
0000
1000
0010
0000
0000
1000
0010
0000
1000
0001
1000
,
0001
0000
0000
0101
0000
0000
0100
0000
0010
1000
0000
1000
0010
0000
0100
0000
,
0001
0000
0010
0000
0001
0000
0100
0000
0001
1000
0000
1000
0001
0000
1000
0000
,
0100
0000
0000
1001
0000
0000
0010
0000
1000
0001
0000
0001
1000
0000
0010
0000
,
1000
0000
0001
0100
0001
0000
1000
0010
1000
0000
0010
0000
0100
0000
0001
0000
,
1000
0000
0001
0000
1000
0001
1000
0001
1000
0000
0000
0010
0000
0000
0100
0000
,
0001
0000
1000
0000
0001
0100
0001
0100
0001
0000
0000
0100
0000
0000
0010
0000
,
1000
0000
0100
0000
1000
0010
1000
0010
1000
0000
0000
0001
0000
0000
0100
0000
,
0010
0000
1000
0010
1000
0000
0010
1000
0000
0000
0010
0100
0000
0010
0100
0010
,
0100
0000
0001
0000
1000
0000
0010
1000
0010
0000
0000
1000
0000
0000
0001
0000
,
0010
0000
0001
0000
0100
0001
0100
0001
0100
0000
0000
0010
0000
0000
1000
0000
,
0001
0000
0100
0000
0001
0100
0001
0100
0001
0000
0000
1000
0000
0000
0010
0000
,
0100
0000
0010
0100
0010
0000
0100
0010
0100
0000
0001
0000
1000
0000
0100
0000
,
0010
0000
0001
0000
1000
0010
1000
0010
1000
0000
0000
1001
0000
0000
0001
0000
,
0100
0000
0010
0000
0100
0001
0100
0001
0100
0000
0000
0101
0000
0000
0001
0000
,
1000
0000
0010
0000
0100
0010
0100
0010
0100
0000
0000
0110
0000
0000
0010
0000
,
1000
0000
0100
0000
0010
0000
0001
0100
0000
0000
0001
0100
0000
0010
0100
0010
,
0100
0000
0001
0000
1000
0000
0010
0000
1000
0000
1000
0001
0000
0001
1000
0000
,
0010
0000
0100
0000
0001
0000
0010
0000
0001
0000
0001
0100
0000
0100
0001
0000
,
1000
0000
0100
0000
0010
0000
0001
0000
1000
0000
0010
1000
0000
1000
0010
0000
,
1000
0000
0100
1000
0100
0000
1000
0010
0000
1000
0001
1000
0001
0000
1000
0000
,
0010
0100
0010
0100
0010
0000
0000
0000
0001
0000
0001
0000
1000
0001
0000
0000
,
0100
0010
0100
0010
0100
0000
0000
0000
0001
0000
0000
1000
0000
0000
0010
0000
,
1000
0001
1000
0001
1000
0000
0000
0000
0010
0000
0010
0000
0100
0010
0000
0000
,
1000
0100
1000
0100
1000
0000
0000
0000
0001
0000
0000
0100
0000
0000
0010
0000
,
1000
0100
1000
0100
1000
0000
0001
0000
0100
0000
0010
0000
0100
0000
0001
0000
,
0100
0010
0100
0010
0100
0000
0010
0000
1000
0000
0001
0000
1000
0000
0100
0000
,
0010
0001
0010
0001
0010
0000
0001
0000
0100
0000
1000
0000
0100
0000
0001
0000
,
1000
0010
1000
0010
1000
0000
0001
0100
0000
0000
0001
1000
0001
1000
0001
0000
,
1000
0100
0000
0000
2002
0000
0000
0000
0000
0000
0000
0000
0000
0000
0000
0000
,
3003
0000
0000
0000
;

//---------------dance-double - ----------------
#NOTES:
     dance-double:
     :
     Hard:
     14:
     0.623325,0.622767,0.419733,0.097612,0.502704,447.000000,404.000000,43.000000,10.000000,0.000000,0.000000,0.623325,0.622767,0.419733,0.097612,0.502704,447.000000,404.000000,43.000000,10.000000,0.000000,0.000000:
00000000
00000000
00000000
00000000
,
00000000
00000000
00000000
00000000
,
00000000
00000000
00000000
00000000
,
00000000
00000000
00000000
00000000
,
00000000
00000000
00000000
00000000
,
00100000
00000000
10000000
00000000
00010000
00000000
00000000
00000000
00100000
00000000
00000000
00101000
00000000
00000000
00001000
00000000
,
00010000
00000000
00000100
00000000
00001000
00000000
00000000
00000000
00000010
00000000
00000000
00001010
00000000
00000000
00000001
00000000
,
00000100
00000000
00000010
00000000
00001000
00000000
00000000
00000000
00000100
00000000
00000000
00001100
00000000
00000000
00000100
00000000
,
00010000
00000000
00001000
00000000
00100000
00000000
00000000
00000000
00010000
00000000
00000000
00110000
00000000
00000000
00010000
00000000
,
01000000
00000000
00100000
00000000
10000000
00000000
00010000
00000000
00100000
00000000
00000000
00110000
00000000
00000000
00100000
00000000
,
00001000
00000000
00010000
00000000
00000100
00000000
00001000
00000000
00000010
00000000
00000000
00001010
00000000
00000000
00000010
00000000
,
00001000
00000000
00000100
00000000
00000010
00000000
00000001
00000000
00000100
00000000
00000000
00001001
00000000
00000000
00000010
00000000
,
00001000
00000100
00010000
00001000
00100000
00010000
01010000
00000000
,
00100000
00100000
00100000
00100000
00100000
00100000
00220000
00330000
,
00001000
00001000
00001000
00001000
00001000
00001000
00022000
00033000
,
00000100
00000100
00000100
00000100
00000100
00000100
00002200
00003300
,
00010000
00010000
00010000
00010000
00010000
00010000
00022000
00033000
,
00001000
00000000
00010000
00000000
00001000
00010000
00000000
00000000
00001000
00000000
00000000
01001000
00000000
00000000
01000000
00000000
,
00100000
00000000
10000000
00000000
00010000
10000000
00000000
00000000
00010000
00000000
00000000
00110000
00000000
00000000
00100000
00000000
,
00001000
00000000
00010000
00000000
00001000
00010000
00000000
00000000
00000100
00000000
00000000
00001100
00000000
00000000
00001000
00000000
,
00000010
00000000
00000100
00000000
00000001
00000000
00001000
00000001
00000000
00000000
00001000
00000001
00000000
00001000
00000100
00000000
,
00001000
00000000
00000010
00000000
00000100
00000001
00000000
00000000
00000101
00000000
00000000
00001001
00000000
00000000
00001000
00000000
,
00000100
00000000
00010000
00000000
00000100
00010000
00000000
00000000
00010100
00000000
00000000
00011000
00000000
00000000
00001000
00000000
,
00100000
00000000
00010000
00000000
01000000
00010000
00000000
00000000
10010000
00000000
00000000
00110000
00000000
00000000
01000000
00000000
,
00100000
00000000
10000000
00000000
00010000
00000000
10000000
00010000
00000000
00000000
10000000
00100000
10000000
00000000
00100000
00000000
,
01000000
00000000
00000000
10010000
00000000
00000000
00000000
00000000
00100000
00001000
00000000
00001000
00100000
00000000
00000000
00000000
,
00001000
00000000
00010000
00000000
00000100
00000000
00001000
00000000
00000010
00000100
00000000
00000100
00000010
00000000
00000000
00000000
,
00001000
00000000
00000000
00001001
00000000
00000000
00000001
00000000
00000100
00000010
00000000
00000010
00000100
00000000
00000000
00000000
,
00000010
00001000
00000100
00010000
00001000
00010000
00001000
01000000
,
00010000
00000000
00000000
00010000
00000000
00000000
01000000
00000000
00010000
10000000
00000000
10000000
00010000
00000000
00000000
00000000
,
00100000
00000000
00001000
00000000
00010000
00000000
00000100
00000000
00001000
00000100
00000000
00000100
00001000
00000000
00000000
00000000
,
00000010
00000000
00000000
00001001
00000000
00000000
00000100
00000000
00001000
00000100
00000000
00000100
00001000
00000000
00000000
00000000
,
00000100
00010000
00001000
01000000
00010000
01000000
01100000
00000000
,
00100000
00000000
10000000
00000000
01000000
00000000
00100000
00000000
00010000
00000000
00000000
01010000
00000000
00000000
01000000
00000000
,
00010000
00000000
00100000
00000000
00001000
00000000
00010000
00000000
00000010
00000000
00000000
00001010
00000000
00000000
00001000
00000000
,
00000001
00000000
00000100
00000000
00000010
00000000
00001000
00000000
00000100
00000000
00000000
00001100
00000000
00000000
00000100
00000000
,
00010000
00000000
00001000
00000000
01000000
00000000
00010000
00000000
10000000
00000000
00000000
10010000
00000000
00000000
00010000
00000000
,
00100000
00000000
00001000
00000000
00010000
00001000
00000000
00010000
00001000
00000000
00000000
00011000
00000000
00000000
00010000
00000000
,
00000100
00000000
00001000
00000000
00000010
00001000
00000000
00000010
00001000
00000000
00000000
00001010
00000000
00000000
00000010
00000000
,
00000100
00000000
00000001
00000000
00001000
00000100
00000000
00001000
00000100
00000000
00000000
00001100
00000000
00000000
00000100
00000000
,
00010000
00000000
00001000
00000000
01000000
00000000
00010000
01000000
00000000
00010000
01000000
00010000
01000000
00000000
00100000
00000000
,
10000000
00000000
01000000
00000000
00100000
00010000
00000000
00010000
00100000
00000000
00000000
00110000
00000000
00000000
00100000
00000000
,
00001000
00000000
00010000
00000000
00000100
00010000
00000000
00010000
00000100
00000000
00000000
00001100
00000000
00000000
00001000
00000000
,
00000010
00000000
00000100
00000000
00000001
00001000
00000000
00001000
00000100
00000000
00000000
00001100
00000000
00000000
00000100
00000000
,
00010000
00000000
00001000
00000000
00001000
01000000
00000000
01000000
00010000
00000000
00000000
10010000
00000000
00000000
10000000
00000000
,
00100000
00000000
01000000
00000000
00010000
00100000
00000000
00100000
00010000
00000000
00000000
00110000
00000000
00000000
00100000
00000000
,
00001000
00000000
00010000
00000000
00010000
00000100
00000000
00000100
00001000
00000000
00000000
00001100
00000000
00000000
00001000
00000000
,
00000010
00000000
00000100
00000000
00000001
00001000
00000000
00001000
00000100
00000000
00000000
00001100
00000000
00000000
00000100
00000000
,
00010000
00000000
00001000
00010000
00001000
00000000
00010000
00001000
00000000
00001000
01000000
00000000
01000000
00000000
00100000
00000000
,
10000000
00010000
10000000
00010000
10000000
00000000
00000000
00000000
00100000
00000000
01000000
00000000
00010000
00100000
00000000
00000000
,
00001000
00010000
00001000
00010000
00001000
00000000
00000000
00000000
00010000
00000000
00000000
00010100
00000000
00000000
00000100
00000000
,
00001000
00000010
00001000
00000010
00001000
00000000
00000000
00000000
00000001
00000000
00000100
00000000
00000010
00001000
00000000
00000000
,
00000100
00010000
00000100
00010000
00000100
00000000
00000000
00000000
00011000
00000000
00000000
00011000
00000000
00000000
00001000
00000000
,
00100000
00010000
00100000
00010000
00100000
00000000
00010000
00000000
01000000
00000000
00100000
00000000
10000000
00000000
01000000
00000000
,
00100000
00010000
00100000
00010000
00100000
00000000
00001000
00000000
00010000
00000000
00000010
00000000
00001000
00000000
00000001
00000000
,
00000100
00000010
00000100
00000010
00000100
00000000
00000001
00000000
00001000
00000000
00000100
00000000
00010000
00000000
00001000
00000000
,
01000000
00010000
01000000
00010000
01000000
00000000
00100000
10000000
00000000
00000000
00010000
01000000
00010000
00000000
00100000
00000000
,
00001000
00010000
00000000
00000000
00022000
00000000
00000000
00000000
00000000
00000000
00000000
00000000
00000000
00000000
00000000
00000000
,
00033000
00000000
00000000
00000000
;

//---------------dance-double - ----------------
#NOTES:
     dance-double:
     :
     Medium:
     9:
     0.449017,0.509537,0.312360,0.097612,0.180583,322.000000,290.000000,32.000000,10.000000,0.000000,0.000000,0.449017,0.509537,0.312360,0.097612,0.180583,322.000000,290.000000,32.000000,10.000000,0.000000,0.000000:
00000000
00000000
00000000
00000000
,
00000000
00000000
00000000
00000000
,
00000000
00000000
00000000
00000000
,
00000000
00000000
00000000
00000000
,
00000000
00000000
00000000
00000000
,
00010000
00000000
01000000
00000000
00000000
00010000
00000000
00000000
00100000
00000000
00000000
00100000
00000000
00000000
00100000
00000000
,
00001000
00000000
00010000
00000000
00000000
00001000
00000000
00000000
00010000
00000000
00000000
00010000
00000000
00000000
00010000
00000000
,
00000010
00000000
00001000
00000000
00000000
00000001
00000000
00000000
00000100
00000000
00000000
00000100
00000000
00000000
00000100
00000000
,
00000010
00000000
00001000
00000000
00000000
00000100
00000000
00000000
00010000
00000000
00000000
00010000
00000000
00000000
00010000
00000000
,
00001000
00000000
00100000
00000000
00000000
00010000
00000000
00000000
01000000
00000000
00000000
01000000
00000000
00000000
01000000
00000000
,
00100000
00000000
10000000
00000000
00000000
01000000
00000000
00000000
00100000
00000000
00000000
00100000
00000000
00000000
00100000
00000000
,
00001000
00000000
00010000
00000000
00000000
00000010
00000000
00000000
00001000
00000000
00000000
00001000
00000000
00000000
00001000
00000000
,
00000001
00000000
00000100
00000000
00000010
00000000
00000100
00000000
00000001
00000000
00000000
00000001
00000000
00000000
00001000
00000000
,
00000100
00000000
00000100
00000100
00000100
00000000
00001100
00000000
,
00010000
00000000
00010000
00010000
00010000
00000000
00011000
00000000
,
00100000
00000000
00100000
00100000
00100000
00000000
00110000
00000000
,
00001000
00001000
00001000
00001000
00001000
00000000
00011000
00000000
,
00010000
00000000
00001000
00000000
00000000
01000000
00000000
00000000
00010000
00000000
00000000
00010000
00000000
00000000
01000000
00000000
,
00100000
00000000
10000000
00000000
00000000
00100000
00000000
00000000
01000000
00000000
00000000
01000000
00000000
00000000
01000000
00000000
,
00010000
00000000
00100000
00000000
00000000
00010000
00000000
00000000
00100000
00000000
00000000
00100000
00000000
00000000
00001000
00000000
,
00010000
00000000
00001000
00000000
00000000
00010000
00000000
00000000
00000010
00000000
00000000
00000010
00000000
00000000
00001000
00000000
,
00000100
00000000
00000010
00000000
00000000
00000001
00000000
00000000
00001000
00000000
00000000
00001000
00000000
00000000
00000100
00000000
,
00010000
00000000
00001000
00000000
00000000
00010000
00000000
00000000
00001000
00000000
00000000
00001000
00000000
00000000
00100000
00000000
,
00010000
00000000
01000000
00000000
00000000
00100000
00000000
00000000
10000000
00000000
00000000
10000000
00000000
00000000
10000000
00000000
,
00010000
00000000
00100000
00000000
00000000
00001000
00000000
00000000
00011000
00000000
00000000
00011000
00000000
00000000
00000000
00000000
,
00010000
00000000
00000100
00000000
00001000
00000100
00000010
00000000
,
00000001
00000000
00000100
00000000
00000010
00001000
00000100
00000000
,
00010000
00000000
00001000
00000000
00100000
00010000
01000000
00000000
,
00100000
00000000
10000000
00000000
01000000
00100000
00010000
00000000
,
00100000
00000000
00101000
00000000
00001000
00010000
00000100
00000000
,
00001000
00000000
00001001
00000000
00000100
00000010
00001000
00000000
,
00000100
00000000
00010100
00000000
00010000
00001000
01000000
00000000
,
01010000
00000000
10010000
00000000
00100000
00010000
01000000
00000000
,
10100000
00000000
10000000
10010000
00000000
00110000
00000000
00100000
,
00101000
00000000
00001000
00011000
00000000
00010100
00000000
00001000
,
00001010
00000000
00000100
00001001
00000000
00000110
00000000
00000010
,
00001000
00000000
00000100
00001100
00000000
00010100
00000000
00010000
,
00001000
00000000
00100000
00110000
00000000
01010000
00000000
00100000
,
10100000
00000000
10000000
11000000
00000000
00110000
00000000
00100000
,
00101000
00000000
00001000
00011000
00000000
00010100
00000000
00010000
,
00000100
00000000
00001000
00000100
00000010
00000001
00000100
00000010
,
00001000
00000000
00000000
00000000
00000001
00000000
00001000
00000000
00000001
00000000
00000000
00000001
00000000
00000000
00001000
00000000
,
00000100
00000000
00000000
00000000
00001000
00000000
00001000
00000000
00000100
00000000
00000000
00010000
00000000
00000000
00001000
00000000
,
00100000
00000000
00000000
00000000
00010000
00000000
00010000
00000000
00100000
00000000
00000000
00010000
00000000
00000000
01000000
00000000
,
00100000
00000000
00100000
00100000
10000000
00010000
00100000
00000000
,
00100000
00000000
00000000
00000000
00001000
00000000
00001000
00000000
00010000
00000000
00000000
00000100
00000000
00000000
00001000
00000000
,
00001000
00000000
00000000
00000000
00000001
00000000
00000001
00000000
00001000
00000000
00000000
00000100
00000000
00000000
00010000
00000000
,
00001000
00000000
00000000
00000000
00100000
00000000
00100000
00000000
00010000
00000000
00000000
01000000
00000000
00000000
00100000
00000000
,
10000000
00010000
10000000
00010000
00100000
00001000
00100000
00000000
,
00002000
00000000
00013000
00000000
00010000
00001000
00010000
00000000
,
00000200
00000000
00001300
00000000
00000010
00001000
00000001
00000000
,
00000200
00000000
00001300
00000000
00000100
00001000
00000100
00000000
,
00020000
00000000
00031000
00000000
00010000
00001000
00010000
00000000
,
00002000
00000000
00103000
00000000
00010000
01000000
00100000
00000000
,
20000000
00000000
31000000
00000000
00100000
00010000
01000000
00000000
,
00020000
00000000
00130000
00000000
00001000
00010000
00000100
00000000
,
00002000
00000000
00003010
00000000
00001000
00000100
00010000
00000000
,
00011000
00022000
00000000
00000000
,
00033000
00000000
00000000
00000000
;

//---------------dance-double - ----------------
#NOTES:
     dance-double:
     :
     Easy:
     6:
     0.281682,0.339691,0.156180,0.097612,0.000000,202.000000,186.000000,16.000000,10.000000,0.000000,0.000000,0.281682,0.339691,0.156180,0.097612,0.000000,202.000000,186.000000,16.000000,10.000000,0.000000,0.000000:
00000000
00000000
00000000
00000000
,
00000000
00000000
00000000
00000000
,
00000000
00000000
00000000
00000000
,
00000000
00000000
00000000
00000000
,
00000000
00000000
00000000
00000000
,
00100000
00100000
10000000
01000000
,
00100000
00100000
00001000
00010000
,
00000010
00000010
00001000
00000100
,
00000010
00000010
00000001
00000010
,
00000100
00000100
00000010
00001000
,
00000100
00000100
00010000
00001000
,
01000000
01000000
00010000
00100000
,
01000000
01000000
10010000
01100000
,
00100000
10000000
00100000
10010000
,
00100000
00001000
00100000
00011000
,
00000010
00001000
00000010
00001001
,
00000010
00001000
00000100
00001001
,
00000001
00001000
00000100
00000100
,
00010000
00001000
01000000
01000000
,
00100000
10000000
01000000
00010000
,
00100000
00010000
01000000
10000000
,
00100000
10000000
00010000
00010000
,
00100000
00001000
00010000
00010000
,
00000010
00001000
00000001
00000001
,
00001000
00000100
00010000
00001000
,
00020000
00030000
00002000
00003000
,
00100000
00010000
01000000
10000000
,
00020000
00030000
20000000
30000000
,
00010000
01000000
00001000
00100000
,
00002000
00003000
00020000
00030000
,
00000010
00001000
00000100
00000001
,
00002000
00003000
00000002
00000003
,
00000100
00000010
00010000
00001000
,
00010000
00000000
00010000
00001000
,
01000000
00000000
00010000
10000000
,
01000000
00000000
10000000
00010000
,
01000000
00000000
00010000
01000000
,
00001000
00000000
00010000
00001000
,
00100000
00000000
00001000
00010000
,
00000010
00000000
00001000
00000010
,
00001000
00000000
00000010
00000100
,
00000001
00000001
00000001
00000100
,
00001000
00001000
00001000
00000010
,
00000001
00000001
00000001
00000100
,
00001000
00000100
00010000
00001000
,
01000000
01000000
01000000
00010000
,
00100000
00100000
00100000
10000000
,
01000000
01000000
01000000
00100000
,
00001000
00001000
00001000
00010000
,
00011000
00011000
00000000
00000000
,
01010000
01010000
00000000
00000000
,
00011000
00011000
00000000
00000000
,
00001100
00001100
00000000
00000000
,
00000010
00001000
00000100
00000001
,
00000010
00001000
00000100
00010000
,
00001000
01000000
00010000
00100000
,
10000000
01000000
00010000
00100000
,
10010000
20020000
00000000
00000000
,
30030000
00000000
00000000
00000000
;

//---------------dance-single - ----------------
#NOTES:
     dance-single:
     :
     Medium:
     9:
     0.450412,0.509537,0.322121,0.107374,0.185464,323.000000,290.000000,33.000000,11.000000,0.000000,0.000000,0.450412,0.509537,0.322121,0.107374,0.185464,323.000000,290.000000,33.000000,11.000000,0.000000,0.000000:
0000
0000
0000
0000
,
0000
0000
0000
0000
,
0000
0000
0000
0000
,
0000
0000
0000
0000
,
0000
0000
0000
0000
,
1000
0000
0001
0000
0000
1000
0000
0000
0010
0000
0000
0010
0000
0000
0010
0000
,
1000
0000
0001
0000
0000
1000
0000
0000
0100
0000
0000
0100
0000
0000
0100
0000
,
1000
0000
0001
0000
0000
0100
0000
0000
0010
0000
0000
0010
0000
0000
0010
0000
,
0100
0000
0010
0000
0000
1000
0000
0000
0001
0000
0000
0001
0000
0000
0001
0000
,
1000
0000
0100
0000
0000
0010
0000
0000
0001
0000
0000
0001
0000
0000
0001
0000
,
1000
0000
0010
0000
0000
0100
0000
0000
0001
0000
0000
0001
0000
0000
0001
0000
,
1000
0000
0010
0000
0000
1000
0000
0000
0001
0000
0000
0001
0000
0000
0001
0000
,
0100
0000
0001
0000
0000
1000
0000
0000
0010
0000
0000
0010
0000
0000
0000
0000
,
1001
0000
1000
1000
1000
0000
1001
0000
,
0001
0001
0001
0000
0001
0000
1001
0000
,
0100
0100
0100
0100
0100
0000
0110
0000
,
0010
0010
0010
0010
0010
0000
0110
0000
,
0001
0000
0001
0000
0000
0001
0000
0000
1000
0000
0000
1000
0000
0000
1000
0000
,
0010
0000
0010
0000
0000
0010
0000
0000
0100
0000
0000
0100
0000
0000
0100
0000
,
0001
0000
0001
0000
0000
1000
0000
0000
0010
0000
0000
0010
0000
0000
0010
0000
,
1000
0000
1000
0000
0000
0001
0000
0000
0100
0000
0000
0100
0000
0000
0100
0000
,
0001
0000
0010
0000
0000
0001
0000
0000
1000
0000
0000
1000
0000
0000
1000
0000
,
0010
0000
1000
0000
0000
0010
0000
0000
0100
0000
0000
0100
0000
0000
0100
0000
,
0001
0000
0010
0000
0000
0100
0000
0000
1000
0000
0000
1000
0000
0000
1000
0000
,
0001
0000
1000
0000
0000
0001
0000
0000
1001
0000
0000
0000
1001
0000
0000
0000
,
0020
0000
0130
0000
0001
0100
0010
0000
,
1000
0000
0100
0000
1000
0100
0010
0000
,
0002
0000
1003
0000
0001
1000
0100
0000
,
1000
0001
0010
0000
0001
1000
0010
0000
,
2000
0000
3100
0000
0010
0001
0010
0000
,
0002
0000
0103
0000
0010
1000
0010
0000
,
2000
0000
3100
0000
0010
0001
0100
0000
,
0010
1000
0001
0000
0010
0001
1000
0000
,
1001
0000
1000
0100
0000
1001
0000
0001
,
0100
0000
1000
0100
0000
1001
0000
0001
,
0010
0000
0001
0100
0000
1001
0000
1000
,
0100
0000
1000
0010
0000
1001
0000
0100
,
0101
0000
0001
1001
0000
1001
0000
1000
,
1010
0000
0010
0110
0000
0110
0000
1000
,
1001
0000
1000
1100
0000
1100
0000
0010
,
0011
0101
1001
0110
,
0010
0000
0100
0000
0010
0000
0100
0000
0010
0000
0000
0010
0000
0000
1000
0000
,
0001
0000
1000
0000
0001
0000
1000
0000
0001
0000
0000
0001
0000
0000
1000
0000
,
0100
0000
1000
0000
0100
0000
1000
0000
0100
0000
0000
0100
0000
0000
0010
0000
,
0001
0000
0010
0000
0001
0000
0010
0000
0001
0000
0000
0001
0000
0000
0100
0000
,
0010
0000
0100
0000
0001
0000
0100
0000
0010
0000
0000
0010
0000
0000
1000
0000
,
0100
0000
1000
0000
0010
0000
1000
0000
0100
0000
0000
0100
0000
0000
1000
0000
,
0001
0000
0100
0000
0001
0000
0010
0000
0001
0000
0000
0001
0000
0000
1000
0000
,
0010
0100
0010
0100
0001
0000
1001
0000
,
1000
1000
1000
0000
0002
0000
0003
0000
,
0001
0001
0001
0000
2000
0000
3000
0000
,
0010
0010
0010
0000
0200
0000
0300
0000
,
0100
0100
0100
0000
0020
0000
0030
0000
,
1000
0001
1000
0000
0001
0000
1001
0000
,
0100
0010
0100
0000
0010
0000
0110
0000
,
1000
0001
1000
0000
0010
0000
0110
0000
,
0001
1000
0100
0000
1001
0000
1001
0000
,
0110
2002
0000
0000
,
3003
0000
0000
0000
;

//---------------dance-single - ----------------
#NOTES:
     dance-single:
     :
     Beginner:
     2:
     0.132474,0.198153,0.009761,0.087851,0.000000,95.000000,94.000000,1.000000,9.000000,0.000000,0.000000,0.132474,0.198153,0.009761,0.087851,0.000000,95.000000,94.000000,1.000000,9.000000,0.000000,0.000000:
0000
0000
0000
0000
,
0000
0000
0000
0000
,
0000
0000
0000
0000
,
0000
0000
0000
0000
,
0000
0000
0000
0000
,
0010
0000
0000
0000
,
0001
0000
0000
0000
,
0100
0000
0000
0000
,
1000
0000
0000
0000
,
0010
0000
0000
0000
,
1000
0000
0000
0000
,
0100
0000
0000
0000
,
0001
0000
0000
0000
,
2000
0000
3000
0000
,
0002
0000
0003
0000
,
0200
0000
0300
0000
,
0020
0000
0030
0000
,
1000
0000
1000
0000
,
0001
0000
0001
0000
,
1000
0000
1000
0000
,
0001
0000
0001
0000
,
0100
0000
0100
0000
,
0010
0000
0010
0000
,
0100
0000
0010
0000
,
0100
0000
0100
0000
,
0001
0000
0001
0000
,
1000
0000
1000
0000
,
0001
0000
1000
0000
,
0001
0000
1000
0000
,
1000
0000
0001
0000
,
1000
0000
0001
0000
,
0100
0000
0010
0000
,
0100
0000
0010
0000
,
1000
0000
0100
0000
,
0010
0000
0001
0000
,
1000
0000
0001
0000
,
0100
0000
0010
0000
,
0001
0000
0010
0000
,
0100
0000
1000
0000
,
0001
0000
1000
0000
,
0010
0000
0100
0000
,
0010
0010
0010
0000
,
1000
1000
1000
0000
,
0100
0100
0100
0000
,
0001
0001
0001
0000
,
0020
0030
0010
0000
,
2000
3000
1000
0000
,
0200
0300
0100
0000
,
0002
0003
0001
0000
,
1001
0000
0000
0000
,
0010
0000
0000
0000
,
0100
0000
0000
0000
,
0001
0000
0000
0000
,
1000
0000
1000
0000
,
0001
0000
0001
0000
,
0100
0000
0100
0000
,
0010
0000
0010
0000
,
0100
0200
0000
0000
,
0300
0000
0000
0000
;

//---------------dance-single - ----------------
#NOTES:
     dance-single:
     :
     Easy:
     6:
     0.285865,0.339691,0.078090,0.097612,0.000000,205.000000,197.000000,8.000000,10.000000,0.000000,0.000000,0.285865,0.339691,0.078090,0.097612,0.000000,205.000000,197.000000,8.000000,10.000000,0.000000,0.000000:
// measure 0
0000
0000
0000
0000
,  // measure 1
0000
0000
0000
0000
,  // measure 2
0000
0000
0000
0000
,  // measure 3
0000
0000
0000
0000
,  // measure 4
0000
0000
0000
0000
,  // measure 5
0010
0010
1000
0001
,  // measure 6
0100
0100
0001
1000
,  // measure 7
0010
0010
1000
0100
,  // measure 8
0010
0010
0001
0100
,  // measure 9
0001
0100
0010
0010
,  // measure 10
1000
0010
0100
0100
,  // measure 11
0001
1000
0100
0100
,  // measure 12
1000
0001
0010
0010
,  // measure 13
0001
0001
0001
1001
,  // measure 14
1000
1000
1000
1001
,  // measure 15
0100
0100
0100
0110
,  // measure 16
0010
0010
0010
0110
,  // measure 17
0010
1000
0001
0001
,  // measure 18
0010
0001
1000
1000
,  // measure 19
0001
0100
0010
0010
,  // measure 20
1000
0100
0010
0010
,  // measure 21
0001
1000
0100
0010
,  // measure 22
0001
0010
0100
1000
,  // measure 23
0001
1000
0010
0100
,  // measure 24
0001
0001
1001
1001
,  // measure 25
2000
3000
0002
0003
,  // measure 26
1000
0100
0010
0001
,  // measure 27
2000
3000
0002
0003
,  // measure 28
0001
0100
0010
1000
,  // measure 29
0020
0030
0200
0300
,  // measure 30
0001
0100
1000
0100
,  // measure 31
0002
0003
2000
3000
,  // measure 32
0001
0010
1000
0010
,  // measure 33
0001
0001
1000
0100
,  // measure 34
1000
1000
0001
0100
,  // measure 35
0001
0010
0100
1000
,  // measure 36
0001
0010
0100
1000
,  // measure 37
0010
0100
0001
0001
,  // measure 38
0100
0010
1000
1000
,  // measure 39
0001
0100
0010
1000
,  // measure 40
0001
0001
1000
1001
,  // measure 41
0010
0010
0001
0001
,  // measure 42
0100
0100
1000
1000
,  // measure 43
0010
0001
0100
1000
,  // measure 44
1000
0100
0001
0010
,  // measure 45
1000
1000
0001
0001
,  // measure 46
0100
0100
0010
0010
,  // measure 47
1000
0001
0100
0010
,  // measure 48
0010
0100
0001
1000
,  // measure 49
0010
0000
0100
0100
,  // measure 50
0100
0000
0001
0001
,  // measure 51
0001
0000
1000
1000
,  // measure 52
1000
0000
0010
0100
,  // measure 53
0010
1000
0001
1000
,  // measure 54
0010
0001
1000
0001
,  // measure 55
0100
0100
0001
1000
,  // measure 56
0001
1000
0010
0100
,  // measure 57
0000
2002
0000
0000
,  // measure 58
3003
0000
0000
0000
;
