#TITLE:Let's Just Live;
#SUBTITLE:(Harry Lodes Remix);
#ARTIST:Jeff Williams and Casey Lee Williams;
#TITLETRANSLIT:;
#SUBTITLETRANSLIT:;
#ARTISTTRANSLIT:;
#GENRE:;
#CREDIT:;
#BANNER:Let's Just Live (Harry Lodes Remix).png;
#BACKGROUND:Let's Just Live (Harry Lodes Remix)-bg.png;
#LYRICSPATH:;
#CDTITLE:;
#MUSIC:Let's Just Live (Harry Lodes Remix).ogg;
#OFFSET:0.088000;
#SAMPLESTART:48.476673;
#SAMPLELENGTH:13.180000;
#SELECTABLE:YES;
#BPMS:0.000000=170.000000
;
#STOPS:
;
#BGCHANGES:;
#KEYSOUNDS:;
#ATTACKS:;

//---------------dance-single - ----------------
#NOTES:
     dance-single:
     :
     Hard:
     15:
     0.669049,0.926667,0.407930,0.266723,0.235344,597.000000,545.000000,52.000000,34.000000,0.000000,0.000000,0.669049,0.926667,0.407930,0.266723,0.235344,597.000000,545.000000,52.000000,34.000000,0.000000,0.000000:
0000
0000
0000
0000
,
0000
0000
0000
0000
,
0000
0000
0000
0000
,
0000
0000
0000
0000
,
0000
0000
0000
0000
,
0000
0000
0000
0000
,
0000
0000
0000
0000
,
0000
0000
0000
0000
,
0000
0000
0000
0000
,
0020
0000
0000
0000
0000
2030
0000
0000
,
3002
0000
0000
0000
0000
0203
0000
0000
,
0320
0000
0000
0000
0000
2030
0000
0000
,
3001
0010
0100
2000
0000
3001
0100
0000
,
0020
0000
0000
0000
0000
2030
0000
0000
,
3002
0000
0000
0000
0000
2003
0000
0000
,
3020
0000
0000
0000
0000
0230
0000
0000
,
0302
0000
0000
1003
0000
0010
0100
0000
,
0001
0000
0000
0000
1000
0000
0100
0000
0000
0000
1000
0010
1000
0000
0001
0000
,
0100
0000
0000
0000
0001
0000
1000
0010
1000
0000
0001
0000
0100
0000
0010
0000
,
1000
0000
0000
0000
0010
0000
0100
0000
0000
0000
0001
0100
0010
0000
1000
0000
,
1000
0000
0000
0000
0001
0000
1000
0010
0100
0000
0001
0000
1000
0000
0100
0000
,
1000
0000
0000
0000
0010
0000
0100
0000
0000
0000
0001
0100
0010
0000
1000
0000
,
1000
0000
0000
0000
0001
0000
0010
0100
1000
0000
0010
0000
0100
0000
0001
0000
,
1000
0000
0000
0000
0001
0000
0100
0000
0000
0000
0010
1000
0100
0000
1000
0000
,
0010
0000
0000
0000
1000
0000
0001
1000
0010
0000
1000
0000
0100
0000
0010
0000
,
0001
0100
0001
0100
0010
1000
0010
1000
,
0001
0000
0010
0000
0100
0000
1000
0001
1000
0000
0100
0000
0010
0000
0001
0000
,
1000
0100
1000
0100
0010
0001
0010
0001
,
0100
0000
0010
0000
0100
0000
0001
1000
0010
0000
1000
0000
0100
0000
0010
0000
,
0001
0000
0100
0000
0010
0000
0001
1000
0100
0000
1000
0000
0010
0000
0100
0001
,
0100
0000
0010
0000
1000
0000
0100
1000
0100
0000
1000
0000
0010
0000
0100
0000
,
0001
0010
0001
0000
0100
0000
0010
0000
1000
0100
1000
0000
0010
0000
0100
0000
,
0001
0010
0001
0000
0100
0000
0010
1000
0010
0000
0100
0000
0001
0000
0100
0000
,
0010
1000
0100
0010
0001
0100
0010
1000
,
0002
0000
0000
0000
0000
0000
0103
0010
0000
0000
0100
0010
0000
0000
2000
0000
,
0002
0000
3003
0000
0001
0000
0100
0000
0010
0000
1000
0001
1000
0000
0001
0000
,
0100
0000
0000
0000
0010
0000
1000
0000
0100
0000
1000
0010
1000
0000
0010
0000
,
0100
0001
0100
0010
0100
0001
0100
0010
,
1000
0000
0100
0000
0010
0000
0001
0100
0001
0000
1000
0000
0010
0000
1000
0000
,
0100
1100
1000
1001
0000
0101
0001
1001
,
0000
0110
0010
1010
0000
0101
0100
0110
,
0000
1000
0001
0100
0010
1000
0010
0100
,
0001
1000
0100
0110
0000
1010
0010
0110
,
0000
0000
0001
0100
0010
0000
0110
0000
0000
0000
1000
0010
0100
0000
0110
0000
,
0000
0000
0001
1000
0010
0000
1000
0001
0100
0000
0010
0000
1000
0000
1100
0000
,
0000
0010
0001
0101
0000
0010
1000
1001
,
0000
0000
0010
0100
0010
0000
1000
0100
0010
0000
0001
0000
0001
0000
0101
0000
,
1000
0100
0100
1100
0010
0100
0100
0110
,
1000
0001
0001
0101
0010
1010
0100
0101
,
2000
0001
3002
0100
,
0203
0010
0320
2030
,
0100
0100
0100
3200
,
0010
0010
0010
0310
,
0001
0100
0020
1000
,
2030
0100
3200
0010
,
0320
1000
1000
2030
,
0100
0100
0100
3100
,
0001
0100
1000
0100
0001
0100
1000
0100
,
0001
0010
0100
1000
0001
0010
0100
1000
,
0010
0001
0010
1000
0010
0001
0010
1000
,
0100
0010
0001
0010
0100
1000
0100
0010
,
0011
0001
0101
0100
0110
0010
1010
0010
,
0110
0100
0101
0001
1001
1000
1010
0010
,
0100
0010
0100
0000
0001
0000
1000
0000
0010
0100
0010
0000
1000
0000
0001
0000
,
1000
0100
1000
0100
0010
0001
0010
0001
1000
0100
0010
0001
1000
0010
0100
0001
,
2000
0000
0000
0000
,
3020
0000
0000
0000
,
0230
0010
0010
0010
,
0310
0010
0010
0010
0020
0000
0030
0000
,
1001
0000
1000
0010
0100
0001
1000
0100
,
1000
0000
0001
0100
0010
1000
0100
1100
,
0000
0101
0000
0110
0000
1001
0000
0100
,
0001
0000
1000
0000
0001
0000
0100
0000
0010
0000
1000
0100
0010
0000
0001
0000
,
0100
0010
0100
0001
0100
0010
1000
0010
,
0100
0001
0010
0001
1000
0100
0010
0001
,
0100
0000
0010
0000
1000
0000
0010
0000
0100
0000
0001
0010
0100
0000
0010
0000
,
0001
0000
0100
0000
0010
0000
1000
0000
0100
0000
0010
1000
0100
0000
1000
0000
,
0010
0110
0100
0110
0000
1001
0100
0101
,
0000
0010
1000
0100
0010
0001
0100
0101
,
0000
1001
0100
0110
0000
1010
0010
0110
,
0000
0001
0100
0010
1000
0100
1100
1100
,
0000
0000
0001
0010
0100
0000
0101
0000
0000
0000
1000
0010
0100
0000
0110
0000
,
0000
0000
0001
1000
0100
0000
0110
0000
0000
0000
1000
0010
1000
0100
1000
0000
,
0001
0000
0100
0010
0100
0001
0100
0000
0010
0000
1000
0100
0010
0001
0100
0000
,
0010
0000
1000
0100
1000
0100
0010
0000
0001
0010
0100
0010
0001
0000
0001
0000
,
1000
0100
0010
0100
1000
0000
0001
0000
1000
0010
0100
0010
1000
0000
0001
0000
,
1000
0100
0010
0001
0100
0000
0110
0000
1000
0000
1010
0000
0010
0000
0022
0000
,
0000
0000
0033
0000
;

//---------------dance-double - ----------------
#NOTES:
     dance-double:
     :
     Hard:
     15:
     0.653360,0.926667,0.282413,0.329482,0.223577,583.000000,547.000000,36.000000,42.000000,0.000000,0.000000,0.653360,0.926667,0.282413,0.329482,0.223577,583.000000,547.000000,36.000000,42.000000,0.000000,0.000000:
00000000
00000000
00000000
00000000
,
00000000
00000000
00000000
00000000
,
00000000
00000000
00000000
00000000
,
00000000
00000000
00000000
00000000
,
00000000
00000000
00000000
00000000
,
00000000
00000000
00000000
00000000
,
00000000
00000000
00000000
00000000
,
00000000
00000000
00000000
00000000
,
00000000
00000000
00000000
00000000
,
00200000
00000000
00000000
00000000
00000000
20300000
00000000
00000000
,
30020000
00000000
00000000
00000000
00000000
00032000
00000000
00000000
,
00003020
00000000
00000000
00000000
00000000
00002030
00000000
00000000
,
00023000
00000000
00000000
01000000
00000000
01030000
00100000
00000000
,
20000000
00000000
00000000
00000000
00000000
30020000
00000000
00000000
,
00230000
00000000
00000000
00000000
00000000
00302000
00000000
00000000
,
00003200
00000000
00000000
00000000
00000000
00002300
00000000
00000000
,
00003020
00000000
00000000
00000130
00000000
00000001
00000100
00001000
,
00000010
00000000
00001000
00000100
00000000
00001000
00000100
00010000
,
00001000
00000000
00000000
00000000
00100000
00000000
00010000
01000000
00100000
00000000
10000000
00000000
01000000
00000000
00000000
00000000
,
00100000
00000000
10000000
01000000
00000000
00100000
00010000
00000000
,
00100000
00000000
00000000
00000000
00001000
00000000
00010000
00000100
00001000
00000000
00000100
00000000
00010000
00000000
00000000
00000000
,
00001000
00000000
00010000
00000010
00000000
00001000
00000001
00000000
,
00001000
00000000
00000000
00000000
00000100
00000000
00010000
00000100
00010000
00000000
00001000
00000000
00100000
00000000
00000000
00000000
,
00010000
00000000
01000000
00100000
00000000
10000000
00010000
00000000
,
01000000
00000000
00000000
00000000
10010000
00000000
00100000
10000000
00100000
00000000
01000000
00000000
00010000
00000000
00100000
00000000
,
00001000
00010000
00001000
00010000
00000100
00001000
00000100
00001000
,
00000001
00000000
00000010
00000000
00000100
00000000
00001000
00000001
00001000
00000000
00000100
00000000
00010000
00000000
00001000
00000000
,
01000000
00010000
01000000
00100000
10000000
01000000
00100000
00010000
,
00100000
00000000
00001000
00000000
00010000
00000000
00001000
00010000
00001000
00000000
00010000
00000000
00000010
00000000
00000100
00000000
,
00000001
00000100
00000010
00001000
00000100
00010000
00001000
01000000
,
00100000
00000000
10000000
00000000
01000000
00000000
00100000
00010000
01000000
00000000
00100000
00000000
10000000
00000000
01000000
00000000
,
20000000
00100000
30100000
00000000
00200000
00010000
00310000
00000000
,
00020000
00000100
00030100
00000000
00002000
00000001
00003001
00000000
,
00000100
00000010
00001000
00000100
00000010
00000001
00000100
00000010
,
00002000
00000000
00000000
00000000
00000000
00000000
00003001
00000100
00000000
00000000
00000001
00000100
00000000
00000000
00000002
00000000
,
00002000
00000000
00003003
00000000
00001000
00000000
00000100
00000000
00010000
00000000
00001000
00010000
00001000
00000000
00100000
00000000
,
00010000
00000000
00000000
00000000
10000000
00000000
01000000
00000000
00100000
00000000
01000000
00100000
00010000
00000000
00100000
00000000
,
00001000
00010000
00000010
00001000
00000100
00001000
00000001
00001000
,
00000100
00000000
00010000
00000000
00001000
00000000
00010000
00000000
00000010
00000000
00001000
00000100
00000010
00000000
00000001
00000000
,
00000100
00000010
00000100
00000001
00001000
00000100
00001000
00000010
,
00010000
00001000
00010000
00001000
01000000
00010000
01000000
00100000
,
10000000
00000000
01000000
00000000
00100000
00000000
00010000
00000000
01000000
00000000
00100000
10000000
00100000
00000000
01000000
00000000
,
00010000
00000000
00100000
00001000
00100000
00000000
00001000
00000000
00010000
00000000
00000100
00001000
00000100
00000000
00001000
00000000
,
00000001
00000000
00000010
00000100
00001000
00000000
00000010
00000000
00001000
00000000
00000100
00010000
00001000
00000000
00100000
00000000
,
00010000
01000000
10000000
01000000
00010000
00100000
00001000
00010000
,
00000010
00000000
00001000
00000100
00000010
00000000
00000100
00000000
00001000
00000000
00000001
00000100
00000010
00000000
00000100
00000000
,
00000001
00000010
00000100
00001000
00000010
00001000
00000100
00001100
,
00000000
00010100
00010000
00011000
00000000
00101000
00100000
00110000
,
00000000
01010000
01000000
01100000
00000000
10100000
00100000
01010000
,
00020000
02030000
03002000
00010000
,
00023000
00000010
00030020
00001000
,
00002030
00000001
00000010
00003200
,
00001000
00010000
00001000
00020300
,
00032000
00203000
00320000
01000000
,
20030000
01000000
30020000
00100000
,
02030000
00001000
00010000
03002000
,
00010000
00000100
00010000
01003000
,
00010000
01000000
10000000
01000000
00010000
01000000
10000000
01000000
,
00010000
00100000
01000000
10000000
01000000
00100000
00010000
00000000
,
00100000
00001000
00010000
00001000
00100000
00001000
00010000
00001000
,
00010000
00000100
00001000
00000100
00010000
00000100
00001000
00000010
,
00000110
00000010
00000110
00000000
00000101
00000100
00000101
00000000
,
00001100
00000100
00001100
00000000
00011000
00010000
00011000
00000000
,
00000100
00001000
00000010
00000000
00001000
00000000
00000100
00000000
00010000
00001000
00100000
00000000
00010000
00000000
01000000
00000000
,
00100000
01000000
00100000
01000000
00010000
10000000
00010000
10000000
00010000
00100000
01000000
10000000
01000000
00100000
00010000
01000000
,
00200000
00000000
00000000
00000000
,
20300000
00000000
00000000
00000000
,
30020000
00000000
00100000
00100000
,
00100000
00100000
00100000
00100000
00032000
00000000
00000000
00000000
,
00013000
00000100
00000010
00000001
00000010
00000100
00001000
00000010
,
00001000
00000000
00000100
00000000
00010000
00000000
00001000
00000000
00100000
00000000
00010000
01000000
00100000
00000000
10000000
00000000
,
01000000
00000000
00100000
00010000
00100000
00000000
00010000
01000000
00010000
00000000
10000000
01000000
10000000
00000000
00100000
00000000
,
01000000
00000000
00001000
00000000
00010000
00000000
00000100
00000000
00001000
00000000
00000010
00000100
00000001
00000000
00000100
00000000
,
00000010
00000000
00001010
00000000
00001000
00000000
00001100
00000000
00000100
00000000
00010000
00001000
00010000
00000000
00000100
00000000
,
00010000
00000000
00011000
00000000
00001000
00000000
00101000
00000000
00100000
00000000
00010000
01000000
00100000
00000000
01000000
00000000
,
00100000
10100000
00100000
10100000
00100000
01000000
00010000
00100000
,
00001000
00011000
00001000
00011000
00001000
00010000
00000010
00001000
,
00000100
00000000
00001000
00000100
00000010
00000000
00000100
00000000
00000001
00000000
00001000
00000100
00000010
00000000
00001000
00000000
,
00000100
00000000
00010000
00000000
00001000
00000000
01000000
00000000
00100000
00000000
00010000
10000000
01000000
00000000
00100000
00000000
,
00010000
00000000
10000000
01000000
00100000
00000000
00010000
00000000
01000000
00000000
00100000
10000000
01000000
00000000
00100000
00000000
,
00001000
00000000
00010000
00000000
00000100
00000000
00001000
00000000
00000010
00000000
00000100
00000001
00000010
00000001
00000100
00000000
,
00000010
00000000
00001000
00000000
00001100
00000000
00001100
00000000
00000100
00000000
00010000
00001000
00100000
00001000
00010000
00000000
,
00100000
00000000
00010000
00000000
01010000
00000000
01010000
00000000
01000000
00000000
00100000
10000000
01000000
10000000
00100000
00000000
,
01000000
00000000
00110000
00000000
00100000
00000000
00110000
00000000
01000000
00000000
00100000
10000000
01000000
00100000
00010000
00000000
,
00100000
00000000
00011000
00000000
00100000
00000000
00101000
00000000
00100000
00000000
00001000
00010000
00000100
00001000
00000010
00000000
,
00001000
00000000
00000100
00001000
00000010
00000100
00000010
00000000
00001000
00000000
00000100
00000010
00000001
00000100
00000010
00000000
,
00001000
00000000
00000100
00010000
00001000
00010000
00000100
00000000
00010000
00000000
00011000
00000000
00100000
00000000
00202000
00000000
,
00000000
00000000
00303000
00000000
;

//---------------dance-double - ----------------
#NOTES:
     dance-double:
     :
     Medium:
     11:
     0.452757,0.617778,0.266723,0.196120,0.000000,404.000000,370.000000,34.000000,25.000000,0.000000,0.000000,0.452757,0.617778,0.266723,0.196120,0.000000,404.000000,370.000000,34.000000,25.000000,0.000000,0.000000:
00000000
00000000
00000000
00000000
,
00000000
00000000
00000000
00000000
,
00000000
00000000
00000000
00000000
,
00000000
00000000
00000000
00000000
,
00000000
00000000
00000000
00000000
,
00000000
00000000
00000000
00000000
,
00000000
00000000
00000000
00000000
,
00000000
00000000
00000000
00000000
,
00000000
00000000
00000000
00000000
,
01000000
00000000
00000000
00000000
00000000
00010000
00000000
00000000
,
00001000
00000000
00000000
00000000
00000000
00000100
00000000
00000000
,
00010000
00000000
00000000
00000000
00000000
00001000
00000000
00000000
,
01000000
00000000
00000000
00100000
00000000
00100000
01000000
00000000
,
00001000
00000000
00000000
00000000
00000000
00010000
00000000
00000000
,
00000100
00000000
00000000
00000000
00000000
00010000
00000000
00000000
,
00001000
00000000
00000000
00000000
00000000
01000000
00000000
00000000
,
00100000
00000000
00000000
10000000
00000000
00010000
10000000
00000000
,
00010000
00000000
10000000
00010000
00000000
00010000
10000000
00000000
,
00010000
00000000
00100000
00000000
00001000
00010000
00001000
00000000
,
00010000
00000000
00000010
00001000
00000000
00001000
00000010
00000000
,
00001000
00000000
00000001
00000000
00001000
00000100
00001000
00000000
,
00000100
00000000
00010000
00001000
00000000
00001000
00010000
00000000
,
00001000
00000000
01000000
00000000
00010000
01000000
00010000
00000000
,
10000000
00000000
00100000
01000000
00000000
01000000
00100000
00000000
,
10000000
00000000
00010000
00000000
00100000
00001000
00100000
00000000
,
00001000
00010000
00000100
00000000
00010000
00000100
00001000
00000000
,
00000010
00001000
00000100
00001000
00000010
00001000
00000010
00000000
,
00001000
00000001
00000100
00000000
00000001
00001000
00000100
00000000
,
00001000
00000100
00001000
00000100
00010000
00001000
00010000
00000000
,
00001000
01000000
00010000
00000000
01000000
00010000
10000000
00000000
,
00100000
10000000
00100000
01000000
00100000
01000000
00100000
00000000
,
10000000
01000000
00100000
00000000
01000000
00100000
00010000
00000000
,
10000000
00100000
01000000
00000000
00010000
01000000
00100000
00000000
,
20020000
00000000
00000000
30030000
,
00000000
00000000
00000000
01100000
00000000
10010000
00000000
01100000
,
00000000
00000000
10000000
00010000
00000000
00010000
10000000
00000000
,
00100000
00000000
01000000
00001000
00000000
00001000
01000000
00000000
,
00001000
00010000
00001000
00010000
00000000
00000100
00001000
00000000
,
00000010
00001000
00000010
00001000
00000000
00000001
00000100
00000000
,
00000010
00000000
00001000
00000100
00000000
00000100
00001000
00000000
,
00000100
00000000
00010000
00001000
00000000
00001000
00010000
00000000
,
00001000
00100000
00001000
00100000
00000000
00010000
10000000
00000000
,
00100000
01000000
00100000
01000000
00000000
00010000
00100000
00000000
,
00001000
00000000
00010000
00000100
00001000
00000000
00000010
00000000
,
00001000
00000000
00000001
00001000
00000100
00000000
00010000
00000000
,
00001000
00000000
00100000
00010000
01000000
00000000
00100000
00000000
,
10000000
00000000
01000000
00100000
00010000
10000000
00000000
01010000
,
00000000
01010000
00000000
11000000
00000000
11000000
00000000
00110000
,
00000000
01010000
00000000
10010000
00000000
01010000
00000000
00100000
,
20000000
30100000
00200000
01300000
,
02000000
03010000
00020000
00130000
,
00002000
00010000
00010000
00023000
,
00000010
00000010
00000010
00030020
,
00002030
00000001
00003002
00000100
,
00000203
00000010
00000320
00002030
,
00003200
00010000
00010000
00020300
,
00001000
00032000
01000000
01003000
,
00100000
10000000
00100000
00000000
10000000
00100000
10000000
00000000
,
00010000
01000000
00010000
00000000
01000000
00010000
01000000
00000000
,
00200000
10000000
01000000
02300000
,
00010000
00100000
03100000
10010000
,
00100000
00001000
00100000
00000000
00000100
00010000
00000100
00000000
,
00001000
00000001
00001000
00000000
00000010
00000100
00000010
00000000
,
00001000
00000100
00001000
00000000
00000001
00000100
00000001
00000000
,
00001000
00000100
00000010
00000001
00001000
00000100
00000010
00000001
,
00002000
00000000
00000000
00000000
,
00023000
00000000
00000000
00000000
,
02030000
00000000
00000000
00000000
,
03200000
00000000
00300000
10010000
,
01100000
00000000
00000000
11000000
00000000
00110000
00000000
00000000
,
10010000
00000000
00000000
00110000
00000000
00101000
00000000
00100000
,
00001000
00010000
00000000
00000100
00001000
00000001
00000000
00001000
,
00000100
00010000
00000000
00011000
00000000
00100000
00010000
01000000
,
00000000
00100000
10000000
01000000
00000000
00100000
00010000
00100000
,
00000000
00001000
00010000
00000010
00000000
00001000
00000100
00000010
,
00000001
00000000
00000100
00000010
00000000
00001010
00000000
00010010
,
00000000
00010000
00001000
00100000
00000000
00010000
01000000
00100000
,
00000000
10000000
01000000
00100000
00000000
00001000
00010000
00000100
,
00010000
00000000
00001000
00010000
00000000
00000100
00001000
00000001
,
00000000
00001000
00000100
00010000
00000000
00000010
00010000
00001000
,
00010000
00000000
00001000
00100000
00000000
00010000
01000000
01010000
,
00000000
11000000
00000000
11000000
00000000
01010000
00000000
01010000
,
00000000
00011000
00000000
00011000
00000000
00001010
00000000
00001010
,
00000000
00000010
00000001
00000100
00000000
00000010
00001000
00000100
,
00000000
00010000
00001000
00100000
00000000
00010000
10000000
01000000
,
10000000
01000000
10000000
00100000
01000000
00010000
01000000
00100000
,
01000000
00001000
00100000
00001000
00000000
00011000
00000000
00020200
,
00000000
00000000
00030300
00000000
;

//---------------dance-single - ----------------
#NOTES:
     dance-single:
     :
     Medium:
     11:
     0.467326,0.617778,0.353016,0.203965,0.000000,417.000000,372.000000,45.000000,26.000000,0.000000,0.000000,0.467326,0.617778,0.353016,0.203965,0.000000,417.000000,372.000000,45.000000,26.000000,0.000000,0.000000:
0000
0000
0000
0000
,
0000
0000
0000
0000
,
0000
0000
0000
0000
,
0000
0000
0000
0000
,
0000
0000
0000
0000
,
0000
0000
0000
0000
,
0000
0000
0000
0000
,
0000
0000
0000
0000
,
0000
0000
0000
0000
,
0100
0000
0000
0000
0000
0001
0000
0000
,
0100
0000
0000
0000
0000
1000
0000
0000
,
0100
0000
0000
0000
0000
0001
0000
0000
,
0010
0000
0000
1000
0000
1000
0001
0000
,
1000
0000
0000
0000
0000
0100
0000
0000
,
0001
0000
0000
0000
0000
0100
0000
0000
,
1000
0000
0000
0000
0000
0100
0000
0000
,
0001
0000
0000
1000
0000
0001
1000
0000
,
0001
0000
1000
0001
0000
0001
1000
0000
,
0001
0000
0010
0000
1000
0001
1000
0000
,
0001
0000
0100
0010
0000
0010
0100
0000
,
0001
0000
1000
0000
0010
0100
0010
0000
,
1000
0000
0010
1000
0000
1000
0001
0000
,
1000
0000
0001
0000
0100
0010
0100
0000
,
0001
0000
1000
0010
0000
0010
1000
0000
,
0001
0000
0100
0000
0010
1000
0010
0000
,
1000
0001
1000
0000
0001
0100
0001
0000
,
1000
0100
1000
0010
0100
0010
0100
0000
,
0001
0100
0010
0000
1000
0010
0100
0000
,
0001
1000
0001
1000
0010
0100
0001
0000
,
1000
0100
0001
0000
0100
0001
1000
0000
,
0010
1000
0010
0100
0010
0100
0010
0000
,
1000
0100
0010
0000
0100
0010
0001
0000
,
1000
0010
0100
0000
0001
0100
0010
0000
,
2002
0000
0000
3003
,
0000
0000
0000
0110
0000
1001
0000
0110
,
0000
0000
1000
0001
0000
0001
1000
0000
,
0010
0000
0100
0001
0000
0001
0100
0010
,
0000
1001
0000
1001
0000
1100
0000
0101
,
0000
0010
1000
0100
0000
1000
0001
0100
,
0000
0010
0000
1010
0000
0001
0100
0010
,
0000
1000
0001
0100
0000
0010
1000
0000
,
0001
1000
0001
1000
0000
0101
0000
1010
,
0000
0100
0010
0100
0000
0001
0010
0100
,
0000
0010
0100
1000
0000
0101
0000
1000
,
0100
0000
1000
0010
0000
1000
0001
0100
,
0000
0001
1000
0100
0000
1000
0010
0100
,
0001
0000
0100
0010
0000
1001
0000
0101
,
0000
0101
0000
1100
0000
1100
0000
0011
,
0000
0101
0000
1001
0000
0101
0000
0010
,
2000
3010
0020
0130
,
0200
0301
0002
0013
,
0020
0100
0100
0230
,
0010
0010
0320
2030
,
3002
0100
0203
0010
,
0320
1000
2030
3002
,
0203
0001
0001
0302
,
1000
2003
0010
3010
,
0010
1000
0010
0000
1000
0010
1000
0000
,
0001
0100
0001
0000
0100
0001
0100
0000
,
0020
1000
0100
0230
,
0001
0010
0310
1001
,
0010
0100
0010
0000
1000
0001
1000
0000
,
0001
0010
0001
0000
1000
0100
1000
0000
,
0001
0010
0001
0010
0100
1000
0100
1000
,
0001
0010
0100
1000
0001
0010
0100
1000
,
0020
0000
0000
0000
,
0032
0000
0000
0000
,
0203
0000
0000
0000
,
2300
0000
3000
1001
,
0110
0000
0000
1100
0000
0011
0000
0000
,
1001
0000
0000
0011
0000
1010
0000
0110
,
0000
1001
0000
0010
1000
0100
0010
0001
,
0000
1001
0000
0110
0000
0010
0001
0100
,
0000
0010
1000
0100
0000
0010
0001
0010
,
0000
1000
0001
0100
0000
0010
1000
0100
,
1000
0000
0010
0001
0000
0101
0000
1001
,
0000
0001
1000
0010
0000
0001
0100
0010
,
0000
1000
0100
0010
0000
0100
0001
0100
,
0001
0000
1000
0001
0000
0010
1000
0100
,
0000
0010
0001
0100
0000
0010
0001
1000
,
0001
0000
1000
0001
0000
0001
0100
0101
,
0000
1100
0000
1100
0000
0101
0000
0101
,
0000
0011
0000
0011
0000
1010
0000
1010
,
0000
0100
0010
0001
0000
1000
0100
0010
,
0000
0001
1000
0010
0000
0001
1000
0100
,
1000
0100
1000
0010
0100
0001
0100
0010
,
0100
0001
0010
0100
1000
0001
0000
2002
,
0000
0000
3003
0000
;

//---------------dance-single - ----------------
#NOTES:
     dance-single:
     :
     Easy:
     6:
     0.286895,0.446173,0.117672,0.156896,0.000000,256.000000,241.000000,15.000000,20.000000,0.000000,0.000000,0.286895,0.446173,0.117672,0.156896,0.000000,256.000000,241.000000,15.000000,20.000000,0.000000,0.000000:
0000
0000
0000
0000
,
0000
0000
0000
0000
,
0000
0000
0000
0000
,
0000
0000
0000
0000
,
0000
0000
0000
0000
,
0000
0000
0000
0000
,
0000
0000
0000
0000
,
0000
0000
0000
0000
,
0000
0000
0000
0000
,
1000
0000
0000
0000
0000
0001
0000
0000
,
1000
0000
0000
0000
0000
0001
0000
0000
,
1000
0000
0000
0000
0000
0001
0000
0000
,
0010
0000
0000
0010
0000
0000
0000
0000
,
1000
0000
0000
0000
0000
1000
0000
0000
,
0001
0000
0000
0000
0000
0001
0000
0000
,
1000
0000
0000
0000
0000
1000
0000
0000
,
0001
0000
0000
0001
0000
0000
0000
0000
,
0001
1000
0010
1000
,
0001
0010
0100
1000
,
0001
0100
0010
0100
,
0001
1000
0100
0010
,
0001
0100
0001
1000
,
0001
0010
0100
0100
,
0001
1000
0010
1000
,
0001
0100
0010
0010
,
1000
1000
0001
0001
,
1000
0001
0100
0010
,
1000
1000
0001
0001
,
0100
0010
1000
0001
,
1000
0001
0100
0010
,
1000
1000
0001
0001
,
1000
0010
0100
0001
,
1000
0100
0001
0010
,
2002
0000
0000
3003
,
0000
0000
0000
0110
0000
1001
0000
0110
,
0000
0000
0000
0001
0000
0001
0000
1001
,
0000
0000
0000
0001
0000
0010
0000
0100
,
0000
1000
0000
0001
0000
0100
0000
0001
,
0000
0010
0000
0000
0000
1000
0000
0100
,
0000
0010
0000
1001
0000
0001
0000
0010
,
0000
0100
0000
1000
0000
1001
0000
0000
,
0000
0001
1000
0001
,
0000
0000
1000
0000
0001
0000
0000
0100
,
0000
0100
0000
0001
0000
0010
0000
1000
,
0000
0000
0000
0000
0000
0010
0000
0010
,
0000
0010
0000
1000
0000
0100
0000
0001
,
0000
0000
0000
0000
0000
0100
0000
0100
,
0000
0001
0000
0001
0000
1000
0000
1000
,
0000
0001
0000
0001
0000
0010
0000
0000
,
2000
3000
0020
0030
,
0200
0300
0002
0003
,
0020
0000
0000
0030
,
0200
0000
0000
0300
,
2000
3000
0002
0003
,
0020
0030
0200
0300
,
0002
0000
0000
0003
,
2000
0000
0000
3000
,
0010
0010
1000
1000
,
0001
0001
0100
0100
,
0010
1000
0001
0100
,
0001
1000
0010
0010
,
0100
0100
0001
1000
,
0010
0010
0001
1000
,
0001
0011
0100
1100
,
0010
0110
1000
1001
,
0020
0000
0000
0000
,
0032
0000
0000
0000
,
0203
0000
0000
0000
,
2300
0000
3000
0000
,
0110
0000
0000
0100
0000
0010
0000
1000
,
0000
0000
0000
0010
0000
0010
0000
0100
,
0000
1000
0000
0010
0000
0100
0000
0001
,
0000
1001
0000
0000
0000
0010
0000
0100
,
0000
0010
0000
0100
0000
0010
0000
1000
,
0000
0001
0000
0100
0000
0010
0000
0000
,
0000
0010
0001
1001
,
0000
0000
0010
0000
1000
0000
0000
0010
,
0000
1000
0000
0010
0000
0100
0000
0100
,
0000
0000
0000
0001
0000
0010
0000
0100
,
0000
0001
0000
0100
0000
0010
0000
1000
,
0000
0000
0000
0000
0000
0001
0000
0001
,
0000
1000
0000
1000
0000
0001
0000
0001
,
0000
1000
0000
1000
0000
0010
0000
0010
,
0000
0100
0000
0100
0000
1000
0000
0001
,
0000
1000
0000
0001
0000
0010
0000
0010
,
0000
0100
0000
0100
0000
0001
0000
0010
,
0000
0100
0000
1000
0000
0001
0000
2002
,
0000
0000
3003
0000
;

//---------------dance-single - ----------------
#NOTES:
     dance-single:
     :
     Beginner:
     3:
     0.149051,0.238874,0.039224,0.062758,0.000000,133.000000,128.000000,5.000000,8.000000,0.000000,0.000000,0.149051,0.238874,0.039224,0.062758,0.000000,133.000000,128.000000,5.000000,8.000000,0.000000,0.000000:
0000
0000
0000
0000
,
0000
0000
0000
0000
,
0000
0000
0000
0000
,
0000
0000
0000
0000
,
0000
0000
0000
0000
,
0000
0000
0000
0000
,
0000
0000
0000
0000
,
0000
0000
0000
0000
,
0000
0000
0000
0000
,
1000
0000
0000
0000
,
0001
0000
0000
0000
,
1000
0000
0000
0000
,
0001
0000
0000
0000
,
1000
0000
0000
0000
,
0001
0000
0000
0000
,
1000
0000
0000
0000
,
0001
0000
0000
0000
,
0001
0000
0001
0000
,
1000
0000
1000
0000
,
0001
0001
0001
0000
,
1000
1000
1000
0000
,
0010
0000
0010
0000
,
0100
0000
0100
0000
,
0010
0010
0010
0000
,
0100
0100
0100
0000
,
1000
0000
0001
0000
,
1000
0000
0000
0000
,
0001
0000
1000
0000
,
0001
0000
0000
0000
,
0010
0010
0010
0000
,
2002
0000
3003
0000
,
1000
0000
0100
0000
,
0010
0000
0001
0000
,
2002
0000
0000
3003
,
0000
0000
0000
0010
0000
0010
0000
0010
,
0000
0000
0001
0000
,
1000
0000
0001
0000
,
0100
0000
0100
0000
,
0100
0000
0000
0000
,
0001
0000
1000
0000
,
0001
0000
1000
0000
,
0002
0000
0000
0000
,
0003
0000
0000
0000
,
0100
0000
0010
0000
,
0100
0000
0000
0000
,
0010
0000
0100
0000
,
0010
0000
0000
0000
,
0010
0000
1000
0000
,
0100
0000
0001
0000
,
1000
0000
0001
0000
,
1000
0000
0001
0000
,
0020
0000
0000
0000
,
0030
0000
0000
0000
,
0001
0000
1000
0000
,
0001
0000
1000
0000
,
0200
0000
0000
0000
,
0300
0000
0000
0000
,
0010
0000
1000
0000
,
0001
0000
0100
0000
,
0020
0000
0000
0000
,
0030
0000
0000
0000
,
0100
0100
0100
0000
,
0010
0010
0010
0000
,
0001
0000
1000
0000
,
0001
0001
0001
0000
,
0000
0000
0000
0000
,
0000
0000
0000
0000
,
0000
0000
0000
0000
,
0000
0000
0000
0000
,
0110
0000
0100
0000
,
0010
0000
1000
0000
,
0010
0000
0100
0000
,
1000
0000
1000
0000
,
0100
0000
0010
0000
,
1000
0000
0001
0000
,
0010
0000
0001
0000
,
1001
0000
0010
0000
,
1000
0000
0010
0000
,
0100
0000
0000
0000
,
0001
0000
0100
0000
,
0010
0000
0000
0000
,
0001
0000
1000
0000
,
0001
0000
1000
0000
,
0010
0000
0100
0000
,
0010
0000
0100
0000
,
1000
0000
0001
0000
,
0010
0000
0100
0000
,
1001
0000
0000
0000
;

//---------------dance-double - ----------------
#NOTES:
     dance-double:
     :
     Easy:
     6:
     0.275689,0.583457,0.235344,0.313792,0.000000,246.000000,216.000000,30.000000,40.000000,0.000000,0.000000,0.275689,0.583457,0.235344,0.313792,0.000000,246.000000,216.000000,30.000000,40.000000,0.000000,0.000000:
// measure 0
00000000
00000000
00000000
00000000
,  // measure 1
00000000
00000000
00000000
00000000
,  // measure 2
00000000
00000000
00000000
00000000
,  // measure 3
00000000
00000000
00000000
00000000
,  // measure 4
00000000
00000000
00000000
00000000
,  // measure 5
00000000
00000000
00000000
00000000
,  // measure 6
00000000
00000000
00000000
00000000
,  // measure 7
00000000
00000000
00000000
00000000
,  // measure 8
00000000
00000000
00000000
00000000
,  // measure 9
00001000
00000000
00000000
00000000
00000000
00010000
00000000
00000000
,  // measure 10
00001000
00000000
00000000
00000000
00000000
00001000
00000000
00000000
,  // measure 11
00010000
00000000
00000000
00000000
00000000
00001000
00000000
00000000
,  // measure 12
00010000
00000000
00000000
00010000
00000000
00000000
00000000
00000000
,  // measure 13
00001000
00000000
00000000
00000000
00000000
00010000
00000000
00000000
,  // measure 14
00001000
00000000
00000000
00000000
00000000
00010000
00000000
00000000
,  // measure 15
00001000
00000000
00000000
00000000
00000000
00010000
00000000
00000000
,  // measure 16
00100000
00000000
00000000
00000000
,  // measure 17
00010000
10000000
00000000
10000000
,  // measure 18
00010000
00100000
00000000
00100000
,  // measure 19
00000000
00001000
00010000
00001000
,  // measure 20
00000000
00010000
00001000
00010000
,  // measure 21
00000000
00000100
00000000
00000100
,  // measure 22
00000000
00001000
00000000
00000001
,  // measure 23
00000000
00000010
00000100
00000010
,  // measure 24
00000000
00001000
00000100
00000000
,  // measure 25
00010000
00000000
00001000
00000000
,  // measure 26
00010000
00000000
00000000
00000000
,  // measure 27
00001000
00000000
00010000
00000000
,  // measure 28
00001000
00000000
00000000
00000000
,  // measure 29
00001000
00010000
00001000
00000000
,  // measure 30
00100000
00100000
00100000
00000000
,  // measure 31
00010000
00001000
00010000
00000000
,  // measure 32
00000100
00000100
00000100
00000000
,  // measure 33
00022000
00000000
00000000
00033000
,  // measure 34
00000000
00000000
00000000
00100000
00000000
00100000
00000000
01100000
,  // measure 35
00000000
00000000
00000000
10000000
00000000
10000000
00000000
10010000
,  // measure 36
00000000
00000000
01000000
00000000
,  // measure 37
00001000
00010000
00001000
00000000
,  // measure 38
00010000
00001000
00010000
00000000
,  // measure 39
00000010
00000000
00001001
00000000
,  // measure 40
00000100
00000000
00001001
00000000
,  // measure 41
00001000
00000000
00000010
00000000
,  // measure 42
00010000
00000000
00001000
00000000
,  // measure 43
00100000
00010000
01000000
10000000
,  // measure 44
00100000
00100000
00001000
00001000
,  // measure 45
00010000
00000100
00001000
00000010
,  // measure 46
00000001
00000001
00001000
00001000
,  // measure 47
00002200
00003300
00022000
00033000
,  // measure 48
00220000
00330000
02200000
03300000
,  // measure 49
20000000
30100000
00200000
01300000
,  // measure 50
02000000
03010000
00020000
00130000
,  // measure 51
00200000
00000000
00300000
00000000
,  // measure 52
00002000
00000000
00003000
00000000
,  // measure 53
00000020
00000130
00000200
00000301
,  // measure 54
00000002
00001003
00002000
00003100
,  // measure 55
00000200
00000000
00000000
00000300
,  // measure 56
00020000
00000000
00000000
00030000
,  // measure 57
00002000
00000000
00203000
00000000
,  // measure 58
00310000
01000000
20000000
00000000
,  // measure 59
30200000
00301000
00020000
00031000
,  // measure 60
00020000
00030100
00002000
00003010
,  // measure 61
00001001
00001001
00001100
00001100
,  // measure 62
00011000
00011000
01010000
01010000
,  // measure 63
10000000
00100000
00001000
00000010
,  // measure 64
00000001
00000100
00010000
01000000
,  // measure 65
20000000
00000000
00000000
30000000
,  // measure 66
00020000
00000000
00000000
00030000
,  // measure 67
00002000
00000000
00000000
00003000
,  // measure 68
00000002
00000000
00000003
00000000
,  // measure 69
00000000
00000000
00000000
00000010
00000000
00001000
00000000
00000200
,  // measure 70
00000000
00000300
00000000
00010000
00000000
00001000
00000000
00100000
,  // measure 71
00000000
00010000
00000000
01000000
00000000
10000000
00000000
00100000
,  // measure 72
00000000
00002000
00000000
00003000
00000000
00010000
00000000
00000010
,  // measure 73
00000000
00001000
00000000
00000001
00000000
00001000
00000000
00000100
,  // measure 74
00000000
00010000
00000000
00001000
00000000
00200000
00000000
00000000
,  // measure 75
00000000
00300000
00010000
00000000
01000000
00000000
10010000
00000000
,  // measure 76
00000000
00000000
10000000
00000000
00000000
00010000
00000000
01000000
,  // measure 77
00000000
00001000
00000000
00010000
00000000
00000100
00000000
00002000
,  // measure 78
00000000
00000010
00000000
00003010
00000000
00000001
00000000
00000100
,  // measure 79
00000000
00000010
00000000
00001000
00000000
00000100
00000000
00020000
,  // measure 80
00000000
00001000
00000000
00031000
00000000
00110000
00000000
00110000
,  // measure 81
00000000
11000000
00000000
11000000
00000000
00100000
00000000
01000000
,  // measure 82
00000000
00001000
00000000
00010000
00000000
00011000
00000000
00011000
,  // measure 83
00000000
00010010
00000000
00010010
00000000
00000010
00000000
00001000
,  // measure 84
00000000
00000001
00000000
00000100
00000000
00000110
00000000
00000110
,  // measure 85
00000000
00001001
00000001
00001000
00000000
00000010
00000000
00010000
,  // measure 86
00000000
00001000
00000000
00010000
00000000
00000100
00000000
00022000
,  // measure 87
00000000
00000000
00033000
00000000
;
