#TITLE:Leave me Alone;
#SUBTITLE:;
#ARTIST:NieN;
#TITLETRANSLIT:;
#SUBTITLETRANSLIT:;
#ARTISTTRANSLIT:;
#GENRE:;
#CREDIT:;
#BANNER:Leave me Alone.png;
#BACKGROUND:Leave me Alone-bg.png;
#LYRICSPATH:;
#CDTITLE:;
#MUSIC:Leave me Alone.ogg;
#OFFSET:-0.100000;
#SAMPLESTART:80.920189;
#SAMPLELENGTH:12.000000;
#SELECTABLE:YES;
#DISPLAYBPM:118.000000:236.000000;
#BPMS:0.000000=118.000000
,24.000000=236.000000
,216.000000=118.000000
,224.000000=236.000000
,282.000000=472.000000
,294.000000=236.000000
;
#STOPS:
;
#BGCHANGES:2.000=Leave Me Alone.avi=1.000=0=0=0=StretchNoLoop====,
99999=-nosongbg-=1.000=0=0=0 // don't automatically add -songbackground-
;
#KEYSOUNDS:;
#ATTACKS:;

//---------------dance-single - ----------------
#NOTES:
     dance-single:
     :
     Hard:
     14:
     0.594878,0.769381,0.184099,0.306832,0.074516,475.000000,454.000000,21.000000,35.000000,0.000000,0.000000,0.594878,0.769381,0.184099,0.306832,0.074516,475.000000,454.000000,21.000000,35.000000,0.000000,0.000000:
0000
0000
0000
0000
,
0000
0000
0000
0000
,
0001
0000
0000
1000
0000
0000
0020
0000
0000
0000
0000
0000
0130
0000
0000
0000
,
1000
0000
0000
0001
0000
0000
0200
0000
0000
0000
0000
0000
0310
0000
0000
0000
,
0001
0000
0000
1000
0000
0000
0020
0000
0000
0000
0000
0000
1030
0000
0000
0000
,
1000
0000
0000
0001
0000
0000
0200
0000
0000
0000
0000
0000
0310
0000
0000
0000
,
1000
0001
1000
0000
0020
0000
0030
1000
,
0000
0001
0000
1000
0100
0000
1000
0010
,
0100
0000
0001
0000
2000
0000
3000
0001
,
0000
0100
0000
0001
1000
0000
0001
1000
,
0010
0000
1000
0000
0002
0000
0003
1000
,
0000
0010
0000
1000
0001
0000
0100
0000
,
0001
0100
0001
0100
0010
0000
1000
0010
,
0000
1000
0010
0000
0001
1000
0001
0100
,
0001
0000
1000
0000
0020
0000
0030
0100
,
0000
0001
0000
0100
0010
0000
1000
0001
,
0010
0000
0001
0000
0200
0000
0300
0010
,
0000
1000
0000
0001
0100
0000
0010
1000
,
0010
0000
0100
0000
0002
0000
0003
1000
,
0000
0001
0000
0010
0001
0000
0100
0001
,
1000
0000
0001
0000
0010
0000
0001
0100
,
0000
0001
1000
0010
0100
0000
0000
0000
,
1002
0000
0000
0100
0000
0000
0020
0000
,
0000
0000
0033
0000
,
2001
0000
0000
0100
0000
0000
0020
0000
,
0000
3000
0200
0030
,
0302
0000
0000
0010
0000
0000
0200
0000
,
0000
0000
0303
0000
,
1002
0000
0000
0100
0000
0000
2000
0000
,
0000
0000
3003
0000
,
1000
0010
0100
0001
,
1000
0010
1000
0000
0001
0100
0001
0000
,
1000
0001
0000
0000
0100
0010
0100
0010
,
0000
0000
0000
0000
,
2002
0000
0000
0000
,
0000
0000
0000
3003
,
0010
0000
1010
0000
0100
0000
0001
0100
,
0000
0100
0010
1000
0001
0000
1000
0010
,
1000
0000
0001
0000
0101
0000
1000
0010
,
0000
0100
0001
1000
0001
0000
0010
0000
,
0001
0100
0010
0000
1000
0010
0100
0000
,
0001
1000
0010
0000
1000
0100
0010
0000
,
2002
0000
0000
0000
,
0000
0000
0000
3003
,
0001
0100
0001
0000
1000
0000
0001
1000
,
0000
1000
0010
0000
1000
0000
0001
0100
,
0010
0010
1001
1000
,
0001
0100
0001
0000
1000
0000
0010
0100
,
0001
0000
1000
0010
0100
0000
0001
1000
,
0000
0001
0100
0010
1000
0000
0001
0000
,
1100
0010
0001
0100
,
1010
0100
0001
0010
,
1000
0001
1000
0001
0000
0000
0000
0000
,
0000
0000
0000
0000
0000
0000
0010
0100
0010
0000
0000
0000
0000
0000
0000
0000
,
2000
0000
0000
0000
3000
0000
0001
0000
0100
0010
0100
0000
0002
0000
0000
0000
,
1003
0000
0000
0000
0001
0000
1000
0000
0010
0100
0010
0000
2000
0000
0000
0000
,
3001
0100
0001
0100
0010
1000
0010
1000
,
0001
0100
0001
0100
0010
0000
1000
0000
,
0001
0010
0001
0010
0001
1000
0001
1000
,
0001
0010
0001
0010
0001
0000
1000
0000
,
0010
0100
0010
0100
0001
1000
0001
1000
,
0010
1000
0010
1000
0001
0100
0001
0100
,
0010
1000
0001
0000
1001
0000
0001
0100
,
0010
0000
0010
0000
0010
0000
0100
0000
0100
0000
0100
0000
,
0001
0000
1000
0000
0001
0100
0001
0100
,
0010
1000
0010
1000
0001
0000
1000
0001
,
1000
0010
0100
0010
1000
0010
0100
0010
,
0100
0000
2002
0000
,
0000
0000
3003
0000
,
0001
0000
0100
0000
1000
0000
0001
0000
0010
0000
1000
0000
,
0001
0000
0100
0000
1000
0000
1001
0000
0000
0000
0000
0000
,
0000
0000
0000
0000
,
0000
0000
0000
0000
,
0000
0000
0000
0000
,
2002
0000
0000
0000
,
0000
0000
0000
3003
,
0010
0000
0110
0000
0001
0000
1000
0001
,
0000
1000
0100
0010
0001
0000
1000
0000
,
0001
0000
0100
0000
0010
0000
0001
0100
,
0000
0001
0010
0100
1000
0000
0010
0000
,
1000
0010
0100
0010
1000
0000
0001
0100
,
0000
0001
0100
0010
1000
0010
0100
0000
,
2002
0000
0000
0000
,
0000
0000
0000
3003
,
0010
1000
0001
0000
1001
0000
0001
1000
,
0010
1000
0001
0000
1001
0000
0001
0100
,
0010
1000
0001
1000
,
0001
0010
0100
0000
0001
0000
1000
0010
,
0100
0000
0001
1000
0010
0000
1000
0100
,
1000
0010
1000
0001
0100
0010
1000
0000
,
0001
0100
0001
0100
0010
1000
0010
1000
,
0001
0010
0001
0010
0100
1000
0100
1000
,
0010
0000
0100
0010
0000
1000
0001
0000
,
1000
0100
1000
0100
0010
0001
0010
0001
,
0100
0000
0010
1000
0000
0001
0100
0000
,
0001
1000
0001
1000
0010
0100
0010
0100
,
0001
0000
1000
0100
0000
0010
0001
0000
,
1000
0010
1000
0010
0100
0000
0002
0000
,
1003
0000
0010
0100
0000
0010
0100
0000
,
0001
0100
0010
1000
0001
0000
1000
0010
,
0100
0000
0001
1000
0000
0001
1000
0010
,
0100
0000
2002
0000
,
3003
0000
0010
0000
1000
1000
1000
0000
,
0101
1010
0000
0000
;

//---------------dance-double - ----------------
#NOTES:
     dance-double:
     :
     Hard:
     14:
     0.566073,0.769381,0.131499,0.254232,0.074516,452.000000,437.000000,15.000000,29.000000,0.000000,0.000000,0.566073,0.769381,0.131499,0.254232,0.074516,452.000000,437.000000,15.000000,29.000000,0.000000,0.000000:
00000000
00000000
00000000
00000000
,
00000000
00000000
00000000
00000000
,
00100000
00000000
00000000
10000000
00000000
00000000
00020000
00000000
00000000
00000000
00000000
00000000
00130000
00000000
00000000
00000000
,
00100000
00000000
00000000
00001000
00000000
00000000
00020000
00000000
00000000
00000000
00000000
00000000
00031000
00000000
00000000
00000000
,
00010000
00000000
00000000
00000100
00000000
00000000
00002000
00000000
00000000
00000000
00000000
00000000
00003001
00000000
00000000
00000000
,
00000001
00000000
00000000
00000100
00000000
00000000
00002000
00000000
00000000
00000000
00000000
00000000
00003001
00000000
00000000
00000000
,
00001000
00000000
00000100
00000000
00010000
00000000
00001000
00100000
,
00000000
00100000
00010000
00000000
01000000
00000000
00100000
10000000
,
00100000
00000000
01000000
00000000
00010000
00000000
00100000
00001000
,
00000000
00001000
00010000
00000000
00000100
00000000
00001000
00000010
,
00000100
00000000
00000001
00000000
00001000
00000000
00000010
00001000
,
00000000
00001000
00000100
00000000
00010000
00000000
00001000
00000000
,
00100000
00000000
00010000
00000000
10000000
00000000
00100000
01000000
,
00000000
01000000
00010000
00000000
00100000
00001000
00010000
00001000
,
00100000
00000000
00010000
00000000
01000000
00000000
00100000
10000000
,
00000000
10000000
01000000
00000000
10000000
00100000
01000000
00000000
,
00010000
00000000
00100000
00000000
00001000
00000000
00010000
00000100
,
00000000
00000100
00001000
00000000
00001000
00000010
00000100
00000000
,
00000001
00000000
00001000
00000000
00000100
00000000
00001000
00000100
,
00000000
00000100
00010000
00000000
00001000
00010000
00001000
00000000
,
00010000
00001000
00100000
00001000
00010000
00000000
00001000
00100000
,
00000000
00100000
00010000
00000000
01000000
00000000
00100000
00000000
,
20000000
00000000
00000000
01000000
00000000
00000000
00020000
00000000
,
00000000
00000000
30030000
00000000
,
00020000
00000000
00000000
00100000
00000000
00000000
02000000
00000000
,
00000000
00030000
00002000
03000000
,
00023000
00000000
00000000
00000100
00000000
00000000
00000020
00000000
,
00000000
00000000
00000000
00030000
,
00002030
00000000
00000000
00000001
00000000
00000000
00000200
00000000
,
00000000
00000000
00003300
00000000
,
00010000
00001000
00100000
00010000
,
10000000
01000000
00100000
00000000
01000000
00100000
00010000
00000000
,
10000000
00010000
00000000
00000000
10000000
01000000
00100000
00010000
,
00000000
00000000
00000000
00000000
,
00022000
00000000
00000000
00000000
,
00000000
00000000
00000000
00033000
,
00010000
00000000
00010100
00000000
00000100
00000000
00001000
00000010
,
00000000
00000010
00000100
00000000
00000001
00000100
00000010
00001000
,
00000100
00000000
00010000
00000000
00001000
00000000
00100000
00010000
,
00000000
00010000
01000000
00000000
00100000
10000000
01000000
10000000
,
00100000
01100000
00010000
10010000
,
00010000
01000000
00100000
10000000
00100000
01000000
00010000
00000000
,
20020000
00000000
00000000
00000000
,
00000000
00000000
00000000
30030000
,
00100000
00110000
00010000
01010000
,
00100000
10000000
01000000
00000000
00100000
00000000
00001000
00000000
,
00010000
00000000
00000100
00000000
00001000
00000000
00000001
00000100
,
00001000
00000010
00001000
00000100
,
00010000
00000000
00001000
00000000
01000000
00000000
00010000
01000000
,
00000000
00100000
10000000
00010000
00100000
00000000
00001000
00000000
,
00010000
00001000
00010000
00000000
00000100
00001000
00000100
00000000
,
00001000
00000001
00000100
00000000
00000001
00001000
00000100
00000000
,
00000001
00001000
00000001
00001000
00000000
00000000
00000000
00000000
,
00000000
00000000
00000000
00000000
00000000
00000000
00000100
00000010
00000100
00000000
00000000
00000000
00000000
00000000
00000000
00000000
,
00000002
00000000
00000000
00000000
00000000
00000000
00001003
00000000
00000100
00001000
00000100
00000000
00001000
00000000
00000100
00000000
,
00010000
00000000
00000000
00000000
00001000
00000000
00100000
00000000
00010000
01000000
00100000
00000000
20000000
00000000
00000000
00000000
,
30010000
01000000
00010000
01000000
00100000
10000000
00100000
10000000
,
00010000
01000000
00100000
10000000
00010000
01000000
00010000
00100000
,
00010000
00100000
00010000
00100000
00001000
00100000
00001000
00100000
,
00010000
00100000
00001000
00100000
00010000
00100000
00001000
00010000
,
00001000
00010000
00001000
00010000
00000100
00010000
00000100
00010000
,
00000100
00001000
00000010
00001000
00000100
00001000
00000010
00000100
,
00000001
00001001
00001001
00000010
,
00001000
00000000
00001000
00000000
00001000
00000000
00000001
00000000
00000001
00000000
00000001
00000000
,
00000100
00000000
00000001
00000010
,
00001000
00000000
00000100
00000000
00010000
00000000
00001000
00010000
,
00000100
00010000
00001000
00000000
00010000
00000000
00001000
00100000
,
00010000
00000000
20020000
00000000
,
00000000
00000000
30030000
00000000
,
00010000
00000000
01000000
00000000
10000000
00000000
00010000
00000000
00100000
00000000
10000000
00000000
,
00010000
00000000
00100000
00000000
01000000
00000000
10000000
00000000
00000000
00000000
00000000
00000000
,
00000000
00000000
00000000
00000000
,
00000000
00000000
00000000
00000000
,
00000000
00000000
00000000
00000000
,
20020000
00000000
00000000
00000000
,
00000000
00000000
00000000
30030000
,
10000000
00010000
01000000
00001000
,
00010000
00000000
00000100
00000000
00001000
00000000
00000010
00000100
,
00000001
00000100
00000010
00001000
,
00000100
00000000
00010000
00000000
00001000
00100000
00010000
00100000
,
00001000
00000000
00100000
00000000
00010000
00000000
01000000
00100000
,
10000000
00000000
00010000
00000000
10000000
01000000
00100000
00000000
,
20020000
00000000
00000000
00000000
,
00000000
00000000
00000000
30030000
,
00100000
00000000
10000000
00000000
00010000
00000000
00100000
00010000
,
00000000
00010000
00100000
00000000
00001000
00000000
00010000
00000100
,
00001000
00000000
00000010
00000000
00001000
00000000
00000001
00001000
,
00000100
00000000
00010000
00000000
00001000
00000000
00100000
00010000
,
01000000
00000000
00100000
10000000
01000000
00000000
00100000
00010000
,
00000000
10000000
01000000
00100000
00010000
00000000
01000000
00000000
,
00001000
00010000
00000010
00001000
,
00000001
00000100
00000001
00000100
00000010
00001000
00000010
00001000
,
00000001
00001000
00000001
00001000
00000000
00000010
00001000
00000000
,
00000100
00000000
00010000
00001000
00100000
00000000
00010000
01000000
,
00100000
00000000
10000000
00010000
00000000
00100000
00001000
00000000
,
00020000
00000000
00030100
00001000
00000200
00000000
00010300
00001000
,
00010000
00000000
00000100
00001000
00000000
00001000
00000010
00000000
,
00000100
00000001
00001000
00000001
00000100
00000000
00000010
00000000
,
00001000
00000000
00000100
00010000
00000000
00010000
00001000
00000000
,
00001000
00000000
00100000
00010000
00100000
00000000
00001000
00000000
,
00100000
00000000
00010000
00000000
01000000
00000000
00100000
10000000
,
01000000
00000000
20020000
00000000
,
30030000
00000000
01000000
00000000
00010000
10000000
00010000
00000000
,
10010000
01100000
00000000
00000000
;

//---------------dance-double - ----------------
#NOTES:
     dance-double:
     :
     Medium:
     11:
     0.422050,0.588350,0.184099,0.385731,0.008767,337.000000,316.000000,21.000000,44.000000,0.000000,0.000000,0.422050,0.588350,0.184099,0.385731,0.008767,337.000000,316.000000,21.000000,44.000000,0.000000,0.000000:
00000000
00000000
00000000
00000000
,
00000000
00000000
00000000
00000000
,
10000000
00000000
00010000
00000000
00000000
10000000
00010000
00000000
,
00100000
00000000
00001000
00000000
00000000
00010000
00000100
00000000
,
00001000
00000000
00000001
00000000
00000000
00000001
00001000
00000000
,
00000100
00000000
00010000
00000000
00000000
00001000
00100000
00000000
,
00010000
10000000
01000000
00000000
,
10000000
00010000
00100000
00001000
,
00010000
00001000
00100000
00000000
,
00001000
00010000
00000010
00000000
,
00001000
00000001
00000100
00000000
,
00000001
00001000
00000100
00001000
,
00000001
00000000
00001000
00000000
00000100
00000000
00001000
00000001
,
00000000
00000001
00001000
00000000
00000100
00000000
00010000
00000000
,
00001000
00100000
00010000
00000000
,
00100000
00010000
01000000
00100000
,
10000000
00100000
01000000
00000000
,
00010000
00100000
00001000
00100000
,
00010000
00100000
00001000
00000000
,
00010000
00000100
00001000
00000001
,
00001000
00000000
00000010
00000000
00001000
00000000
00000100
00010000
,
00000000
00010000
00000100
00000000
00010000
00000000
00001000
00000000
,
00020000
00000000
00000000
00001000
00000000
00000000
00002000
00000000
,
00000000
00000000
00033000
00000000
,
00002000
00000000
00000000
00100000
00000000
00000000
00200000
00000000
,
00000000
00000000
00303000
00000000
,
00020000
00000000
00000000
10000000
00000000
00000000
20000000
00000000
,
00000000
00000000
30030000
00000000
,
00200000
00000000
00000000
00001000
00000000
00000000
00002000
00000000
,
00000000
00303000
00000000
00000000
,
00010000
01000000
00100000
10000000
,
00100000
01000000
00010000
00100000
,
00001000
00100000
00000000
00000000
00001000
00010000
00001000
00010000
,
00000000
00000000
00000000
00000000
,
00022000
00000000
00000000
00000000
,
00000000
00000000
00000000
00033000
,
00010000
00000100
00001000
00000002
,
00000003
00002000
00003000
00000001
,
00000100
00000010
00001000
00000200
,
00000300
00010000
00001000
00010000
,
00011000
00000000
00110000
00000000
,
01100000
00000000
10010000
00000000
,
02200000
00000000
00000000
00000000
,
00000000
00000000
00000000
03300000
,
10000000
00010000
00100000
00002000
,
00003000
00020000
00030000
00000100
,
00001000
00000001
00001000
00000000
00000010
00000000
00001000
00000000
,
00000100
00010000
00001000
00100000
,
00010000
01000000
10000000
01000000
,
00010000
00100000
00001000
00010000
,
00022000
00033000
00002020
00003030
,
00000202
00000303
00002020
00003030
,
00022000
00000000
00033000
00000000
,
00000000
00000000
10010000
00000000
,
00000000
00000000
00000000
00100000
10000000
00000000
00010000
00000000
,
00100000
00001000
00010000
00000100
00001000
00000001
00000100
00000000
,
00000010
00000000
00001000
00000100
,
00010000
00000100
00010000
00000100
00010000
00000100
00010000
00000000
,
00001000
00100000
00010000
01000000
,
00100000
10000000
00100000
10000000
00100000
10000000
00100000
00000000
,
01000000
00010000
01000000
00001000
,
00010000
00001000
00010000
00000010
,
00001000
00000001
00000001
00000000
,
00001000
00000000
00001000
00000000
00000000
00000000
00000001
00000000
00000001
00000000
00000000
00000000
,
00000100
00000000
00000010
00000000
00001000
00000000
00000100
00001000
,
00000100
00000000
00010000
00001000
00010000
00000000
00001000
00100000
,
00001000
00000000
00100000
00010000
00100000
00000000
00010000
01000000
,
00010000
00000000
20020000
00000000
,
30030000
00000000
00000000
00000000
,
20000000
00000000
30020000
00000000
,
20030000
00000000
30010000
00000000
,
00000000
00000000
00000000
00000000
,
00000000
00000000
00000000
00000000
,
00000000
00000000
00000000
00000000
,
00022000
00000000
00000000
00000000
,
00000000
00000000
00000000
00033000
,
00010000
00001000
00010000
00001000
,
00100000
00010000
01000000
10000000
,
01000000
00010000
00100000
00001000
,
00000000
00010000
00000100
00001000
,
00000002
00000003
00002000
00003000
,
00000200
00000300
00020000
00030000
,
00022000
00000000
00000000
00000000
,
00000000
00000000
00000000
00033000
,
00001000
00010000
00001000
00010000
,
00000000
00000010
00001000
00000100
,
00001000
00000000
00000001
00000000
00001000
00000000
00000100
00001000
,
00000100
00000000
00001000
00000000
00000100
00000000
00010000
00001000
,
00010000
00000000
00001000
00010000
00001000
00000000
00010000
00000000
,
00001000
00000000
00100000
00000000
00010000
01000000
00100000
00000000
,
10000000
00010000
10000000
00000000
00010000
10000000
00010000
00000000
,
10000000
00100000
01000000
00010000
,
00100000
00000000
00000000
00101000
00000000
00000000
00001000
00000000
,
00011000
00000000
00010100
00000000
,
00010000
00000000
00001000
00010000
00000000
00010000
00001000
00000000
,
00200000
00000000
00000000
00310000
00100000
00000000
00010000
00000000
,
01000000
00000000
00100000
10000000
00000000
10000000
00100000
00000000
,
01000000
00010000
00100000
00100000
,
00001000
00000000
00010000
00001000
00000000
00001000
00010000
00000000
,
00000020
00000000
00000030
00000010
00001000
00000000
00000001
00000000
,
00000100
00000010
00001000
00000100
,
00010000
00000000
00022000
00000000
,
00000000
00000000
00000000
00033000
,
00011000
00011000
00000000
00000000
;

//---------------dance-single - ----------------
#NOTES:
     dance-single:
     :
     Medium:
     11:
     0.429565,0.588350,0.201632,0.447098,0.008767,343.000000,320.000000,23.000000,51.000000,0.000000,0.000000,0.429565,0.588350,0.201632,0.447098,0.008767,343.000000,320.000000,23.000000,51.000000,0.000000,0.000000:
0000
0000
0000
0000
,
0000
0000
0000
0000
,
1000
0000
0001
0000
0000
1000
0001
0000
,
0010
0000
0001
0000
0000
0001
1000
0000
,
0010
0000
1000
0000
0000
0001
0010
0000
,
0100
0000
1000
0000
0001
1000
0001
0000
,
1000
0001
0100
0000
,
1000
0001
0010
0001
,
1000
0010
0100
0000
,
0001
0010
0100
1000
,
0001
1000
0001
0000
,
1000
0010
0100
0000
,
0001
0000
1000
0000
0010
0000
1000
0001
,
0000
0001
1000
0000
0010
0000
0100
0000
,
0001
0010
0001
0000
,
1000
0100
0010
0100
,
1000
0100
0010
0000
,
0001
0010
0100
0010
,
0001
0010
0100
0000
,
0001
1000
0100
1000
,
0001
0000
1000
0000
0010
0000
0100
0001
,
0000
0001
0100
0000
0001
0000
0000
0000
,
1002
0000
0000
1000
0000
0000
2000
0000
,
0000
0000
3003
0000
,
2000
0000
0000
0010
0000
0000
0020
0000
,
0000
0000
3030
0000
,
0002
0000
0000
1000
0000
0000
2000
0000
,
0000
0000
3003
0000
,
0020
0000
0000
0100
0000
0000
0200
0000
,
0000
0330
0000
0000
,
0001
0100
0010
1000
,
0010
0100
0001
1000
,
0001
1000
0000
0000
0001
1000
0001
1000
,
0000
0000
0000
0000
,
2002
0000
0000
0000
,
0000
0000
0000
3003
,
0001
0100
0010
2000
,
3000
0002
0003
1000
,
0100
0010
0001
0200
,
0300
0001
1000
0001
,
1001
0000
0110
0000
,
1001
0000
0000
0000
1000
0001
1000
0000
,
2002
0000
0000
0000
,
0000
0000
0000
3003
,
1000
0001
0010
0002
,
0003
2000
3000
0010
,
0100
0001
0100
0000
0010
0000
1000
0001
,
1000
0001
1000
0100
,
0010
0001
0010
0100
,
1000
0001
1000
0001
,
2002
3003
2020
3030
,
0202
0303
0220
0330
,
2002
0000
3003
0000
,
0000
0000
1001
0000
,
0000
0000
0000
0010
1000
0000
0001
0000
,
0010
0001
0010
0001
1000
0000
1001
0000
,
0010
0000
0100
0000
,
0001
1000
0001
1000
0001
1000
0001
0000
,
0001
0010
0100
1000
,
0001
1000
0001
1000
0001
1000
0001
0000
,
1000
0010
0100
0001
,
0100
0000
0000
0000
0001
0000
0100
0010
,
0100
0010
0100
0000
0100
0000
0001
0000
,
0010
0000
0010
0000
0000
0000
1000
0000
1000
0000
0000
0000
,
0100
0000
0000
0000
0001
1000
0001
0000
,
1000
0010
1000
0000
0001
0000
0010
0001
,
0010
0000
0001
1000
0001
0000
0001
0100
,
0001
0000
2002
0000
,
3003
0000
0000
0000
,
2000
0000
3002
0000
,
2003
0000
3001
0000
,
0000
0000
0000
0000
,
0000
0000
0000
0000
,
0000
0000
0000
0000
,
2002
0000
0000
0000
,
0000
0000
0000
3003
,
0100
0001
1000
0001
,
0010
0001
0100
1000
,
0100
0001
1000
0001
,
0010
0001
1000
0010
,
0200
0300
2002
3003
,
0220
0330
2002
3003
,
2002
0000
0000
0000
,
0000
0000
0000
3003
,
0010
0001
0010
0001
,
1000
0100
0010
0001
,
1000
0100
1000
0100
,
1000
0010
0100
0001
,
1000
0000
0001
1000
0001
0000
1000
0001
,
0000
0001
1000
0000
0010
0000
0100
0000
,
0002
1003
2000
3001
,
2000
3010
0200
0301
,
0010
0000
0000
0110
0000
0000
1000
0000
,
0001
0000
1000
0001
1000
0000
0010
0000
,
0100
0000
0001
1000
0000
1000
0001
0000
,
0200
0000
0000
0301
0100
0000
0010
0000
,
0100
0000
0001
1000
0000
1000
0001
0000
,
1000
0001
0000
0001
1000
0000
0010
0000
,
0100
0000
0001
0100
0000
0100
0001
0000
,
2000
0000
3000
1000
0001
0000
0100
0000
,
0010
1000
0001
0010
,
0001
0000
2002
0000
,
0000
0000
0000
3003
,
1001
1001
0000
0000
;

//---------------dance-double - ----------------
#NOTES:
     dance-double:
     :
     Easy:
     8:
     0.285541,0.362062,0.210399,0.271765,0.000000,228.000000,204.000000,24.000000,31.000000,0.000000,0.000000,0.285541,0.362062,0.210399,0.271765,0.000000,228.000000,204.000000,24.000000,31.000000,0.000000,0.000000:
00000000
00000000
00000000
00000000
,
00000000
00000000
00000000
00000000
,
00100000
00010000
00000000
00010000
,
00100000
10000000
00000000
10000000
,
00100000
00001000
00000000
00010000
,
00000010
00010000
00000000
00001000
,
00000000
00010000
00001000
00000000
,
00100000
00000000
00010000
00000000
,
01000000
00000000
00100000
00000000
,
10000000
00000000
00100000
00000000
,
01000000
00000000
00001000
00000000
,
00010000
00000000
00001000
00000000
,
00010000
00010000
00010000
00000000
,
00001000
00000000
00011000
00000000
,
00010000
00000000
00000100
00000000
,
00001000
00000000
00000001
00000000
,
00001000
00000000
00000100
00000000
,
00010000
00000000
00001000
00000000
,
01000000
00000000
00010000
00000000
,
10000000
00000000
00010000
00000000
,
00100000
00010000
00100000
00000000
,
00010000
00000000
01000000
00000000
,
20020000
00000000
00000000
00000000
,
00000000
00000000
30030000
00000000
,
00022000
00000000
00000000
00000000
,
00033000
00000000
00011000
00000000
,
00002002
00000000
00000000
00000000
,
00000000
00000000
00003003
00000000
,
00000022
00000000
00000000
00000000
,
00000000
00000000
00000033
00000000
,
00001000
00000000
00000100
00000000
,
00010000
00000000
00001000
00000000
,
00011000
00000000
00011000
00000000
,
00000000
00000000
00000000
00000000
,
00022000
00000000
00000000
00000000
,
00000000
00000000
00033000
00000000
,
00001000
00100000
00001000
00100000
,
00000000
00010000
00000000
10000000
,
00010000
01000000
00100000
01000000
,
00000000
00000000
00010000
00100000
,
00001000
00000000
00020000
00030000
,
00001000
00000000
00010000
00000000
,
00022000
00000000
00000000
00000000
,
00000000
00000000
00033000
00000000
,
00010000
00001000
00010000
00000100
,
00000000
00001000
00000000
00000001
,
00001000
00000100
00001000
00000010
,
00000000
00001000
00000100
00010000
,
00001000
00000000
00010000
00000000
,
00001000
00000000
00010000
00010000
,
00010000
00000000
00001000
00000000
,
00100000
00000000
00010000
00000000
,
20020000
00000000
30030000
00000000
,
00000000
00000000
10010000
00000000
,
00000000
00000000
10000000
01000000
,
00010000
00000000
00001000
00000100
,
00001000
00000000
00000001
00000000
,
00001000
00000000
00000001
00000001
,
00001000
00000000
00000100
00000000
,
00010000
00000000
00001000
00001000
,
00100000
00000000
00010000
00000000
,
01000000
00000000
10000000
00000000
,
00100000
00100000
00100000
00000000
,
10010000
00000000
01100000
00000000
,
00100000
00000000
10000000
00000000
,
01000000
00000000
00020000
00030000
,
00200000
00300000
00001000
00010000
,
00001000
00000000
00022000
00000000
,
00000000
00000000
00033000
00000000
,
00001000
00000000
00010000
00000000
,
01000000
00000000
10010000
00000000
,
00000000
00000000
00000000
00000000
,
00000000
00000000
00000000
00000000
,
00000000
00000000
00000000
00000000
,
20020000
00000000
00000000
00000000
,
00000000
00000000
30030000
00000000
,
01000000
00100000
01000000
00100000
,
00000000
10000000
00000000
00010000
,
01000000
00010000
01000000
00001000
,
00000000
00010000
00000100
00010000
,
00000100
00000000
00001000
00000000
,
00000100
00000000
00010000
00000000
,
00022000
00000000
00000000
00000000
,
00000000
00000000
00033000
00000000
,
00001000
00010000
00001000
00100000
,
00000000
00100000
00000000
00001000
,
00100000
00010000
00100000
00010000
,
00000000
01000000
00010000
10000000
,
00100000
00000000
01010000
00000000
,
10100000
00000000
01000000
00010000
,
00200000
00300000
00002000
00003000
,
00020000
00030000
00000020
00000030
,
00002002
00000000
00003003
00000000
,
00011000
00000000
00011000
00000000
,
00010000
00001000
01000000
00000000
,
01000000
00000000
01000000
00000000
,
00100000
00010000
10000000
00000000
,
10000000
00000000
10000000
00000000
,
00010000
00100000
00001000
00000000
,
00001000
00010000
00000010
00000000
,
00000010
00001000
00000001
00001000
,
00000010
00000000
00002002
00000000
,
00000000
00000000
00003003
00000000
,
00010000
00001000
00000000
00000000
;

//---------------dance-single - ----------------
#NOTES:
     dance-single:
     :
     Easy:
     7:
     0.289299,0.407319,0.236699,0.219166,0.000000,231.000000,204.000000,27.000000,25.000000,0.000000,0.000000,0.289299,0.407319,0.236699,0.219166,0.000000,231.000000,204.000000,27.000000,25.000000,0.000000,0.000000:
// measure 0
0000
0000
0000
0000
,  // measure 1
0000
0000
0000
0000
,  // measure 2
0000
0001
0000
1000
,  // measure 3
0000
0001
0000
1000
,  // measure 4
0000
0010
0000
0100
,  // measure 5
0000
0010
0000
0010
,  // measure 6
0000
0000
0001
0000
,  // measure 7
1000
0000
0001
0001
,  // measure 8
0001
0000
1000
0000
,  // measure 9
0001
0000
1000
1000
,  // measure 10
1000
0000
0010
0000
,  // measure 11
0100
0000
0010
0000
,  // measure 12
1000
1000
1000
0000
,  // measure 13
0001
0001
0001
0000
,  // measure 14
1000
0000
0100
0000
,  // measure 15
0001
0000
1001
0000
,  // measure 16
0001
0000
0100
0000
,  // measure 17
1000
0000
1001
0000
,  // measure 18
1000
0010
1000
0000
,  // measure 19
0001
0100
0001
0000
,  // measure 20
1000
0100
0010
0001
,  // measure 21
0100
0000
1001
0000
,  // measure 22
0220
0000
0000
0000
,  // measure 23
0000
0000
0330
0000
,  // measure 24
0002
0000
0000
0000
,  // measure 25
0000
0000
1003
0000
,  // measure 26
2002
0000
0000
0000
,  // measure 27
0000
0000
3003
0000
,  // measure 28
0220
0000
0000
0000
,  // measure 29
0000
0000
0330
0000
,  // measure 30
1000
0100
0010
0000
,  // measure 31
0001
0100
0010
0000
,  // measure 32
1001
0000
0110
0000
,  // measure 33
1000
0000
0001
0000
,  // measure 34
2002
0000
0000
0000
,  // measure 35
0000
0000
0000
3003
,  // measure 36
0001
0100
1000
0100
,  // measure 37
0000
0001
0000
0000
,  // measure 38
1000
0010
0001
0010
,  // measure 39
0000
0000
1000
0000
,  // measure 40
0001
0000
1000
0000
,  // measure 41
0001
0000
0100
0000
,  // measure 42
2002
0000
0000
0000
,  // measure 43
0000
0000
0000
3003
,  // measure 44
0001
0100
0010
0100
,  // measure 45
0001
1000
0001
0000
,  // measure 46
1000
0010
0100
0000
,  // measure 47
0001
0100
0010
0000
,  // measure 48
1000
0000
0001
0000
,  // measure 49
0100
0000
0010
0000
,  // measure 50
1000
0000
0100
0000
,  // measure 51
0010
0000
0001
0000
,  // measure 52
2002
0000
3003
0000
,  // measure 53
0000
0000
1001
0000
,  // measure 54
0000
0000
0010
0000
,  // measure 55
0100
0000
1000
0000
,  // measure 56
0001
0000
0001
0000
,  // measure 57
0001
0000
0001
1000
,  // measure 58
0001
0000
0001
0000
,  // measure 59
0001
0000
0001
1000
,  // measure 60
1000
0000
0001
0000
,  // measure 61
1000
0000
0001
0000
,  // measure 62
0100
0010
0010
0000
,  // measure 63
1001
0000
1001
0000
,  // measure 64
0000
0000
0010
0000
,  // measure 65
0001
0000
0100
0000
,  // measure 66
1000
0001
1000
0001
,  // measure 67
1000
0000
2002
0000
,  // measure 68
0000
0000
0000
0000
,  // measure 69
0000
0000
0000
0000
,  // measure 70
0000
0000
3003
0000
,  // measure 71
0000
0000
0000
0000
,  // measure 72
0000
0000
0000
0000
,  // measure 73
0000
0000
0000
0000
,  // measure 74
2002
0000
0000
0000
,  // measure 75
0000
0000
0000
3003
,  // measure 76
0000
0001
1000
0001
,  // measure 77
0000
1000
0001
1000
,  // measure 78
0001
0000
0100
0010
,  // measure 79
0000
1000
0100
0010
,  // measure 80
0001
0000
1100
0000
,  // measure 81
0011
0000
0110
0000
,  // measure 82
2002
0000
0000
0000
,  // measure 83
0000
0000
0000
3003
,  // measure 84
0010
1000
0010
1000
,  // measure 85
0001
0100
0001
0100
,  // measure 86
0010
1000
0100
0000
,  // measure 87
0010
0001
0100
0000
,  // measure 88
1010
0000
0101
0000
,  // measure 89
1000
0100
0001
0000
,  // measure 90
0010
0010
0010
0010
,  // measure 91
0100
0100
0100
0000
,  // measure 92
2002
3003
0000
0010
,  // measure 93
0200
0000
0302
0000
,  // measure 94
1003
0010
1000
0010
,  // measure 95
0100
0000
0001
0000
,  // measure 96
0100
0001
0100
0001
,  // measure 97
1000
0000
0010
0000
,  // measure 98
0100
0100
0100
0000
,  // measure 99
0010
0010
0010
0000
,  // measure 100
1000
0000
0001
0000
,  // measure 101
0110
0000
2002
0000
,  // measure 102
0000
0000
0000
3003
,  // measure 103
1001
1001
0000
0000
;

//---------------dance-single - ----------------
#NOTES:
     dance-single:
     :
     Beginner:
     5:
     0.159052,0.225741,0.043833,0.105199,0.000000,127.000000,122.000000,5.000000,12.000000,0.000000,0.000000,0.159052,0.225741,0.043833,0.105199,0.000000,127.000000,122.000000,5.000000,12.000000,0.000000,0.000000:
// measure 0
0000
0000
0000
0000
,  // measure 1
0000
0000
0000
0000
,  // measure 2
0000
0001
0000
0001
,  // measure 3
0000
1000
0000
1000
,  // measure 4
0000
0010
0000
0010
,  // measure 5
0000
0100
0000
0100
,  // measure 6
0000
0000
0001
0000
,  // measure 7
0001
0000
0001
0000
,  // measure 8
0000
0000
1000
0000
,  // measure 9
1000
0000
1000
0000
,  // measure 10
0000
0000
0010
0000
,  // measure 11
0000
0000
0010
0000
,  // measure 12
0000
0000
0100
0000
,  // measure 13
0100
0000
0100
0000
,  // measure 14
0000
0000
0001
0000
,  // measure 15
0001
0000
0001
0000
,  // measure 16
0000
0000
1000
0000
,  // measure 17
1000
0000
1000
0000
,  // measure 18
0000
0000
0010
0000
,  // measure 19
0000
0000
0010
0000
,  // measure 20
0000
0000
0100
0000
,  // measure 21
0100
0000
0100
0000
,  // measure 22
0200
0000
0000
0000
,  // measure 23
0300
0000
0000
0000
,  // measure 24
0020
0000
0000
0000
,  // measure 25
0030
0000
0000
0000
,  // measure 26
2000
0000
0000
0000
,  // measure 27
3000
0000
0000
0000
,  // measure 28
0002
0000
0000
0000
,  // measure 29
0003
0000
0000
0000
,  // measure 30
0100
0000
0100
0000
,  // measure 31
0010
0000
0010
0000
,  // measure 32
0100
0000
0100
0000
,  // measure 33
0000
0000
0000
0000
,  // measure 34
2002
0000
0000
0000
,  // measure 35
0000
0000
0000
3003
,  // measure 36
0000
0000
1000
0000
,  // measure 37
0001
0000
1000
0000
,  // measure 38
0000
0000
0001
0000
,  // measure 39
1000
0000
0001
0000
,  // measure 40
0000
0000
0100
0000
,  // measure 41
0010
0000
0100
0000
,  // measure 42
0200
0000
0000
0000
,  // measure 43
0000
0000
0000
0300
,  // measure 44
0000
0000
1000
0000
,  // measure 45
0000
0000
1000
0000
,  // measure 46
0000
0000
0001
0000
,  // measure 47
1000
0000
0001
0000
,  // measure 48
0000
0000
1000
0000
,  // measure 49
0001
0000
1000
0000
,  // measure 50
1000
0000
0000
0000
,  // measure 51
0001
0000
0000
0000
,  // measure 52
1000
0000
0000
0000
,  // measure 53
0000
0000
1001
0000
,  // measure 54
0000
0000
0010
0000
,  // measure 55
0001
0000
0100
0000
,  // measure 56
0000
0000
0100
0000
,  // measure 57
0100
0000
0100
0000
,  // measure 58
0000
0000
0010
0000
,  // measure 59
0010
0000
0010
0000
,  // measure 60
0000
0000
1000
0000
,  // measure 61
0000
0000
0001
0000
,  // measure 62
0000
0000
1000
0000
,  // measure 63
1000
0000
1000
0000
,  // measure 64
0000
0000
0001
0000
,  // measure 65
0000
0000
1000
0000
,  // measure 66
0000
0000
0001
0000
,  // measure 67
0001
0000
0001
0000
,  // measure 68
0000
0000
0000
0000
,  // measure 69
1000
0000
1000
0000
,  // measure 70
1000
0000
1000
0000
,  // measure 71
0000
0000
0000
0000
,  // measure 72
0000
0000
0000
0000
,  // measure 73
0000
0000
0000
0000
,  // measure 74
2002
0000
0000
0000
,  // measure 75
0000
0000
0000
3003
,  // measure 76
0000
0000
0001
0000
,  // measure 77
1000
0000
0001
0000
,  // measure 78
0000
0000
1000
0000
,  // measure 79
0001
0000
1000
0000
,  // measure 80
0000
0000
0010
0000
,  // measure 81
0010
0000
0010
0000
,  // measure 82
0020
0000
0000
0000
,  // measure 83
0000
0000
0030
0000
,  // measure 84
0100
0000
0100
0000
,  // measure 85
0100
0000
0000
0000
,  // measure 86
0001
0000
0000
0000
,  // measure 87
1000
0000
0000
0000
,  // measure 88
0001
0000
0001
0000
,  // measure 89
0001
0000
0000
0000
,  // measure 90
1000
0000
1000
0000
,  // measure 91
1000
0000
0000
0000
,  // measure 92
2002
0000
3003
0000
,  // measure 93
0000
0000
0000
0000
,  // measure 94
0001
0000
0000
0000
,  // measure 95
1000
0000
0000
0000
,  // measure 96
0010
0000
0000
0000
,  // measure 97
0100
0000
0000
0000
,  // measure 98
0001
0000
0001
0000
,  // measure 99
1000
0000
1000
0000
,  // measure 100
0010
0000
0010
0000
,  // measure 101
0100
0000
0100
0000
,  // measure 102
0000
0000
0000
0000
,  // measure 103
1001
0000
0000
0000
;
