#TITLE:LOST TECHNOLOGIE;
#SUBTITLE:;
#ARTIST:かめりあ;
#TITLETRANSLIT:;
#SUBTITLETRANSLIT:;
#ARTISTTRANSLIT:Camellia;
#GENRE:;
#CREDIT:;
#BANNER:LOST TECHNOLOGIE.png;
#BACKGROUND:LOST TECHNOLOGIE-bg.png;
#LYRICSPATH:;
#CDTITLE:;
#MUSIC:LOST TECHNOLOGIE.ogg;
#OFFSET:1.011999;
#SAMPLESTART:70.829643;
#SAMPLELENGTH:12.229301;
#LASTBEATHINT:0.031397;
#SELECTABLE:YES;
#DISPLAYBPM:117.000000:157.000000;
#BPMS:0.000000=157.000000
,164.000000=117.000000
,165.000000=117.500000
,166.000000=118.000000
,167.000000=116.000000
,168.000000=117.000000
,171.000000=124.000000
,171.666672=130.000000
,172.333328=136.000000
,173.000000=142.000000
,174.000000=148.300003
,175.000000=152.600006
,176.000000=157.000000
,214.000000=30.000000
,214.500000=33.000000
,214.750000=45.000000
,215.000000=70.000000
,215.250000=90.000000
,216.000000=120.000000
,216.500000=157.000000
;
#STOPS:181.000000=1.146000,
224.250000=0.478000
;
#BGCHANGES:;
#KEYSOUNDS:;
#ATTACKS:;

//---------------dance-single - ----------------
#NOTES:
     dance-single:
     :
     Hard:
     16:
     0.766774,0.906815,0.226678,0.242870,0.959336,663.000000,635.000000,28.000000,30.000000,0.000000,0.000000,0.766774,0.906815,0.226678,0.242870,0.959336,663.000000,635.000000,28.000000,30.000000,0.000000,0.000000:
// measure 0
0000
0000
0000
0000
,  // measure 1
0000
0000
0000
0000
,  // measure 2
0000
0000
0000
0000
,  // measure 3
0000
0000
0000
0000
,  // measure 4
0000
0000
0000
0000
,  // measure 5
2000
0010
0000
0001
0000
0001
0000
3002
,  // measure 6
0000
0000
0100
0000
0000
0000
0100
0000
0000
0000
0103
0000
0000
0101
0000
0000
,  // measure 7
0001
0002
0000
1000
0000
1000
0000
1003
,  // measure 8
1001
0000
0011
0000
1100
0000
1001
0000
1010
0000
0101
0000
,  // measure 9
2002
0000
0000
0000
,  // measure 10
0000
0000
0000
3003
,  // measure 11
0010
0100
0010
0000
1000
0100
0000
1000
0000
0001
0000
0010
0001
0000
0100
0000
,  // measure 12
0010
1000
0010
0000
0100
0001
0100
0000
1000
0001
1000
0000
1001
0000
0000
0000
,  // measure 13
0010
0000
0100
0000
0001
0010
0100
0000
1000
0000
0001
0000
1000
0100
0010
0000
,  // measure 14
0001
0000
1000
0000
0010
0100
0001
0000
1000
0000
0001
0000
0100
0010
1000
0000
,  // measure 15
0001
0000
1000
0000
0010
1000
0001
0000
1000
0000
0010
0000
1000
0001
0100
0000
,  // measure 16
0010
0000
1000
0000
0100
1000
0010
0000
1000
0000
0001
0000
0010
0001
0010
0001
,  // measure 17
0010
0000
0001
0000
1000
0010
1000
0000
0001
0000
0100
0000
0010
1000
0010
0000
,  // measure 18
1000
0000
0100
0000
0010
0001
0010
0000
0001
0000
0100
0000
0010
1000
0010
0000
,  // measure 19
1000
0000
0001
0000
0100
0010
0100
0000
0001
0000
1000
0000
0001
0010
0001
0000
,  // measure 20
2000
0000
0000
3001
,  // measure 21
1000
0000
0010
0000
1000
0001
1000
0000
0010
0000
1000
0000
0001
0000
1000
0000
,  // measure 22
0010
0000
0100
0000
0001
0010
0001
0000
0100
0000
0001
0000
0010
0000
0001
0000
,  // measure 23
1000
0000
0010
0000
0100
0001
0100
0000
0010
0000
0100
0000
0001
0000
0100
0000
,  // measure 24
0020
0000
0000
0000
0032
0000
0000
0000
1003
0010
1000
0010
0000
0001
1000
0001
,  // measure 25
1000
0000
0100
0000
0010
0001
0010
0000
0001
0000
0010
0000
0100
0000
0010
0000
,  // measure 26
0001
0000
1000
0000
0001
0100
0001
0000
1000
0000
0010
0000
0001
0000
0010
0000
,  // measure 27
1000
0000
0000
0000
0002
0000
0000
0000
0103
0000
0010
0000
0100
0010
0100
0000
,  // measure 28
0002
0000
0100
0000
0000
0103
0000
0000
2002
0000
0000
3003
0001
1000
0001
1000
,  // measure 29
0000
0010
0200
0000
0000
0000
0000
0000
0302
0000
0000
0000
0000
0003
1000
0001
,  // measure 30
1000
0001
0000
0000
0200
0000
0010
0000
0310
0000
0020
0100
0000
0030
0000
0000
,  // measure 31
1000
0000
0001
0000
1000
0000
0001
0100
0001
0010
0001
0000
1000
0000
0001
0010
,  // measure 32
0001
0100
0001
0000
1000
0000
0010
0100
0010
1000
0010
0000
1000
0000
0001
0000
,  // measure 33
1000
0000
0000
1000
0001
0000
1000
0010
1000
0010
0100
0000
1000
0000
0001
0000
,  // measure 34
0000
0000
2000
0000
0000
0000
3020
0000
0130
0000
0000
0110
0000
0000
0000
0000
,  // measure 35
2002
0000
3003
0000
0010
0000
1000
0010
1000
0010
1000
0000
0001
0000
0100
0010
,  // measure 36
0100
0010
0100
0000
0001
0000
1000
0100
1000
0010
1000
0000
0001
0000
0100
0000
,  // measure 37
0010
0100
0010
0000
0000
0000
0100
0000
0010
0100
0010
0000
0000
0000
1000
0000
,  // measure 38
0001
1000
0001
0000
1000
0000
0001
0000
0100
0000
0000
0010
0100
0000
0000
0000
,  // measure 39
2002
0000
0000
0000
3003
0000
0000
0000
1000
0100
1000
0100
0000
0000
0000
0000
,  // measure 40
0022
0000
0000
0000
0033
0000
0000
0000
0100
0010
0100
0010
0000
0000
1000
0001
,  // measure 41
1000
0000
0000
0000
0100
0000
0000
0000
0010
0000
0000
0000
0000
0000
0000
0000
0001
0000
0000
0000
0010
0000
0000
0000
0100
0000
0000
0000
0000
0000
0000
1000
0000
0000
0000
0100
0000
0000
0000
0010
0000
0000
0000
0001
0000
0000
0000
1000
0000
0000
0000
0010
0000
0000
0000
0100
0000
0000
0000
0001
0000
0000
0000
1000
,  // measure 42
0000
0000
0000
0000
0000
0000
0000
0000
0000
0000
0000
0000
0000
0000
0000
0000
0000
0000
0000
0000
0000
0000
0000
0000
0000
0000
0000
0000
0000
0000
0000
0000
0000
0000
0000
0000
0000
0000
0000
0000
0000
0000
0000
0000
0000
0000
0000
0000
0000
0000
0000
0000
0000
0000
0001
0000
0000
0000
0000
0000
0000
0000
0000
0000
0000
0000
0000
0000
0000
0000
0000
0000
0000
0000
0000
0000
0000
0000
0000
0000
0000
0000
0000
0000
0000
0000
0000
0000
0000
0000
0000
0000
0000
0000
2002
0000
0000
0000
0000
0000
0000
0000
0000
0000
0000
0000
0000
0000
0000
0000
0000
0000
0000
0000
0000
0000
0000
0000
0000
0000
0000
0000
0000
0000
0000
0000
0000
0000
0000
0000
0000
0000
0000
0000
0000
0000
0000
0000
0000
0000
0000
0000
0000
0000
0000
0000
0000
0000
0000
0000
0000
0000
0000
0000
0000
0000
0000
0000
0000
0000
0000
0000
0000
0000
0000
0000
0000
0000
0000
0000
0000
0000
0000
0000
0000
0000
0000
0000
0000
0000
0000
0000
0000
0000
0000
0000
0000
0000
0000
0000
0000
0000
,  // measure 43
0000
0000
0000
0000
,  // measure 44
0000
0000
3003
0000
0000
0000
0001
1000
0001
1000
0001
1000
0000
0000
1000
0001
,  // measure 45
1000
0001
1000
0001
0000
0000
0000
0000
0010
0000
1000
0001
1000
0001
1000
0001
,  // measure 46
0000
0000
1000
0100
1000
0100
1000
0100
0000
0000
0010
0001
0010
0001
0010
0001
,  // measure 47
0000
0000
0100
0010
0100
0010
0100
0010
0000
0000
1000
0100
1000
0100
0010
0001
,  // measure 48
0000
0000
0010
0100
0010
0100
0001
1000
0000
0000
0001
0010
0001
0010
0100
1000
,  // measure 49
0000
0000
0100
0010
0100
0010
1000
0001
1000
0000
0010
1000
0010
0000
1000
0100
,  // measure 50
0010
0000
0100
0010
0100
0000
0001
0100
0010
0000
1000
0001
1000
0000
0100
0010
,  // measure 51
0001
0000
1000
0010
0100
0001
0100
0010
1000
0000
0001
1000
0001
1000
0010
0100
,  // measure 52
0001
0000
0000
0000
0000
0000
1000
0000
0000
0001
0000
0000
0100
0000
0000
0001
0000
0000
1000
0000
0000
0000
0000
0000
0001
0000
0000
0000
0000
0000
0000
0000
1010
0000
0000
0000
1000
0000
0000
0000
0010
0000
0000
0000
0100
0000
0000
0000
,  // measure 53
0110
0100
0001
0100
0010
1000
2002
0000
0000
0000
0000
0000
,  // measure 54
3003
0000
0000
0000
0000
0000
0001
1000
0000
0010
0100
0000
0010
0000
1000
0010
,  // measure 55
0000
0100
0001
0000
1000
0000
0001
0010
0000
0100
1000
0000
0010
0000
1000
0001
,  // measure 56
0000
0100
0000
0000
0010
1000
0000
0001
0000
0001
1000
0000
0010
1000
0000
0010
,  // measure 57
0000
1000
0010
0000
1000
0100
0000
0100
0000
1000
0100
0000
0010
0001
0000
0001
,  // measure 58
0000
0010
0001
0000
0100
0010
0000
0010
0000
0100
0010
0000
1000
0100
0000
0100
,  // measure 59
0000
0010
0001
0000
1000
0010
0000
0010
0000
0100
0001
0000
1000
0000
0001
0000
,  // measure 60
1000
0100
1000
0000
0010
0100
0000
0100
0000
0001
0010
0000
0001
0100
0000
0100
,  // measure 61
0000
0010
1000
0000
0001
0010
0000
0010
0000
0001
0100
0000
0010
1000
0010
1000
,  // measure 62
0000
0001
0100
0000
0010
1000
0000
0100
0000
0010
0001
0000
1000
0010
0000
0001
,  // measure 63
0000
0010
1000
0000
0001
0010
0100
1000
0100
0010
0001
0000
1001
0000
0000
0000
,  // measure 64
0001
1000
0001
0000
0001
0100
0001
0000
0001
0010
0100
0000
0010
0100
1000
0000
,  // measure 65
1000
0010
1000
0000
1000
0001
1000
0000
1000
0100
0010
0000
0100
0010
0001
0000
,  // measure 66
1000
0100
0010
0100
1000
0000
0001
0000
0100
0010
0100
0000
0001
1000
0010
0000
,  // measure 67
1000
0000
0000
0000
0001
0000
0000
0000
0100
0000
0000
0000
0001
1000
0001
0000
1000
0001
1000
0000
0001
0000
1000
0000
,  // measure 68
0010
0000
1010
0000
0010
1000
0100
1000
0010
0000
0101
0000
0100
0010
1000
0001
,  // measure 69
0000
0000
1100
0000
1000
0100
0010
0001
1000
0000
0001
0000
0010
0100
1000
0100
,  // measure 70
0010
0000
0000
0010
0001
0000
0000
0000
0100
0010
1000
0001
0100
0000
0000
0000
,  // measure 71
0010
0000
0000
1010
0000
0000
0101
0000
1000
0100
0010
0100
1000
0100
0001
0100
,  // measure 72
1000
0000
1000
0010
0100
0000
0100
0001
0010
0000
0010
0001
1000
0000
1000
0100
,  // measure 73
0010
0000
0010
0001
0100
0000
0010
0100
1000
0000
0010
0100
0001
1000
0001
1000
,  // measure 74
0001
0000
1000
0001
0000
0000
0000
0000
1000
0000
0001
1000
0000
0000
0000
0001
,  // measure 75
1000
0000
0101
0001
0001
0000
0110
0000
1100
1000
1000
0000
,  // measure 76
2002
0000
0000
0000
,  // measure 77
0000
3003
0000
0000
;

//---------------dance-single - ----------------
#NOTES:
     dance-single:
     :
     Medium:
     11:
     0.525061,0.656659,0.437166,0.186200,0.157865,454.000000,400.000000,54.000000,23.000000,0.000000,0.000000,0.525061,0.656659,0.437166,0.186200,0.157865,454.000000,400.000000,54.000000,23.000000,0.000000,0.000000:
// measure 0
0000
0000
0000
0000
,  // measure 1
0000
0000
0000
0000
,  // measure 2
0000
0000
0000
0000
,  // measure 3
0000
0000
0000
0000
,  // measure 4
0000
0000
0000
0000
,  // measure 5
0020
0000
0000
0000
,  // measure 6
0230
0000
0000
0000
0000
0000
0000
0000
0000
0000
0301
0000
0000
0001
0000
0000
,  // measure 7
1001
1001
0000
0000
0110
0110
0000
0000
,  // measure 8
1000
0000
0100
0000
0010
0000
0001
0000
0100
0000
0010
0000
,  // measure 9
2002
0000
0000
0000
,  // measure 10
0000
0000
0000
3003
,  // measure 11
0020
0000
0200
0330
,  // measure 12
0002
0203
0320
1030
,  // measure 13
0001
1000
0001
1000
0010
0100
0010
0100
,  // measure 14
0001
1000
0001
1000
0010
0100
0001
1000
,  // measure 15
0010
1000
0010
1000
0001
0100
0001
0100
,  // measure 16
0010
1000
0001
0100
0010
0010
0010
0000
,  // measure 17
1000
0100
1000
0100
0010
0001
0010
0001
,  // measure 18
0100
0001
0100
0001
0100
0010
0100
0010
,  // measure 19
1000
0100
0010
0001
0100
1000
0100
0001
,  // measure 20
2000
0000
0000
3001
,  // measure 21
1000
0100
0010
0100
1000
0100
0010
0100
,  // measure 22
0010
0001
0010
0100
0010
0001
0010
0100
,  // measure 23
0000
0010
0100
1000
0100
0010
0001
0100
,  // measure 24
0020
0230
0302
1003
,  // measure 25
0110
0110
0110
0000
0001
0100
1000
0000
,  // measure 26
0010
0100
0010
0100
1000
0100
0001
0000
,  // measure 27
1010
1010
1010
0000
0101
0101
0101
0000
,  // measure 28
0001
0000
0100
0000
0000
0110
0000
0000
2002
0000
0000
0000
3003
0000
0000
0000
,  // measure 29
0220
0000
0000
0000
,  // measure 30
0330
0000
0000
0000
0000
0000
0100
0000
0001
0000
0000
1001
0000
0000
0000
0000
,  // measure 31
1001
0000
1000
0100
0010
0100
0000
0001
,  // measure 32
0100
0010
0000
1000
0001
0100
0000
0001
,  // measure 33
1001
1000
0000
0010
1001
1000
0000
0001
,  // measure 34
1001
0000
0100
0000
0000
0000
0001
0000
1001
0000
0000
0110
0000
0000
0000
0000
,  // measure 35
0010
1000
0100
0010
0001
0010
0100
1000
,  // measure 36
0001
1000
0010
0001
0010
1000
0100
0010
,  // measure 37
0001
1000
0100
0001
0100
1000
0010
0100
,  // measure 38
0001
0000
1000
0000
0001
0000
1000
0001
1000
0000
0000
1001
0000
0000
0000
0000
,  // measure 39
0010
0100
0001
0100
0000
0100
0001
0100
,  // measure 40
0010
1000
0100
1000
0000
1000
0100
0000
,  // measure 41
1010
0000
0000
0000
0000
0000
0000
0000
0000
0000
0000
0000
0000
0000
0000
0000
0000
0000
0000
0000
0000
0000
0000
0000
0000
0000
0000
0000
0000
0000
0000
0000
0000
0000
0000
0000
0000
0000
0000
0000
0000
0000
0000
0000
0000
0101
0000
0000
0000
0000
0000
0000
0000
0000
0000
0000
0000
0000
0000
0000
0000
0000
0000
0000
0000
0000
0000
0000
0000
0000
0000
0000
0000
0000
0000
0000
0000
0000
0000
0000
0000
0000
0000
0000
0000
0000
0000
0000
0000
0000
0000
0000
0000
0000
0000
1001
0000
0000
0000
0000
0000
0000
0000
0000
0000
0000
0000
0000
0000
0000
0000
0000
0000
0000
0000
0000
0000
0000
0000
0000
0000
0000
0000
0000
0000
0000
0000
0000
0000
0000
0000
0000
0000
0000
0000
0000
0000
0000
0000
0000
0000
0110
0000
0000
0000
0000
0000
0000
0000
0000
0000
0000
0000
0000
0000
0000
0000
0000
0000
0000
0000
0000
0000
0000
0000
0000
0000
0000
0000
0000
0000
0000
0000
0000
0000
0000
0000
0000
0000
0000
0000
0000
0000
0000
0000
0000
0000
0000
0000
1001
0000
0000
,  // measure 42
0000
0000
0000
0000
0000
0000
0000
0000
0000
0000
0000
0000
0000
0000
0000
0000
0000
0000
0000
0000
0000
0000
0000
0000
0000
0000
0000
0000
0000
0000
0000
0000
0000
0000
0000
0000
0000
0000
0000
0000
0000
0000
0000
0000
0000
0000
0000
0000
0000
0000
0000
0000
0000
0000
0000
0000
0000
0000
0000
0000
0000
0000
0000
0000
0000
0000
0000
0000
0000
0000
0000
0000
0000
0000
0000
0000
0000
0000
0000
0000
0000
0000
0000
0000
0000
0000
0000
0000
0000
0000
0000
0000
0000
0000
2002
0000
0000
0000
0000
0000
0000
0000
0000
0000
0000
0000
0000
0000
0000
0000
0000
0000
0000
0000
0000
0000
0000
0000
0000
0000
0000
0000
0000
0000
0000
0000
0000
0000
0000
0000
0000
0000
0000
0000
0000
0000
0000
0000
0000
0000
0000
0000
0000
0000
0000
0000
0000
0000
0000
0000
0000
0000
0000
0000
0000
0000
0000
0000
0000
0000
0000
0000
0000
0000
0000
0000
0000
0000
0000
0000
0000
0000
0000
0000
0000
0000
0000
0000
0000
0000
0000
0000
0000
0000
0000
0000
0000
0000
0000
0000
0000
0000
,  // measure 43
0000
0000
0000
0000
,  // measure 44
3003
0000
0000
1000
0001
1000
0000
0001
,  // measure 45
1000
0001
0000
0000
0000
0010
0100
0010
,  // measure 46
0000
1000
0100
0010
0000
0100
0010
0100
,  // measure 47
0000
0001
0100
0010
0000
1000
0100
1000
,  // measure 48
0000
0001
0100
0010
0000
1000
0001
1000
,  // measure 49
0000
0010
0100
0001
1000
0001
1000
0001
,  // measure 50
1000
0100
0010
0001
0100
0010
0100
0010
,  // measure 51
0001
0010
0100
1000
0001
0010
0001
0010
,  // measure 52
1000
0000
0000
0100
0000
0000
0010
0000
0000
0001
0000
0000
1000
0000
0000
0000
0101
0000
0000
0000
1001
0000
0000
0000
,  // measure 53
0011
0000
1100
0000
0110
0000
2002
0000
0000
0000
0000
0000
,  // measure 54
3003
0000
0000
0000
0000
0000
0001
0000
0000
0001
0000
0000
0000
0000
1000
0000
,  // measure 55
0000
1000
0000
0000
0000
0000
0010
0000
0000
0010
0000
0000
0000
0000
0100
0000
,  // measure 56
0000
0100
0000
0000
0001
0000
0000
0000
1000
0000
0100
0000
0010
0000
0000
0000
,  // measure 57
0100
0010
0001
0000
1000
0001
0100
0001
,  // measure 58
1000
0010
0100
0000
0001
0010
0100
0000
,  // measure 59
0010
0100
1000
0000
0001
0001
1001
0000
,  // measure 60
1000
0010
1000
0000
1000
0000
0000
0000
0001
0000
0100
0000
0010
0000
0000
0000
,  // measure 61
0001
0100
0001
0000
0001
0000
0000
0000
0100
0000
0010
0000
1000
0000
0000
0000
,  // measure 62
0001
0010
0001
0000
0001
0000
0000
0000
1000
0000
0100
0000
0010
0000
0000
0000
,  // measure 63
1000
0001
0100
0010
0100
0001
1001
0000
,  // measure 64
1000
0001
1000
0100
0010
0001
0010
0100
,  // measure 65
1000
0010
0001
0010
1000
0100
0001
0100
,  // measure 66
1000
0010
0100
0001
0100
1000
0100
0001
,  // measure 67
1000
0010
0001
1001
,  // measure 68
0010
0000
1000
0100
0001
0100
1000
0000
,  // measure 69
1001
0000
0001
0010
1000
0010
0001
0000
,  // measure 70
1000
0100
0000
0000
0010
0001
0000
0000
,  // measure 71
0110
0000
0000
0110
0000
0000
0110
0000
1001
0000
0000
0000
0000
0000
0000
0000
,  // measure 72
1000
0000
0000
1000
0010
0000
0000
0010
0001
0000
0000
0001
0010
0000
0000
0010
,  // measure 73
1000
0000
0000
1000
0100
0000
0000
0100
0001
0000
0000
0001
0100
0000
0000
0100
,  // measure 74
1000
1001
0000
0000
0001
1001
0000
0000
,  // measure 75
0011
0000
1100
0000
0011
0000
1010
0000
0101
0000
1010
0000
,  // measure 76
2002
0000
0000
0000
,  // measure 77
0000
3003
0000
0000
;

//---------------dance-single - ----------------
#NOTES:
     dance-single:
     :
     Easy:
     8:
     0.355052,0.500312,0.461453,0.250965,0.085004,307.000000,250.000000,57.000000,31.000000,0.000000,0.000000,0.355052,0.500312,0.461453,0.250965,0.085004,307.000000,250.000000,57.000000,31.000000,0.000000,0.000000:
// measure 0
0000
0000
0000
0000
,  // measure 1
0000
0000
0000
0000
,  // measure 2
0000
0000
0000
0000
,  // measure 3
0000
0000
0000
0000
,  // measure 4
0000
0000
0000
0000
,  // measure 5
2000
0000
0000
0000
,  // measure 6
0002
0000
3003
0000
,  // measure 7
0110
0000
1001
0000
,  // measure 8
0001
0000
0001
0000
0001
0000
1000
0000
1000
0000
1000
0000
,  // measure 9
2002
0000
0000
0000
,  // measure 10
0000
0000
0000
3003
,  // measure 11
0200
0000
0020
0330
,  // measure 12
1000
0100
0010
0001
,  // measure 13
1000
0101
1000
0010
,  // measure 14
0001
1010
0001
0100
,  // measure 15
0010
1001
0100
0010
,  // measure 16
0100
0000
1001
0000
0010
0010
0010
0000
,  // measure 17
1000
0000
0101
0000
1000
0001
1000
0000
,  // measure 18
0001
0000
1100
0000
0001
1000
0001
0000
,  // measure 19
1000
0010
1000
0000
0001
0000
1010
0000
,  // measure 20
0001
0010
0001
0000
1000
0000
0101
0000
,  // measure 21
2000
0010
0100
3001
,  // measure 22
0002
0010
0100
1003
,  // measure 23
0020
0100
1030
1010
,  // measure 24
0200
0010
0301
0101
,  // measure 25
1000
0001
0001
0000
1000
0000
1001
0000
,  // measure 26
0001
1000
1000
0000
0001
0000
1001
0000
,  // measure 27
0010
0100
0000
0000
0100
0010
0000
0000
,  // measure 28
1000
0000
1000
0000
0000
1000
0000
0000
2002
0000
0000
0000
0000
0000
0000
0000
,  // measure 29
3003
0000
0000
0000
,  // measure 30
0000
0000
0000
0000
0000
0000
0000
0000
0010
0000
0000
0010
0000
0000
0000
0000
,  // measure 31
1000
0000
0000
0000
0100
0010
0000
0000
,  // measure 32
0100
0010
0000
0000
0100
0010
0000
0000
,  // measure 33
1000
0001
1000
0000
0001
1000
0000
0000
,  // measure 34
0001
0000
1000
0000
0000
0000
0001
0000
1000
0000
0000
1001
0000
0000
0000
0000
,  // measure 35
1000
0100
0000
1000
0100
1000
0000
0000
,  // measure 36
0010
0100
0000
0000
0001
0010
0000
0000
,  // measure 37
1000
0100
0010
0001
,  // measure 38
1000
0000
0001
0000
1000
0000
0000
0000
0001
0000
0000
1001
0000
0000
0000
0000
,  // measure 39
2200
0000
3300
0000
,  // measure 40
0022
0000
0033
0000
,  // measure 41
0110
0000
0000
0000
0000
0000
0000
0000
0000
0000
0000
0000
0000
0000
0000
0000
0000
0000
0000
0000
0000
0000
0000
0000
0000
0000
0000
0000
0000
0000
0000
0000
0000
0000
0000
0000
0000
0000
0000
0000
0000
0000
0000
0000
0000
0000
0110
0000
0000
0000
0000
0000
0000
0000
0000
0000
0000
0000
0000
0000
0000
0000
0000
0000
0000
0000
0000
0000
0000
0000
0000
0000
0000
0000
0000
0000
0000
0000
0000
0000
0000
0000
0000
0000
0000
0000
0000
0000
0000
0000
0000
0000
0000
0110
0000
0000
0000
0000
0000
0000
0000
0000
0000
0000
0000
0000
0000
0000
0000
0000
0000
0000
0000
0000
0000
0000
0000
0000
0000
0000
0000
0000
0000
0000
0000
0000
0000
0000
0000
0000
0000
0000
0000
0000
0000
0000
0000
0000
0000
0000
0000
0110
0000
0000
0000
0000
0000
0000
0000
0000
0000
0000
0000
0000
0000
0000
0000
0000
0000
0000
0000
0000
0000
0000
0000
0000
0000
0000
0000
0000
0000
0000
0000
0000
0000
0000
0000
0000
0000
0000
0000
0000
0000
0000
0000
0000
0000
0000
0000
0110
0000
0000
,  // measure 42
0000
0000
0000
0000
0000
0000
0000
0000
0000
0000
0000
0000
0000
0000
0000
0000
0000
0000
0000
0000
0000
0000
0000
0000
0000
0000
0000
0000
0000
0000
0000
0000
0000
0000
0000
0000
0000
0000
0000
0000
0000
0000
0000
0000
0000
0000
0000
0000
0000
0000
0000
0000
0000
0000
0000
0000
0000
0000
0000
0000
0000
0000
0000
0000
0000
0000
0000
0000
0000
0000
0000
0000
0000
0000
0000
0000
0000
0000
0000
0000
0000
0000
0000
0000
0000
0000
0000
0000
0000
0000
0000
0000
0000
0000
2002
0000
0000
0000
0000
0000
0000
0000
0000
0000
0000
0000
0000
0000
0000
0000
0000
0000
0000
0000
0000
0000
0000
0000
0000
0000
0000
0000
0000
0000
0000
0000
0000
0000
0000
0000
0000
0000
0000
0000
0000
0000
0000
0000
0000
0000
0000
0000
0000
0000
0000
0000
0000
0000
0000
0000
0000
0000
0000
0000
0000
0000
0000
0000
0000
0000
0000
0000
0000
0000
0000
0000
0000
0000
0000
0000
0000
0000
0000
0000
0000
0000
0000
0000
0000
0000
0000
0000
0000
0000
0000
0000
0000
0000
0000
0000
0000
0000
,  // measure 43
0000
0000
0000
0000
,  // measure 44
3003
0000
0001
0001
0000
0000
0001
0001
,  // measure 45
0000
1000
1001
2000
,  // measure 46
0000
3002
0000
2003
,  // measure 47
0000
3002
0100
0203
,  // measure 48
0000
0320
0000
0230
,  // measure 49
0000
0000
0310
0000
1000
0100
0000
0100
,  // measure 50
0000
0100
0000
1000
0000
0001
0000
0001
,  // measure 51
0000
0001
0000
0100
0010
0000
0000
0000
,  // measure 52
1001
0000
0000
0000
0000
0000
0001
0000
0001
0000
0001
0000
,  // measure 53
1000
0000
1000
0000
1000
0000
2002
0000
0000
0000
0000
0000
,  // measure 54
0000
0000
0000
0000
,  // measure 55
3003
0000
0000
0000
,  // measure 56
0000
0001
1000
0110
,  // measure 57
1000
0001
1000
0110
,  // measure 58
0001
0010
0100
1001
,  // measure 59
0100
0000
0010
0000
1000
0001
1001
0000
,  // measure 60
0001
0100
0010
1001
,  // measure 61
1000
0010
0100
1001
,  // measure 62
0001
1001
0000
0000
1000
1001
0000
0000
,  // measure 63
0011
0000
1100
0000
0010
0100
0010
0000
,  // measure 64
0101
0000
1010
0000
0001
0010
0001
0000
,  // measure 65
1010
0000
0101
0000
1000
0001
1000
0000
,  // measure 66
0000
0001
1001
0000
0110
0000
1001
0000
,  // measure 67
1100
0011
0220
0330
,  // measure 68
0101
0000
1010
0000
0001
1000
0001
0000
,  // measure 69
0000
0000
1001
0000
0010
0100
0010
0000
,  // measure 70
1000
1000
0000
0000
0001
0001
0000
0000
,  // measure 71
1000
0001
0100
0010
,  // measure 72
1000
0001
1000
1001
,  // measure 73
0001
1000
0001
1001
,  // measure 74
0110
0000
1001
0000
,  // measure 75
1000
0000
1000
0000
1000
0000
0001
0000
0001
0000
0001
0000
,  // measure 76
2002
0000
0000
0000
,  // measure 77
0000
3003
0000
0000
;

//---------------dance-single - ----------------
#NOTES:
     dance-single:
     :
     Beginner:
     6:
     0.259061,0.343964,0.137626,0.153818,0.044526,224.000000,207.000000,17.000000,19.000000,0.000000,0.000000,0.259061,0.343964,0.137626,0.153818,0.044526,224.000000,207.000000,17.000000,19.000000,0.000000,0.000000:
// measure 0
0000
0000
0000
0000
,  // measure 1
0000
0000
0000
0000
,  // measure 2
0000
0000
0000
0000
,  // measure 3
0000
0000
0000
0000
,  // measure 4
0000
0000
0000
0000
,  // measure 5
0002
0000
0000
0000
,  // measure 6
2000
0000
3003
0000
,  // measure 7
0110
0000
1001
0000
,  // measure 8
0010
0000
0010
0000
0000
0000
0100
0000
0100
0000
0000
0000
,  // measure 9
2002
0000
0000
0000
,  // measure 10
0000
0000
0000
3003
,  // measure 11
0000
0001
0001
0001
,  // measure 12
1000
1000
2002
3003
,  // measure 13
0010
1000
0100
1000
,  // measure 14
0010
0001
0100
0001
,  // measure 15
0010
1000
0001
1000
,  // measure 16
0010
0001
1000
0000
,  // measure 17
1000
0100
0001
0010
,  // measure 18
0001
0100
1000
0010
,  // measure 19
0100
0000
0010
0000
,  // measure 20
1000
0001
0220
0330
,  // measure 21
0001
1000
0010
1000
,  // measure 22
0001
1000
0100
1000
,  // measure 23
0001
0010
0100
1000
,  // measure 24
0100
0010
0001
0000
,  // measure 25
1000
1001
1000
1000
,  // measure 26
0001
1001
0001
0001
,  // measure 27
0200
0300
0020
0030
,  // measure 28
1000
0000
2002
0000
,  // measure 29
3003
0000
0000
0000
,  // measure 30
0000
0000
0110
0000
,  // measure 31
0001
0100
1000
0100
,  // measure 32
0001
0010
1000
0010
,  // measure 33
0001
1000
0100
0010
,  // measure 34
0100
1000
0001
0000
,  // measure 35
0010
0010
1000
0100
,  // measure 36
0010
0010
0001
0100
,  // measure 37
1001
0000
1001
0000
,  // measure 38
0200
0300
0020
0030
,  // measure 39
2000
0000
0000
3000
,  // measure 40
0002
0000
0000
0003
,  // measure 41
0100
0000
0000
0000
0000
0000
0000
0000
0000
0000
0000
0000
0000
0000
0000
0000
0000
0000
0000
0000
0000
0000
0000
0000
0000
0000
0000
0000
0000
0000
0000
0000
0000
0000
0000
0000
0000
0000
0000
0000
0000
0000
0000
0000
0000
0000
0100
0000
0000
0000
0000
0000
0000
0000
0000
0000
0000
0000
0000
0000
0000
0000
0000
0000
0000
0000
0000
0000
0000
0000
0000
0000
0000
0000
0000
0000
0000
0000
0000
0000
0000
0000
0000
0000
0000
0000
0000
0000
0000
0000
0000
0000
0000
0100
0000
0000
0000
0000
0000
0000
0000
0000
0000
0000
0000
0000
0000
0000
0000
0000
0000
0000
0000
0000
0000
0000
0000
0000
0000
0000
0000
0000
0000
0000
0000
0000
0000
0000
0000
0000
0000
0000
0000
0000
0000
0000
0000
0000
0000
0000
0000
0100
0000
0000
0000
0000
0000
0000
0000
0000
0000
0000
0000
0000
0000
0000
0000
0000
0000
0000
0000
0000
0000
0000
0000
0000
0000
0000
0000
0000
0000
0000
0000
0000
0000
0000
0000
0000
0000
0000
0000
0000
0000
0000
0000
0000
0000
0000
0000
0100
0000
0000
,  // measure 42
0000
0000
0000
0000
0000
0000
0000
0000
0000
0000
0000
0000
0000
0000
0000
0000
0000
0000
0000
0000
0000
0000
0000
0000
0000
0000
0000
0000
0000
0000
0000
1001
0000
0000
0000
0000
0000
0000
0000
0000
0000
0000
0000
0000
0000
0000
0000
0000
0000
0000
0000
0000
0000
0000
0000
0000
0000
0000
0000
0000
0000
0000
0000
0000
,  // measure 43
0000
0000
0000
0000
,  // measure 44
0000
0000
0000
0000
,  // measure 45
0000
0000
0000
0000
0000
0001
0000
0001
,  // measure 46
0000
1000
0000
1000
0000
0001
0000
1000
,  // measure 47
0000
0001
0000
1000
0000
0010
0000
0010
,  // measure 48
0000
0100
0000
0100
0000
0010
0000
0100
,  // measure 49
0000
0010
0000
0010
0000
1000
0000
0001
,  // measure 50
0000
1000
0000
0001
0000
0100
0000
0010
,  // measure 51
0000
0100
0000
0000
0010
0010
0000
0000
,  // measure 52
0100
0000
0000
0100
0000
0000
0000
0000
0000
0000
0000
0000
0001
0000
0000
0000
0001
0000
0000
0000
0000
0000
0000
0000
,  // measure 53
1000
0000
1000
0000
0000
0000
1001
0000
0000
0000
0000
0000
,  // measure 54
0000
0000
0000
0000
,  // measure 55
0000
0000
0000
0000
,  // measure 56
0000
0001
1000
0100
,  // measure 57
0010
0001
1000
0100
,  // measure 58
0010
0001
0010
0001
,  // measure 59
1000
0100
1000
1001
,  // measure 60
0001
0010
0100
1000
,  // measure 61
0001
0010
0100
1000
,  // measure 62
0010
0000
0100
0000
,  // measure 63
0001
0100
2000
3000
,  // measure 64
1000
0001
1000
0000
,  // measure 65
0001
1000
0001
0000
,  // measure 66
1000
1000
0001
0001
,  // measure 67
1000
0001
1000
0000
,  // measure 68
0001
1001
0001
0001
,  // measure 69
1000
1001
1000
1000
,  // measure 70
0010
0000
0100
0000
,  // measure 71
0001
0001
0001
0000
,  // measure 72
1000
0001
1000
0001
,  // measure 73
1000
0001
1000
0001
,  // measure 74
0100
0000
0010
0000
,  // measure 75
0100
0000
0100
0000
0000
0000
0010
0000
0010
0000
0000
0000
,  // measure 76
2002
0000
0000
0000
,  // measure 77
0000
3003
0000
0000
;
