#TITLE:Knock it Off! (Hard Knocker BTLG);
#SUBTITLE:;
#ARTIST:GRJ Project;
#TITLETRANSLIT:;
#SUBTITLETRANSLIT:;
#ARTISTTRANSLIT:;
#GENRE:;
#CREDIT:;
#BANNER:Knock it Off! (Hard Knocker BTLG).png;
#BACKGROUND:Knock it Off! (Hard Knocker BTLG)-bg.png;
#LYRICSPATH:;
#CDTITLE:;
#MUSIC:Knock it Off! (Hard Knocker BTLG).ogg;
#OFFSET:1.420000;
#SAMPLESTART:81.961624;
#SAMPLELENGTH:14.146782;
#LASTBEATHINT:1.190001;
#SELECTABLE:YES;
#DISPLAYBPM:170.000000;
#BPMS:0.000000=170.000000
,130.000000=168.000000
,132.000000=170.000000
,145.000000=168.000000
,148.000000=170.000000
,162.000000=169.000000
,166.000000=170.000000
,179.000000=167.000000
,182.000000=170.000000
,189.000000=169.600006
,271.000000=170.000000
,298.000000=172.000000
,302.000000=170.000000
,316.000000=165.000000
,316.250000=148.000000
,316.500000=132.000000
,316.666656=121.000000
,316.833344=110.000000
,317.166656=98.000000
,317.333344=85.000000
;
#STOPS:
;
#BGCHANGES:;
#KEYSOUNDS:;
#ATTACKS:;

//---------------dance-single - ----------------
#NOTES:
     dance-single:
     :
     Hard:
     13:
     0.645915,0.703428,0.300837,0.070785,0.176963,511.000000,477.000000,34.000000,8.000000,0.000000,0.000000,0.645915,0.703428,0.300837,0.070785,0.176963,511.000000,477.000000,34.000000,8.000000,0.000000,0.000000:
0000
0000
0000
0000
,
0000
0000
0000
0000
,
0000
0000
0000
0000
,
0000
0000
0000
0000
,
0000
0000
0000
0000
,
0000
0000
0000
0000
,
0000
0000
0000
0000
,
0000
0000
0000
0000
,
0000
0000
0000
0000
,
1000
0000
0100
0000
0010
0000
1000
0000
0001
0000
0000
0001
1000
0000
0010
0000
,
0000
0000
1000
0000
0010
0000
0000
0010
1000
0000
0100
0000
0010
0000
0001
0000
,
0100
0000
0010
0000
1000
0000
0100
0000
0010
0000
0000
0001
0010
0000
0001
0000
,
0000
0000
1000
0000
0010
0000
0000
0010
1000
0000
0001
0000
0100
0000
0010
0000
,
1000
0000
0100
0000
0010
0000
0100
0000
1000
0000
0000
1000
0001
0000
0100
0000
,
0000
0000
0010
0000
0100
0000
0000
0100
0001
0000
0010
0000
0100
0000
1000
0000
,
0001
0000
1000
0000
0010
0000
1000
0000
0100
0000
0000
0100
0010
0000
0001
0000
,
0000
0000
0001
0000
0100
0000
0000
0100
0010
0000
1000
0000
1000
0000
0001
0000
,
1000
0010
0001
0010
1000
0001
0000
1000
,
0010
0100
0001
0100
0010
1000
0100
0010
,
0001
1000
0100
1000
0001
0010
1000
0010
,
0001
0000
0100
0110
0000
0001
1000
0100
,
1000
0000
0001
0000
0000
0000
1000
0000
0010
0000
0000
0010
1000
0000
0001
0000
,
1000
0000
0100
0000
0010
0000
0000
0010
0100
0000
0010
0000
1000
0000
0001
0000
,
1000
0100
0010
0001
0010
0100
1000
0001
,
0010
0100
1000
0100
0001
0100
1000
0000
,
0010
0000
1000
0001
0000
1000
0100
0010
,
0001
0010
0100
0010
0001
0000
0110
0000
,
1001
0000
0001
0010
1000
0000
0001
0100
,
1000
0100
0001
1000
0001
0000
1100
0000
,
0011
0000
0100
0010
0000
1000
0100
0010
,
0001
0010
1000
0010
0001
0100
0010
0000
,
1001
0000
1000
0100
0000
0010
0001
0100
,
0000
0010
1000
0010
1010
0000
0101
0000
,
1000
0100
1000
0100
0010
0001
0010
0001
,
0100
0010
1000
0001
1000
0000
0101
0000
,
0001
0010
0001
0010
0100
1000
0100
1000
,
0010
0100
0001
1000
0100
0000
1100
0000
,
0001
0010
1000
0010
0100
0010
0100
1000
,
1000
0100
0010
0001
0010
0001
0100
0000
,
1010
0000
1000
0100
0010
0001
0010
0100
,
1000
0001
0001
1000
1001
0000
0110
0000
,
1000
0000
0000
1000
0010
0000
0100
0000
0001
0000
1000
0000
0010
0000
1000
0000
,
0100
0000
0010
0000
0001
0000
0100
0000
0001
0000
0100
0001
0100
0000
0010
0000
,
1000
0000
0000
1000
0100
0000
1000
0000
0010
0000
0100
0000
0001
0000
1000
0000
,
0100
0010
0001
0100
0101
0000
1001
0000
,
0010
0000
0000
0010
1000
0000
0001
0000
1000
0000
0100
0000
0010
0000
0001
0000
,
0100
0000
0010
0000
1000
0000
0001
0000
0100
0000
0001
0100
0001
0000
1000
0000
,
0100
0000
0000
0100
0010
0000
1000
0000
0001
0000
1000
0000
0100
0000
0020
0000
,
0000
0031
0100
0010
1010
0000
0101
0000
,
1010
0000
0000
1000
0010
0000
0000
0010
0100
0000
0000
0100
0001
0000
0000
0001
,
1000
0000
0000
1000
0010
0000
0000
0010
1000
0000
0100
0000
0010
0000
0001
0000
,
0100
0000
0000
0100
0010
0000
0000
0010
1000
0000
0000
1000
0100
0000
0000
0100
,
0010
0000
0000
0010
0001
0000
0100
0000
0010
0000
1000
0000
1010
0000
0000
0000
,
0101
0000
0000
0001
0100
0000
0000
0100
0010
0000
0000
0010
1000
0000
0000
1000
,
0100
0000
0000
0100
0010
0000
0000
0010
0001
0000
0100
0000
0010
0000
1000
0000
,
1010
0000
1000
0100
0010
0001
0100
0000
,
1001
0000
0001
0100
1000
0100
0001
0010
,
1000
0010
0001
1000
0100
0001
1000
0000
,
0101
0000
1000
0010
0001
1000
0100
0000
,
1001
0000
0001
1001
0000
0000
1000
0100
,
0001
0000
1000
0010
0001
0000
0110
0000
,
1001
0000
0001
0100
1000
0000
0001
0010
,
1000
0010
0001
0100
0010
0000
1001
0000
,
1100
0000
0001
0010
1000
0000
0001
0100
,
1000
0000
0001
0010
1000
0010
0001
0000
,
1100
0000
0100
0001
1000
0000
0001
0010
,
0100
1000
0100
0010
0001
1000
1001
0000
,
0001
0000
0100
0000
0010
0000
1000
0000
0100
0000
1000
0100
1000
0000
0010
0000
,
0100
0000
0001
0000
1000
0000
0001
1000
0001
0000
1000
0000
0010
0000
1000
0000
,
0100
0000
0001
0000
0010
0000
0001
0000
0100
0000
0001
0100
0001
0000
1000
0000
,
0010
0000
1000
0000
0100
0000
1000
0100
1000
0000
0010
0000
0100
0000
0001
0000
,
1000
0000
0100
0000
0010
0000
0001
0010
0001
0000
0100
0000
0010
0000
1000
0000
,
0100
0000
1000
0000
0100
0000
1000
0100
1000
0000
0010
0000
0100
0000
0001
0000
,
1000
0000
0010
0000
0100
0000
0001
0000
1000
0000
0001
0100
0001
0000
2000
0000
,
0000
3100
0010
0001
0011
0000
1001
0000
,
0020
0000
0000
0030
,
2000
0000
0000
3000
,
0200
0000
0000
0300
,
0002
0000
0000
0003
,
2002
0000
3003
0000
;

//---------------dance-single - ----------------
#NOTES:
     dance-single:
     :
     Medium:
     10:
     0.479064,0.597914,0.212356,0.097330,0.004424,379.000000,355.000000,24.000000,11.000000,0.000000,0.000000,0.479064,0.597914,0.212356,0.097330,0.004424,379.000000,355.000000,24.000000,11.000000,0.000000,0.000000:
0000
0000
0000
0000
,
0000
0000
0000
0000
,
0000
0000
0000
0000
,
0000
0000
0000
0000
,
0000
0000
0000
0000
,
0000
0000
0000
0000
,
0000
0000
0000
0000
,
0000
0000
0000
0000
,
0000
0000
0000
0000
,
1000
0000
0001
0000
1000
0100
0010
0001
,
0000
1000
0001
0000
0001
0100
0001
0000
,
0001
0000
1000
0000
0001
0010
0100
1000
,
0000
0001
1000
0000
0010
0000
0100
0000
,
1000
0000
0010
0000
1000
0010
1000
0100
,
0000
0010
0001
0000
0100
0000
0010
0000
,
1000
0000
0001
0000
0010
0100
0010
0100
,
0000
0001
1000
0000
0010
0000
1000
0000
,
0000
1000
0100
1000
0100
1000
0000
0001
,
0100
0001
0100
0010
0100
0001
0100
0001
,
1000
0100
0010
0001
0010
0100
1000
0001
,
1000
0000
1000
0001
0000
0001
0010
0100
,
0010
0001
0000
1000
0001
0000
1001
0000
,
1100
0000
1000
0001
0000
0001
0100
0000
,
0100
0010
0100
0000
0010
0100
0010
0000
,
1000
0000
0001
1000
0000
0010
0100
0000
,
1001
0000
1000
0100
0000
0000
1000
0001
,
1000
0000
0001
1000
0001
0000
0010
0000
,
0100
0000
1000
0100
0000
0000
1000
0001
,
0000
1000
0010
1000
0010
0000
0100
0000
,
0001
0000
0010
0001
0000
0000
1000
0010
,
1000
0000
0001
0100
0001
0000
1000
0000
,
0001
0000
0100
0001
0000
0000
1000
0001
,
0000
1000
0100
0010
0001
0000
1001
0000
,
1000
0000
0001
1000
0000
0000
0001
0010
,
0001
0000
1000
0100
1000
0000
0010
0000
,
0100
0000
0001
1000
0000
0000
0001
0100
,
0000
0010
1000
0100
0010
0000
0000
0000
,
0001
0000
1000
0100
0000
0000
1000
0001
,
1000
0000
0010
0100
0010
0000
1000
0000
,
0001
0000
0010
0001
0000
0000
1000
0010
,
0000
1000
0100
0010
0001
0000
1001
0000
,
0110
0000
1000
0020
0000
0000
1030
0100
,
1000
0000
0001
0100
0001
0000
1000
0000
,
0011
0000
1000
0200
0000
0000
1300
0010
,
0000
1000
0100
0010
0001
0000
0100
0000
,
1001
0000
0010
0200
0000
0000
0301
0010
,
0001
0000
0100
0010
1000
0000
1100
0000
,
0101
0000
1000
0200
0000
0000
1300
0020
,
0000
1030
0100
0010
0001
0000
1001
0000
,
0100
0000
0010
1000
0010
1000
0010
0000
,
1000
0100
1000
0000
0001
0100
0001
0000
,
1000
0001
1000
0001
0000
1000
0100
1000
,
0100
0010
0001
0010
0001
0100
0010
0000
,
0000
0000
0000
0000
0001
0000
1000
0000
0001
0000
0000
1001
0000
0000
1000
0000
,
0001
0000
1000
0100
0010
0000
0100
0010
,
0001
0000
1000
0001
1000
0000
0010
0000
,
1000
0000
0100
0010
0100
0010
0100
0010
,
1000
1001
0110
1001
,
1000
0000
0001
0010
0001
0010
0001
0000
,
1000
0000
0001
0100
0000
0001
0100
0010
,
0100
0000
0001
1000
0001
0000
1000
0000
,
0101
0000
1000
0100
0000
1000
0001
1000
,
0000
0010
0100
0000
0110
0000
1001
0000
,
1000
0000
0100
1000
0000
0001
0100
0001
,
0100
0000
1000
0010
1000
0000
0010
0000
,
0001
0000
0100
0010
0000
1000
0001
1000
,
0000
0001
0100
0010
1000
0000
1001
0000
,
0110
0000
0100
0010
0000
0000
1000
0001
,
1000
0000
0001
1000
0001
0000
0100
0000
,
0010
0000
1000
0001
0000
0000
1000
0001
,
0000
1000
0100
0010
0001
0000
0000
0000
,
1001
0000
0001
1000
0000
0000
0001
1000
,
0001
0000
1000
0001
1000
0000
0010
0000
,
0110
0000
1000
0001
0000
0000
1000
0100
,
0000
1000
0100
0010
0001
0000
1001
0000
,
0020
0000
0000
0030
,
2000
0000
0000
3000
,
0002
0000
0000
0003
,
0200
0000
0000
0300
,
2002
0000
3003
0000
;

//---------------dance-double - ----------------
#NOTES:
     dance-double:
     :
     Hard:
     12:
     0.592826,0.668256,0.176963,0.053089,0.030969,469.000000,449.000000,20.000000,6.000000,0.000000,0.000000,0.592826,0.668256,0.176963,0.053089,0.030969,469.000000,449.000000,20.000000,6.000000,0.000000,0.000000:
00000000
00000000
00000000
00000000
,
00000000
00000000
00000000
00000000
,
00000000
00000000
00000000
00000000
,
00000000
00000000
00000000
00000000
,
00000000
00000000
00000000
00000000
,
00000000
00000000
00000000
00000000
,
00000000
00000000
00000000
00000000
,
00000000
00000000
00000000
00000000
,
00000000
00000000
00000000
00000000
,
10000000
00000000
00010000
00000000
00100000
00001000
00100000
00001000
,
00000000
00010000
00000100
00000000
00001000
00000100
00000010
00000001
,
00001000
00000000
00000100
00000000
00010000
00001000
00010000
00001000
,
00000000
00100000
00010000
00000000
10000000
01000000
00100000
00000000
,
00001000
00000000
00000100
00000000
00000001
00001000
00000010
00000100
,
00000000
00000100
00000001
00000000
00001000
00000100
00010000
00001000
,
01000000
00000000
00100000
00000000
10000000
01000000
00100000
00010000
,
00000000
00100000
00001000
00000000
00010000
00000010
00001000
00000000
,
00001000
00000001
00000100
00000010
00001000
00000100
00000000
00010000
,
00001000
01000000
00010000
10000000
01000000
00100000
00010000
00100000
,
00001000
00010000
00000100
00001000
00000010
00000100
00000001
00001000
,
00000100
00010000
00001000
01000000
00000000
00010000
00100000
01000000
,
10000000
00100000
00000000
01000000
00001000
00000000
00010000
00000100
,
00001000
00000000
00000010
00001000
00000001
00000100
00000010
00001000
,
00000100
00010000
00001000
00000000
00100000
00010000
01000000
00100000
,
10000000
01000000
00100000
00010000
00000000
01000000
01100000
00000000
,
11000000
00000000
00100000
00110000
00000000
00100000
00001000
00010000
,
00001000
00010000
00000100
00000000
00001100
00000000
00000101
00000000
,
00001001
00000000
00000001
00000010
00000100
00001000
00000010
00000100
,
00000000
00000001
00001000
00000100
00010000
00000000
00011000
00000000
,
01001000
00000000
00010000
01000000
00000000
00100000
10000000
01000000
,
00100000
00010000
01000000
00100000
01000000
00000000
00001000
00000000
,
00010000
00000000
00000100
00001000
00000001
00000000
00001000
00000100
,
00000000
00010000
00000010
00001000
00000001
00000000
00001001
00000000
,
00000001
00000100
00000001
00000100
00001000
00000100
00001000
00000100
,
00000001
00000100
00001000
00000000
00010000
01000000
10000000
00000000
,
10000000
00100000
10000000
00100000
00010000
00100000
00010000
00100000
,
10000000
00100000
00010000
00000000
00001000
00000010
00000001
00000000
,
00001000
00000100
00000001
00000100
00001000
00000100
00001000
00000100
,
00010000
00001000
01000000
00000000
00010000
01000000
10000000
00000000
,
10000000
00100000
10000000
00100000
00010000
00100000
00010000
00100000
,
10000000
00100000
00010000
00000000
00110000
00000000
00011000
00000000
,
00010000
00000100
00001000
00000100
00010000
00000100
00001000
00000100
,
00010000
00000010
00001000
00000001
00000100
00000010
00001000
00000100
,
00010000
00001000
00100000
00001000
00010000
00001000
00100000
00001000
,
00100000
00010000
01000000
00100000
10000000
01000000
00100000
00010000
,
00100000
00001000
00010000
00001000
00100000
00001000
00010000
00001000
,
00100000
00001000
00010000
00000010
00001000
00000100
00000010
00000001
,
00001000
00000100
00001000
00000010
00001000
00000100
00001000
00000010
,
00000000
00000100
00000001
00001000
00000100
00000000
00001100
00000000
,
00010000
00001000
00100000
00000000
00010000
00100000
01000000
00000000
,
10000000
01000000
00100000
00010000
00001000
00100000
00001000
00000000
,
00010000
00000100
00001000
00000001
00001000
00000100
00000010
00000001
,
00001000
00000100
00010000
00001000
01000000
00100000
10000000
00000000
,
00000000
00000000
10010000
10000000
00100000
00000000
00100000
00001000
,
00010000
00000000
00010000
00000100
00001000
00000010
00000100
00000001
,
00001000
00000000
00000100
00010000
00001000
00000000
00110000
00000000
,
01010000
00000000
10000000
01000000
00100000
00010000
00100000
00001000
,
00010000
00000010
00001000
00000100
00000010
00000001
00001000
00000000
,
00000110
00000000
00001000
00000100
00000010
00000001
00001000
00000000
,
00000100
00000000
00000000
00000100
00000010
00000000
00001000
00000000
00000100
00000000
00000010
00000000
00000001
00000000
00001000
00000000
,
00000100
00000000
00010000
00000000
00001000
00000000
01000000
00000000
00010000
00000000
10000000
00010000
10000000
00000000
00100000
00000000
,
10000000
00000000
00000000
10000000
00100000
00000000
01000000
00000000
00010000
00000000
00100000
00000000
00001000
00000000
00010000
00000000
,
00000010
00000000
00001000
00000100
00001000
00000000
00000010
00000000
00000100
00000000
00000000
00000000
00001001
00000000
00000000
00000000
,
00000001
00000000
00000000
00000001
00000010
00000000
00000001
00000000
00001000
00000000
00000100
00000000
00010000
00000000
00001000
00000000
,
01000000
00000000
00010000
00000000
10000000
00000000
00100000
00000000
01000000
00000000
00010000
01000000
00010000
00000000
01000000
00000000
,
00001000
00000000
00000000
00001000
00010000
00000000
00000100
00000000
00001000
00000000
00000100
00000000
00000001
00000000
00000100
00000000
,
00001000
00000010
00000100
00000001
00001000
00000000
00001100
00000000
,
00000001
00000100
00001000
00000000
00010000
01000000
10000000
00000000
,
00100000
10000000
01000000
00100000
00010000
00100000
00001000
00000000
,
00010000
00000010
00001000
00000000
00000001
00000100
00001000
00000000
,
00000100
00000001
00001000
00000001
00001000
00000000
00000100
00000000
,
00010000
00001000
01000000
00000000
00010000
01000000
10000000
00000000
,
10000000
01000000
00010000
00000000
00100000
00000000
00001000
00000000
,
00010000
00000010
00001000
00000000
00001000
00000100
00000010
00000001
,
00000000
00001000
00000100
00010000
00001000
00000000
00011000
00000000
,
00200000
00000000
00301000
00000000
,
00020000
00000000
00030010
00000000
,
00000200
00000000
00000301
00000000
,
00002000
00000000
00003100
00000000
,
00022000
00000000
00033000
00000000
;

//---------------dance-double - ----------------
#NOTES:
     dance-double:
     :
     Medium:
     10:
     0.439879,0.527571,0.141570,0.194659,0.000000,348.000000,332.000000,16.000000,22.000000,0.000000,0.000000,0.439879,0.527571,0.141570,0.194659,0.000000,348.000000,332.000000,16.000000,22.000000,0.000000,0.000000:
00000000
00000000
00000000
00000000
,
00000000
00000000
00000000
00000000
,
00000000
00000000
00000000
00000000
,
00000000
00000000
00000000
00000000
,
00000000
00000000
00000000
00000000
,
00000000
00000000
00000000
00000000
,
00000000
00000000
00000000
00000000
,
00000000
00000000
00000000
00000000
,
00000000
00000000
00000000
00000000
,
00200000
00000000
00001000
00000000
00000000
00000000
00000000
00001000
,
00320000
00000100
00000100
00000100
,
00032000
00000000
00000010
00000000
00000010
00000000
00000000
00000010
,
00003200
00000000
00000001
00000000
00000001
00000001
00000001
00000000
,
00000302
00000000
00001000
00000000
00001000
00000000
00000000
00001000
,
00000023
00000000
00000100
00000000
00000100
00000100
00000100
00000000
,
00002030
00000000
00000100
00000000
00000100
00000000
00000000
00000100
,
00023000
00000000
00001000
00000000
00001000
00001000
00031000
00000000
,
00001000
00100000
00001000
00100000
00010000
01000000
00000000
00100000
,
10000000
01000000
00100000
00010000
00100000
00001000
00010000
00000000
,
00000010
00001000
00000100
00000000
00001000
00000010
00000100
00000000
,
00000001
00000000
00001000
00000100
00000000
00010000
00001000
00000000
,
00001000
00100000
00000000
00100000
00010000
00000000
01000000
00000000
,
00100000
00000000
10000000
01000000
00100000
00000000
01000000
00000000
,
00010000
00100000
00000000
00100000
00010000
00000000
00001000
00000000
,
00010000
00000000
00000100
00001000
00000000
00000000
00001010
00000000
,
00000101
00000000
00000001
00000100
00000000
00000000
00001000
00000100
,
00001000
00000100
00010000
00001000
,
01000000
00000000
00100000
01000000
00000000
00000000
10000000
00010000
,
00000000
10000000
01000000
00100000
00010000
00000000
00000000
00000000
,
00100000
00000000
00001000
00010000
00000000
00000000
00000100
00010000
,
00000100
00000000
00010000
00001000
00010000
00000000
00001000
00000000
,
00100000
00000000
00010000
00100000
00000000
00000000
10000000
01000000
,
00000000
00100000
00010000
00000000
00011000
00000000
00000100
00000000
,
00001000
00000001
00001000
00000001
,
00001000
00000100
00000010
00000001
00001000
00000100
00000010
00000001
,
00001000
00000000
00000100
00000000
00001000
00000000
00000100
00010000
,
00000000
00010000
00001000
00100000
00001000
00000000
00100000
00000000
,
00010000
00000000
10000000
00000000
00010000
00000000
10000000
00010000
,
00000000
10000000
01000000
00100000
00010000
00000000
00100000
00000000
,
00001000
00000000
00010000
00001000
00000000
00000000
00010000
00001000
,
00000000
00010000
00001000
00000000
00000010
00000000
00000101
00000000
,
00000001
00000100
00000001
00000000
00001000
00000100
00001000
00000000
,
00000100
00010000
00001000
01000000
,
00010000
00100000
00010000
00000000
10000000
01000000
10000000
00000000
,
00100000
01000000
00010000
01000000
00100000
00000000
10010000
00000000
,
11000000
00000000
00100000
00010000
00100000
00000000
10000000
01000000
,
10000000
00100000
00001000
00010000
,
00000010
00000000
00001000
00000100
00001000
00000000
00000001
00000100
,
00000000
00000010
00001000
00000100
00001000
00000000
00001010
00000000
,
00000001
00000100
00000001
00000000
00001000
00000000
00000100
00000000
,
00010000
00001000
00010000
00000000
00001000
00000000
01000000
00000000
,
00010000
01000000
10000000
00000000
01000000
00000000
00010000
00000000
,
00100000
00000000
00001000
00000000
00010000
00000010
00010000
00000000
,
00000010
00000000
00001000
00000010
00000001
00000000
00000100
00000000
,
00000001
00000010
00001000
00000100
,
00010000
00001000
01000000
01100000
,
10010000
00000000
10000000
01000000
00100000
00010000
01000000
00000000
,
00001000
00010000
00000010
00001001
,
00000110
00000000
00000001
00000010
00000100
00001000
00000010
00000000
,
00001001
00000000
00001000
00000100
00001000
00000000
00000001
00000100
,
00000001
00000000
00001000
00000100
00001000
00000000
00000100
00000000
,
00010000
00000000
00001000
00100000
00001000
00000000
00100000
00010000
,
00000000
10000000
01000000
00100000
00010000
00000000
00100000
00000000
,
00001000
00000000
00010000
00001000
00010000
00000000
00000100
00010000
,
00000100
00000000
00001000
00000010
00001000
00000000
00000001
00000000
,
00001100
00000000
00000001
00000100
00000001
00000000
00001000
00000100
,
00000000
00010000
00001000
00010000
00001000
00000000
00100000
00000000
,
00020000
00000000
01000000
01000000
00000000
00000000
10000000
00000000
,
20030000
00100000
00100000
00100000
,
30020000
00000000
00100000
00100000
00000000
00000000
00100000
00100000
,
00000000
00100000
00100000
00000000
00230000
00000000
00001000
00000000
,
00302000
00000000
00010000
00000000
00010000
00000000
00010000
00023000
,
00000000
00000100
00000100
00000000
00000100
00000000
00030200
00000000
,
00001000
00000000
00001000
00000000
00002300
00000000
00000010
00000010
,
00000000
00000010
00003010
00000000
00001001
00000000
00001100
00000000
,
00000200
00000000
00000000
00000300
,
00020000
00000000
00000000
00030000
,
00002000
00000000
00000000
00003000
,
00200000
00000000
00000000
00300000
,
00022000
00000000
00033000
00000000
;

//---------------dance-double - ----------------
#NOTES:
     dance-double:
     :
     Easy:
     7:
     0.304629,0.386885,0.115026,0.203507,0.000000,241.000000,228.000000,13.000000,23.000000,0.000000,0.000000,0.304629,0.386885,0.115026,0.203507,0.000000,241.000000,228.000000,13.000000,23.000000,0.000000,0.000000:
00000000
00000000
00000000
00000000
,
00000000
00000000
00000000
00000000
,
00000000
00000000
00000000
00000000
,
00000000
00000000
00000000
00000000
,
00000000
00000000
00000000
00000000
,
00000000
00000000
00000000
00000000
,
00000000
00000000
00000000
00000000
,
00000000
00000000
00000000
00000000
,
00000000
00000000
00000000
00000000
,
20000000
00000000
00000000
00000000
,
30020000
00000000
00000000
00000000
,
00032000
00000000
00000000
00000000
,
00003002
00000000
00000000
00000000
,
00000023
00000000
00000000
00000000
,
00002030
00000000
00000000
00000000
,
00023000
00000000
00000000
00000000
,
02030000
00000000
00000000
00000000
,
03100000
10000000
00010000
00100000
,
00001000
00010000
00000010
00001000
,
00000100
00000001
00000100
00001000
,
00010000
01000000
10000000
00000000
,
10000000
00100000
10000000
00010000
,
00100000
00001000
00010000
00000100
,
00001000
00000001
00001000
00000100
,
00010000
00000000
00001000
00001000
00000000
00000000
00000000
00000000
,
00010000
00000000
00001000
00010000
00000000
00000000
00000000
00000000
,
00000000
00001000
00100000
00010000
,
01000000
00000000
00100000
01000000
00000000
00000000
00000000
00000000
,
00000000
10000000
00010000
00000000
10000000
00000000
00000000
00000000
,
00010000
00000000
00100000
00010000
00000000
00000000
00000000
00000000
,
00000000
00100000
00001000
00010000
,
00000010
00000000
00001000
00000001
00000000
00000000
00001000
00000001
,
00000000
00000100
00000010
00000000
,
00001000
00001000
00000100
00000001
,
00000001
00000100
00001000
00001000
,
00010000
00010000
01000000
10000000
,
10000000
01000000
00010000
00010000
,
00100000
00100000
00001000
00010000
,
00000010
00000010
00010000
00001000
,
01000000
01000000
00001000
00010000
,
00000100
00000100
00001001
00000000
,
00000001
00000100
00000001
00001000
,
00000100
00010000
00001000
01000000
,
10000000
01000000
00010000
00100000
,
00001000
00010000
00000010
00000000
,
00001000
00000100
00000001
00000100
,
00001000
00000100
00010000
00001000
,
01000000
00010000
00100000
10000000
,
00100000
00010000
10010000
00000000
,
20000000
00100000
00100000
30100000
,
02000000
00001000
00001000
03001000
,
00020000
00030100
00002000
00003001
,
00000200
00000310
00000110
00001001
,
00000002
00000103
00002000
00003100
,
00020000
00031000
02000000
03010000
,
10000000
00010000
10000000
00010000
,
00100000
00001000
00011000
00010000
,
00000010
00001000
00000100
00000001
,
00000110
00000000
00001001
00000000
,
00000001
00000000
00000100
00000001
00000000
00000000
00001000
00000000
,
00000100
00010000
00001000
01000000
,
00100000
00000000
01000000
00100000
00000000
00000000
01000000
00100000
,
00000000
10000000
10010000
00000000
,
00100000
00000000
00001000
00100000
00000000
00000000
00001000
00000000
,
00100000
00001000
00010000
00000010
,
00001000
00000000
00000001
00001000
00000000
00000000
00000001
00001000
,
00000000
00000010
00000110
00000000
,
00000001
00000100
00001000
00010000
,
01000000
10000000
00100000
00100000
,
10000000
01000000
00010000
00001000
,
00000100
00000001
00001001
00000000
,
00000001
00000010
00001000
00010000
,
00100000
10000000
01000000
10010000
,
10000000
00100000
00010000
00001000
,
00000010
00000001
00000100
00001001
,
00000020
00000000
00000030
00000000
,
00002000
00000000
00003000
00000000
,
00000200
00000000
00000300
00000000
,
00020000
00000000
00030000
00000000
,
00022000
00000000
00033000
00000000
;

//---------------dance-single - ----------------
#NOTES:
     dance-single:
     :
     Easy:
     7:
     0.308421,0.422057,0.141570,0.159267,0.000000,244.000000,228.000000,16.000000,18.000000,0.000000,0.000000,0.308421,0.422057,0.141570,0.159267,0.000000,244.000000,228.000000,16.000000,18.000000,0.000000,0.000000:
0000
0000
0000
0000
,
0000
0000
0000
0000
,
0000
0000
0000
0000
,
0000
0000
0000
0000
,
0000
0000
0000
0000
,
0000
0000
0000
0000
,
0000
0000
0000
0000
,
0000
0000
0000
0000
,
0000
0000
0000
0000
,
2000
0000
0000
0000
,
3002
0000
0000
0000
,
0023
0000
0000
0000
,
0230
0000
0000
0000
,
2300
0000
0000
0000
,
3200
0000
0000
0000
,
0320
0000
0000
0000
,
0032
0000
0000
0000
,
1003
0010
1001
0000
,
0001
0100
1000
0100
,
0001
0010
0100
1000
,
0010
0000
0100
0100
0000
0000
0001
0000
,
1000
1000
0000
0000
0001
0000
0010
0000
,
0100
1000
0100
0010
,
0001
1000
0010
0100
,
0001
0000
0001
0001
0000
0000
0000
0000
,
1000
0000
1000
1000
0000
0000
0000
0000
,
0000
0001
0010
0100
,
1000
0000
0001
0000
0001
0001
0000
0000
,
0000
0010
0110
0000
,
0001
0000
1000
1000
0000
0000
0000
0000
,
0000
0001
0010
0100
,
1000
0000
0001
0001
0000
0000
1000
0001
,
0000
1000
0010
0100
,
0001
0001
0001
0100
,
1000
1000
1000
0100
,
0001
0001
0001
0010
,
1000
1000
1001
0000
,
1000
1000
0010
0001
,
1000
1000
0100
0001
,
0100
0100
0001
1000
,
0010
0010
1001
0110
,
1000
0000
1000
0001
0000
0000
1000
0000
,
0100
0010
0001
0100
,
0010
0000
1000
0001
0000
0000
1000
0000
,
0001
0010
0100
0000
,
0001
0000
1000
0001
0000
0000
0010
0000
,
1000
0100
0010
0001
,
1000
0000
0001
1000
0000
0000
0010
0000
,
1000
0001
1001
0000
,
0010
1000
0010
1000
,
0100
0010
0001
0100
,
1000
0010
1000
0010
,
1000
0100
0010
0001
,
0100
0100
0010
0010
,
0001
0100
0010
1000
,
0001
0001
1000
1000
,
0001
0010
0100
1000
,
0010
0010
0010
1000
,
0001
1000
0100
0010
,
1001
0000
0001
1000
0000
0000
0001
0000
,
1000
0010
0110
1001
,
0001
0000
1000
0001
0000
0000
1000
0000
,
0100
0010
1001
0000
,
0110
0000
0010
0100
0000
0000
0001
0000
,
1000
0100
0010
0001
,
1000
0000
0010
1000
0000
0000
0101
0000
,
0000
1100
0101
0000
,
2000
0000
0010
0000
0010
0000
0000
0010
,
0000
0100
0100
3100
,
0002
0000
0100
0000
0100
0000
0000
1000
,
0000
1000
1003
1001
,
2000
0000
0010
0000
0010
0000
0000
0010
,
0000
0001
0100
3100
,
0002
0000
0010
0000
0010
0000
0000
1003
,
0000
1000
0001
1000
0001
0000
0000
0000
,
0200
0000
0000
0300
,
2000
0000
0000
3000
,
0020
0000
0000
0030
,
0002
0000
0000
0003
,
2002
0000
3003
0000
;

//---------------dance-single - ----------------
#NOTES:
     dance-single:
     :
     Beginner:
     5:
     0.161795,0.246200,0.053089,0.017696,0.000000,128.000000,122.000000,6.000000,2.000000,0.000000,0.000000,0.161795,0.246200,0.053089,0.017696,0.000000,128.000000,122.000000,6.000000,2.000000,0.000000,0.000000:
// measure 0
0000
0000
0000
0000
,  // measure 1
0000
0000
0000
0000
,  // measure 2
0000
0000
0000
0000
,  // measure 3
0000
0000
0000
0000
,  // measure 4
0000
0000
0000
0000
,  // measure 5
0000
0000
0000
0000
,  // measure 6
0000
0000
0000
0000
,  // measure 7
0000
0000
0000
0000
,  // measure 8
0000
0000
0000
0000
,  // measure 9
1000
0000
0000
0000
,  // measure 10
0100
0000
0000
0000
,  // measure 11
0010
0000
0000
0000
,  // measure 12
0001
0000
0000
0000
,  // measure 13
1000
0000
0000
0000
,  // measure 14
0100
0000
0000
0000
,  // measure 15
0010
0000
0000
0000
,  // measure 16
0001
0000
0000
0000
,  // measure 17
1000
0000
0000
0000
,  // measure 18
0001
0000
0000
0000
,  // measure 19
1000
0000
0000
0000
,  // measure 20
0001
0000
0000
0000
,  // measure 21
0100
0000
0000
0000
,  // measure 22
0010
0000
0000
0000
,  // measure 23
0100
0000
0000
0000
,  // measure 24
0010
0000
0000
0000
,  // measure 25
1000
0000
0000
0000
,  // measure 26
0001
0000
0000
0000
,  // measure 27
1000
0000
0000
0000
,  // measure 28
0001
0000
0000
0000
,  // measure 29
0100
0000
0000
0000
,  // measure 30
0010
0000
0000
0000
,  // measure 31
0100
0000
0000
0000
,  // measure 32
0010
0000
0000
0000
,  // measure 33
1000
0000
1000
0000
,  // measure 34
0001
0000
0001
0000
,  // measure 35
1000
0000
1000
0000
,  // measure 36
0001
0000
0001
0000
,  // measure 37
0100
0000
0100
0000
,  // measure 38
0010
0000
0010
0000
,  // measure 39
0100
0000
0100
0000
,  // measure 40
0010
0010
0010
0000
,  // measure 41
1000
0000
0001
0000
,  // measure 42
1000
0000
0001
0000
,  // measure 43
0001
0000
1000
0000
,  // measure 44
0001
0001
0001
0000
,  // measure 45
0100
0000
0010
0000
,  // measure 46
0100
0000
0010
0000
,  // measure 47
1000
0000
0001
0000
,  // measure 48
0100
0100
0100
0000
,  // measure 49
0001
0000
1000
0000
,  // measure 50
0001
0000
0010
0000
,  // measure 51
0100
0000
1000
0000
,  // measure 52
0001
0000
1001
0000
,  // measure 53
1000
0000
0100
0000
,  // measure 54
0010
0000
0001
0000
,  // measure 55
1000
0000
0001
0000
,  // measure 56
1000
0001
1000
0000
,  // measure 57
0001
0000
1000
0000
,  // measure 58
0001
1000
0001
0000
,  // measure 59
1000
0000
1000
0000
,  // measure 60
0001
0001
0001
0000
,  // measure 61
1000
0000
1000
0000
,  // measure 62
0010
0010
0010
0000
,  // measure 63
0100
0000
0100
0000
,  // measure 64
0001
0001
0001
0000
,  // measure 65
0100
0000
0100
0000
,  // measure 66
1000
1000
1000
0000
,  // measure 67
0001
0000
1001
0000
,  // measure 68
0000
0000
1000
0000
,  // measure 69
1001
0000
0001
0000
,  // measure 70
1000
1000
1000
0000
,  // measure 71
0001
0000
1001
0000
,  // measure 72
0000
0000
1000
0000
,  // measure 73
1001
0000
0001
0000
,  // measure 74
0100
0100
0100
0000
,  // measure 75
0010
0000
0000
0000
,  // measure 76
1000
0000
0000
0000
,  // measure 77
0100
0000
0000
0000
,  // measure 78
0001
0000
0000
0000
,  // measure 79
2002
0000
3003
0000
;
