#TITLE:花冠 feat.Aikapin;
#SUBTITLE:;
#ARTIST:RoughskreamZ;
#TITLETRANSLIT:Kakan feat.Aikapin;
#SUBTITLETRANSLIT:;
#ARTISTTRANSLIT:;
#GENRE:beatmaniaIIDX;
#CREDIT:;
#BANNER:Kakan feat.Aikapin.png;
#BACKGROUND:Kakan feat.Aikapin-bg.png;
#LYRICSPATH:;
#CDTITLE:;
#MUSIC:Kakan feat.Aikapin.ogg;
#OFFSET:1.936000;
#SAMPLESTART:27.107281;
#SAMPLELENGTH:15.200000;
#LASTBEATHINT:1.287000;
#SELECTABLE:YES;
#DISPLAYBPM:83.000000:180.000000;
#BPMS:0.000000=82.500000
,19.000000=83.000000
,20.000000=165.000000
,92.000000=82.500000
,108.000000=165.000000
,232.000000=180.000000
;
#STOPS:
;
#BGCHANGES:2.500=Kakan feat.Aikapin.avi=1.000=0=0=0=StretchNoLoop====,
99999=-nosongbg-=1.000=0=0=0 // don't automatically add -songbackground-
;
#KEYSOUNDS:;
#ATTACKS:;

//---------------dance-single - ----------------
#NOTES:
     dance-single:
     :
     Hard:
     15:
     0.815994,1.207578,0.594826,0.203707,0.615197,701.000000,628.000000,73.000000,25.000000,0.000000,0.000000,0.815994,1.207578,0.594826,0.203707,0.615197,701.000000,628.000000,73.000000,25.000000,0.000000,0.000000:
// measure 0
0000
0000
0000
0000
,  // measure 1
0000
0000
0000
0000
,  // measure 2
0000
0000
0000
0000
,  // measure 3
0000
0000
0000
0000
,  // measure 4
0000
0000
0000
0000
,  // measure 5
0001
0000
1000
0001
1000
0000
0010
0000
1000
0000
0001
1000
0001
0000
0100
0000
,  // measure 6
0010
0000
0000
0000
0010
0000
0000
0000
0100
0000
0000
0000
0001
0000
0000
0000
0001
0000
0000
0000
1000
0000
0000
0000
0001
0000
0000
0000
0000
0000
1000
0000
0000
0001
0000
0000
1000
0000
0000
0000
0000
0000
0000
0000
0000
0000
0000
0000
,  // measure 7
0010
0000
1000
0010
1000
0000
0010
0000
0100
0000
0001
0100
0001
0000
0100
0000
,  // measure 8
0010
1010
1000
1001
0001
0101
0100
0110
,  // measure 9
0010
0000
1000
0010
1000
0000
0010
0000
0100
0000
0001
0100
0001
0000
0100
0000
,  // measure 10
0010
1010
1000
1001
0001
0101
0100
0110
,  // measure 11
0010
0000
1000
0100
0010
0000
0001
0000
0100
0000
0010
0100
0001
0000
0100
0000
,  // measure 12
0010
0000
1000
0001
1000
0000
0010
0000
1000
0000
0100
0010
0100
0000
0010
0000
,  // measure 13
1000
0000
0001
0100
0001
0000
1000
0000
0001
0000
1000
0010
1000
0000
0001
0000
,  // measure 14
1000
0100
0010
0001
0100
0010
1010
0010
,  // measure 15
0100
0000
0001
0100
0010
0000
0100
0000
0001
0000
1000
0001
1000
0000
0010
0000
,  // measure 16
0100
0101
0001
1001
1000
1010
0010
0110
,  // measure 17
0100
0000
0001
0100
0001
0000
1000
0000
0010
0000
1000
0010
1000
0000
0010
0000
,  // measure 18
0100
0101
0001
1001
1000
1010
0010
0110
,  // measure 19
0000
0000
0100
0001
0100
0000
0010
0000
1000
0000
0100
0000
0010
0000
0011
0000
,  // measure 20
0000
0000
0001
0100
0001
0000
0100
0000
0010
0000
1000
0000
1010
0000
1010
0000
,  // measure 21
0000
0100
0002
0000
1000
0000
0103
0000
,  // measure 22
0001
1000
0001
0100
0010
0100
0010
0000
0000
1001
0000
0000
,  // measure 23
1002
0000
0000
0000
0000
0000
0103
0010
0100
0000
0000
0000
0001
0000
1000
0000
0000
0000
1001
0000
0000
1001
0000
0000
1000
0000
0100
0000
0010
0000
0001
0000
,  // measure 24
1000
0000
0000
1000
0000
0000
1000
0010
0100
0000
0001
0000
1000
0000
1001
0000
0000
0000
0101
0000
0000
0101
0000
0000
1000
0000
0010
0000
0100
0001
0100
0000
,  // measure 25
0010
0000
0000
1010
0000
0000
1000
0000
0001
0000
0100
0000
0101
0000
0101
0000
0000
0000
1010
0000
0000
1010
0000
0000
1000
0000
0001
0000
0100
0000
0010
0000
,  // measure 26
1000
0000
0000
0000
0000
0000
0000
0000
0000
0000
0000
0000
0000
0000
0000
0000
0000
0000
1000
0000
0000
0000
0000
0000
0000
0000
0000
0000
0000
0000
0000
0000
0000
0000
0000
0000
0001
0000
0000
0000
0000
0000
0000
0000
0000
0000
0000
0000
0100
0000
0000
0000
0000
0000
0000
0000
0000
0000
0000
0000
0000
0000
0000
0000
0000
0000
0000
0000
0000
0000
0000
0000
0000
0000
0000
0000
0000
0000
0000
0000
0000
0000
0000
0000
0010
0000
0000
0000
0000
0000
0000
0000
0000
0000
0000
0000
0100
0000
0000
0000
0000
0000
0000
0000
0000
0000
0000
0000
0000
0000
0000
0000
0000
0000
0000
0000
0000
0000
0000
0000
0001
0000
0000
0000
0000
0000
0000
0000
0000
0000
0000
0000
0000
0000
0000
0000
0000
0000
0000
0000
0000
0000
0000
0000
1000
0000
0000
0000
0000
0000
0000
0000
0010
0000
0000
0000
0000
0000
0000
0000
1000
0000
0000
0000
0000
0000
0000
0000
0001
0000
0000
0000
0000
0000
0000
0000
0100
0000
0000
0000
0000
0000
0000
0000
0001
0000
0000
0000
0000
0000
0000
0000
,  // measure 27
1000
0000
0010
1000
0010
0000
0100
0000
0001
0000
0010
0001
0010
0000
0001
0000
,  // measure 28
1000
0000
0100
0010
0001
0000
1000
0000
0010
0000
0100
0001
0100
0000
0010
0000
,  // measure 29
1000
0000
0001
0100
0010
0000
0100
0000
0001
0000
1000
0010
0100
0000
0010
0000
,  // measure 30
1000
0000
0100
1000
0010
0000
0100
0000
0101
0000
0001
0000
0101
0000
0010
0000
,  // measure 31
1000
0000
0100
1000
0010
0000
0100
0000
0001
0100
0000
0100
0001
0000
1000
0000
,  // measure 32
0010
0000
1000
0001
1000
0000
0010
0000
0100
0001
0000
0001
1000
0000
0010
0000
,  // measure 33
0001
0001
0001
0000
0000
0000
1000
1000
1000
0000
0000
0000
,  // measure 34
0010
0000
0010
0000
0010
0000
0100
0000
0100
0000
0100
0000
2002
0000
0000
0000
0000
0000
3003
0000
0000
0010
0000
0000
,  // measure 35
0100
0000
0000
1000
0001
0000
0100
0000
0100
0000
0000
0100
0010
0000
1000
0000
,  // measure 36
0100
0000
0000
0100
1000
0000
0010
0000
0010
0000
0000
0010
0100
0000
0001
0000
,  // measure 37
1000
0000
0000
0100
1000
0000
0001
0000
1000
0000
0010
0000
1000
0000
0100
0000
,  // measure 38
0010
0000
0001
0100
0001
0000
0100
0000
0010
0000
1000
0000
0001
0000
0100
0000
,  // measure 39
0010
0000
0000
0010
1000
0000
0001
0000
0100
0000
0000
0100
0001
0000
1000
0000
,  // measure 40
0100
0000
0000
0100
0010
0000
0001
0000
1000
0000
0000
1000
0010
0000
0100
0000
,  // measure 41
0001
0000
1000
0001
0000
0000
1001
0000
1000
0000
0001
1000
0000
0000
1001
0000
,  // measure 42
1000
1000
0001
0001
1000
1000
0010
0010
0100
0100
0010
0010
,  // measure 43
1000
0001
0100
0000
2002
0000
3003
0000
,  // measure 44
0010
0000
0001
0100
0001
0000
0100
0000
0010
0000
1000
0100
1000
0000
0010
0000
,  // measure 45
1000
1100
1000
1010
1000
1001
0001
0100
,  // measure 46
0010
0000
0010
1000
0100
0000
0100
0000
1000
0000
1000
0001
0100
0000
0100
0000
,  // measure 47
0001
1001
0001
0101
0001
0011
0001
0100
,  // measure 48
0010
0000
1000
0010
1000
0000
0100
0000
0010
0000
0001
0100
0001
0000
0100
0000
,  // measure 49
0010
0000
1000
0001
1000
0000
0010
0000
0100
0000
0001
1000
0001
0000
1000
0000
,  // measure 50
0010
0000
0010
1000
0010
0000
0100
0000
0001
0100
0000
0100
0001
0000
1000
0000
,  // measure 51
0010
0000
1000
0000
0100
0000
0010
0000
0001
1000
0000
1000
0001
0000
0100
0000
,  // measure 52
0010
0000
1000
0100
1000
0000
0010
0000
0100
0000
0001
1000
0001
0000
0100
0000
,  // measure 53
1000
1001
1000
1010
1000
1100
0010
0001
,  // measure 54
0100
0000
0001
0100
0010
0000
0100
0000
0001
0000
1000
0100
0010
0000
0001
0000
,  // measure 55
0100
0110
0100
0101
0100
0110
0100
0001
,  // measure 56
1000
0000
0001
1000
0010
0000
1000
0000
0001
0100
0000
0100
0001
0000
1000
0000
,  // measure 57
0001
0000
0100
0010
0100
0000
0001
0000
1000
0010
0000
0010
1000
0000
0001
0000
,  // measure 58
0220
0000
0000
0330
,  // measure 59
1000
0001
1000
0001
1000
0001
1000
0000
,  // measure 60
1010
0010
0100
0110
0000
2002
0000
3003
,  // measure 61
0101
0100
0010
0110
0000
2002
0000
3003
,  // measure 62
1010
1000
0001
1001
0000
0220
0000
0330
,  // measure 63
0101
0001
1000
1001
0000
0220
0000
0330
,  // measure 64
1000
0000
0001
1000
0000
0001
1000
0000
0000
0000
2002
0000
0000
0000
3003
0000
,  // measure 65
0001
0000
1000
0001
0000
1000
0001
0000
0000
0000
2002
0000
0000
0000
3003
0000
,  // measure 66
0010
1000
0100
0020
0000
0032
0000
0203
,  // measure 67
0010
0000
0010
0010
0000
0310
1001
0000
,  // measure 68
1000
0000
0100
1000
0100
0000
1000
0010
1000
0000
0010
0100
0010
0000
0100
0000
,  // measure 69
0001
0000
1000
0010
1000
0000
0001
1000
0001
0000
1000
0100
0010
0000
0001
0000
,  // measure 70
1000
0000
0010
1000
0010
0000
0100
0001
0100
0000
0010
1000
0010
0000
0100
0000
,  // measure 71
0001
0000
1000
0100
1000
0000
0010
1000
0010
0000
1000
0010
1000
0000
0001
0000
,  // measure 72
0100
0000
0010
0100
0010
0000
0010
1000
0010
0000
0010
0100
0010
0000
1000
0000
,  // measure 73
0001
0000
0100
0001
0100
0000
0100
0010
0100
0000
0100
0001
0100
0000
0010
0000
,  // measure 74
1000
1001
1001
1001
0001
1001
1001
1001
,  // measure 75
0010
0100
0010
0100
0010
0100
0010
0000
1000
0001
1000
0001
1000
0001
1000
0000
,  // measure 76
2002
0000
0000
0000
,  // measure 77
0000
0000
0000
0000
,  // measure 78
3003
0000
0000
0000
;

//---------------dance-double - ----------------
#NOTES:
     dance-double:
     :
     Hard:
     15:
     0.791549,1.080464,0.692605,0.228152,0.480750,680.000000,595.000000,85.000000,28.000000,0.000000,0.000000,0.791549,1.080464,0.692605,0.228152,0.480750,680.000000,595.000000,85.000000,28.000000,0.000000,0.000000:
00000000
00000000
00000000
00000000
,
00000000
00000000
00000000
00000000
,
00000000
00000000
00000000
00000000
,
00000000
00000000
00000000
00000000
,
00000000
00000000
00000000
00000000
,
10000000
00000000
00010000
01000000
00010000
00000000
10000000
00000000
00100000
00000000
01000000
00010000
01000000
00000000
00100000
00000000
,
10000000
01000000
00100000
00010000
01000000
00100000
10000000
00000000
00000000
00110000
00000000
00000000
,
01000000
00000000
00010000
00100000
00010000
00000000
00100000
00000000
00001000
00000000
00010000
00000100
00010000
00000000
00000100
00000000
,
00001000
00001100
00001000
00001010
00001000
00001001
00001000
00000100
,
00001000
00000000
00000010
00001000
00000010
00000000
00001000
00000000
00000100
00000000
00010000
00001000
00010000
00000000
00001000
00000000
,
00100000
00110000
00010000
01010000
01000000
01100000
00100000
10000000
,
01000000
00000000
00100000
00010000
00100000
00000000
00010000
00000000
01000000
00000000
00100000
10000000
00100000
00000000
10000000
00000000
,
01000000
00100000
00010000
00100000
00001000
00010000
00001000
00010000
,
00000100
00000000
00001000
00000100
00000010
00000000
00000100
00000000
00000001
00000000
00001000
00000100
00000010
00000000
00000001
00000000
,
00001000
00001100
00001000
00001010
00001000
00001001
00001001
00000000
,
00000010
00000000
00001000
00000010
00001000
00000000
00000100
00000000
00010000
00000000
00001000
00010000
00001000
00000000
00010000
00000000
,
00001000
00101000
00100000
00101000
00001000
00011000
00010000
00001000
,
00100000
00000000
00010000
00100000
00010000
00000000
01000000
00000000
00100000
00000000
10000000
01000000
10000000
00000000
00100000
00000000
,
01000000
01010000
01000000
01100000
01000000
01010000
01000000
00010000
,
00000000
00100000
00001000
00010000
00000100
00000000
00001000
00000001
,
00000000
00001000
00000100
00000010
00000001
00001000
00000100
00010100
,
00000000
00000000
00010000
00001000
00010000
00000000
00001000
00000000
00100000
00000000
00010000
01000000
00100000
00000000
10000000
00000000
,
00010000
01000000
00100000
10000000
01000000
00100000
00010000
00000000
00000000
10010000
00000000
00000000
,
10100000
00000000
00000000
10000000
00000000
00000000
00100000
10000000
00100000
00000000
01000000
00000000
00010000
00000000
00110000
00000000
00000000
00000000
00100000
00000000
00000000
00100000
00000000
00000000
00110000
00000000
00100000
00000000
00001000
00000000
00010000
00000000
,
00000100
00000000
00000000
00000100
00000000
00000000
00001000
00000001
00002000
00000000
00000000
00000000
00000010
00000000
00003010
00000000
00000000
00000000
00001001
00000000
00000000
00001001
00000000
00000000
00001000
00000000
00000100
00000000
00010000
00000000
00001000
00000000
,
00100000
00000000
00000000
00100000
00000000
00000000
00010000
00000000
01000000
00000000
00100000
00000000
01100000
00000000
01100000
00000000
00000000
00000000
10010000
00000000
00000000
10010000
00000000
00000000
10000000
00000000
01000000
00000000
00100000
00000000
00010000
00000000
,
00100000
00000000
00000000
00000000
00000000
00000000
00000000
00000000
00000000
00000000
00000000
00000000
00000000
00000000
00000000
00000000
00000000
00000000
00100000
00000000
00000000
00000000
00000000
00000000
00000000
00000000
00000000
00000000
00000000
00000000
00000000
00000000
00000000
00000000
00000000
00000000
00010000
00000000
00000000
00000000
00000000
00000000
00100000
00000000
00000000
00000000
00000000
00000000
00010000
00000000
00000000
00000000
00000000
00000000
00000000
00000000
00000000
00000000
00000000
00000000
00100000
00000000
00000000
00000000
00000000
00000000
00000000
00000000
00000000
00000000
00000000
00000000
00001000
00000000
00000000
00000000
00000000
00000000
00000000
00000000
00000000
00000000
00000000
00000000
00010000
00000000
00000000
00000000
00000000
00000000
00000000
00000000
00000000
00000000
00000000
00000000
00000100
00000000
00000000
00000000
00000000
00000000
00000000
00000000
00000000
00000000
00000000
00000000
00000000
00000000
00000000
00000000
00000000
00000000
00000000
00000000
00000000
00000000
00000000
00000000
00001000
00000000
00000000
00000000
00000000
00000000
00000000
00000000
00000000
00000000
00000000
00000000
00000000
00000000
00000000
00000000
00000000
00000000
00000000
00000000
00000000
00000000
00000000
00000000
00000001
00000000
00000000
00000000
00000000
00000000
00000000
00000000
00000010
00000000
00000000
00000000
00000000
00000000
00000000
00000000
00000100
00000000
00000000
00000000
00000000
00000000
00000000
00000000
00000010
00000000
00000000
00000000
00000000
00000000
00000000
00000000
00000100
00000000
00000000
00000000
00000000
00000000
00000000
00000000
00001000
00000000
00000000
00000000
00000000
00000000
00000000
00000000
,
00000010
00001000
00000001
00001001
00001000
00000100
00010000
00010100
,
00010000
00001000
00100000
00110000
00010000
01010000
01000000
01100000
,
10000000
01000000
00100000
00110000
00100000
00001000
00010000
00011000
,
00010000
00000100
00001000
00000010
00000100
00000101
00000100
00000101
,
00000100
00000010
00001000
00000100
00010000
00001000
00010000
00011000
,
00001000
00100000
00010000
01000000
00100000
10100000
00100000
01100000
,
00010000
00010000
00010000
00000000
00000000
00000000
10000000
10000000
10000000
00000000
00000000
00000000
,
00100000
00000000
00100000
00000000
00100000
00000000
01000000
00000000
01000000
00000000
01000000
00000000
20020000
00000000
00000000
00000000
00000000
00000000
30030000
00000000
00000000
01000000
00000000
00000000
,
00100000
00000000
00000000
00100000
10000000
00000000
00010000
00000000
00100000
00000000
00000000
00100000
00001000
00000000
00010000
00000000
,
00000100
00000000
00000000
00000100
00001000
00000000
00000001
00000000
00000100
00000000
00000000
00000100
00000010
00000000
00001000
00000000
,
00000100
00010000
00001000
01000000
00010000
10000000
01000000
00200000
,
00000000
00301000
00010000
00001000
00022000
00033000
00010000
00000100
,
00001000
00000000
00000000
00001000
00000010
00000000
00000100
00000000
00000001
00000000
00000001
00001000
00000001
00000000
00001000
00000000
,
00000100
00000000
00000000
00000100
00010000
00000000
00001000
00000000
00010000
00000000
00010000
00001000
00010000
00000000
00001000
00000000
,
00100000
00000000
00000000
00100000
00010000
00000000
01000000
00000000
00100000
00000000
10000000
01000000
10000000
00000000
00100000
00000000
,
01000000
00010000
01000000
00100000
10000000
00100000
01000000
01000000
01000000
00100000
00100000
00100000
,
10000000
01000000
00100000
00000000
00022000
00000000
00033000
00000000
,
00010000
00000000
00000100
00010000
00000100
00000000
00001000
00000000
00000100
00000000
00000010
00000000
00000001
00000000
00001000
00000000
,
00000100
00000000
00010000
00001000
00010000
00000000
00011000
00000000
00001000
00000000
00101000
00000000
00100000
00000000
00110000
00000000
,
00010000
00000000
01000000
00010000
01000000
00000000
00100000
00000000
10000000
00000000
01000000
00000000
00100000
00000000
00010000
00000000
,
00100000
00000000
00001000
00100000
00001000
00000000
00101000
00000000
00100000
00000000
00110000
00000000
00010000
00000000
01010000
00000000
,
00100000
00000000
10000000
01000000
00100000
00000000
00010000
00000000
00100000
00000000
00001000
00000000
00010000
00000000
00000010
00000000
,
00001000
00000000
00000100
00000010
00000001
00000000
00001000
00000000
00000100
00000000
00010000
00000000
00001000
00000000
00011000
00000000
,
00001000
00000000
00100000
00010000
00100000
00000000
00010000
00000000
01000000
00000000
00100000
10000000
00100000
00000000
01000000
00000000
,
00010000
00110000
00100000
01100000
01000000
11000000
10010000
00000000
,
10010000
00000000
00100000
10000000
00100000
00000000
01000000
00000000
00010000
00000000
00100000
00000000
00010000
00000000
00110000
00000000
,
00100000
00101000
00001000
00011000
00010000
00010010
00000010
00001000
,
00000001
00000000
00001000
00000100
00000010
00000000
00000001
00000000
00001000
00000000
00000100
00000000
00010000
00000000
00011000
00000000
,
00001000
00101000
00100000
00110000
00010000
01010000
10010000
10010000
,
00100000
10000000
01000000
00100000
00001000
00010000
00001000
00011000
,
00000000
00010000
00000100
00001000
00000010
00000100
00000001
00001000
,
00002002
00000000
00000000
00003003
,
00000010
00000100
00000010
00000100
00000010
00000100
00000010
00000000
,
00001001
00000000
00001000
00000100
00000000
00022000
00000000
00033000
,
10010000
00000000
01000000
00010000
00000000
00022000
00000000
00033000
,
00001001
00000000
00000010
00001000
00000000
00022000
00000000
00033000
,
10010000
00000000
00100000
00010000
00000000
00022000
00000000
00033000
,
00001100
00000000
00000000
00001010
00000000
00000000
00001100
00000000
00000000
00000000
00022000
00000000
00000000
00000000
00033000
00000000
,
00110000
00000000
00000000
01010000
00000000
00000000
00110000
00000000
00000000
00000000
00022000
00000000
00000000
00000000
00033000
00000000
,
00000020
00000000
00001000
00002030
00000000
00003200
00000000
00020300
,
00001000
00000000
00001000
00001000
00000000
00031000
00011000
00000000
,
00001000
00000000
00100000
00010000
00100000
00000000
00010000
01000000
00010000
00000000
00010000
10000000
00010000
00000000
00100000
00000000
,
00001000
00000000
00010000
00001000
00010000
00000000
00010000
00000100
00010000
00000000
00010000
00000100
00001000
00000000
00000010
00000000
,
00000100
00000000
00000001
00001000
00000010
00000000
00001000
00000001
00000100
00000000
00000010
00000000
00001000
00000000
00000100
00000000
,
00010000
00000000
00001000
00010000
00001000
00000000
00001000
00010000
00001000
00000000
00100000
00000000
00010000
00000000
01000000
00000000
,
00100000
00000000
10000000
01000000
00100000
00000000
00010000
00000000
00100000
00000000
00001000
00010000
00001000
00000000
00010000
00000000
,
00000100
00000000
00001000
00000010
00001000
00000000
00001000
00000001
00001000
00000000
00001000
00000100
00001000
00000000
00000100
00000000
,
00010000
00000000
00000100
00001000
00000010
00000000
00000100
00000001
00001000
00000000
00000100
00000000
00010000
00000000
00001000
00000000
,
00010000
00001000
00010000
00001000
00010000
00001000
00010000
00000000
00001000
00010000
00001000
00010000
00001000
00000000
01000000
00000000
,
20020000
00000000
00000000
00000000
,
00000000
00000000
00000000
00000000
,
30030000
00000000
00000000
00000000
;

//---------------dance-double - ----------------
#NOTES:
     dance-double:
     :
     Medium:
     9:
     0.446992,0.508454,0.480750,0.081483,0.000000,384.000000,325.000000,59.000000,10.000000,0.000000,0.000000,0.446992,0.508454,0.480750,0.081483,0.000000,384.000000,325.000000,59.000000,10.000000,0.000000,0.000000:
00000000
00000000
00000000
00000000
,
00000000
00000000
00000000
00000000
,
00000000
00000000
00000000
00000000
,
00000000
00000000
00000000
00000000
,
00000000
00000000
00000000
00000000
,
10010000
00100000
00001000
00010000
,
00011000
00011000
00011000
00000000
,
00010000
00000000
00000100
00001000
00000000
00000010
00000000
00000100
,
00000000
00001001
00000000
00001001
00000000
00001001
00000000
00000000
,
00000010
00000000
00001000
00000100
00000000
00010000
00000000
00001000
,
00000000
00011000
00000000
00011000
00000000
00011000
00000000
00000000
,
00100000
00000000
00010000
01000000
00010000
00000000
10000000
00100000
,
10000000
00000000
00010000
00000000
00100000
00000000
00001000
00010000
,
00001000
00000000
00010000
00000000
00000010
00000000
00001000
00000001
,
00000100
00000010
00001000
00000100
,
00010000
00000000
00001000
00010000
00000000
00011000
00000000
00011000
,
00000000
00110000
00000000
01010000
00000000
10010000
00000000
00000000
,
00100000
00000000
00001000
00010000
00000000
00011000
00000000
00011000
,
00000000
00010100
00000000
00010010
00000000
00001000
00000100
00000010
,
00000000
00000100
00000001
00000000
00001000
00000000
00000010
00001000
,
00000000
00000100
00010000
00000000
00001000
00000000
00010000
00001000
,
00000000
00022000
00000000
00000000
00000000
00000000
00033000
00000000
,
00100000
00010000
10010000
00000000
,
00100000
00000000
01100000
00000000
10000000
01000000
00010000
00000000
,
00000100
00000000
00000110
00000000
00000001
00000100
00001000
00000000
,
00010000
00000000
01100000
00000000
10000000
00100000
00010000
00000000
,
00001000
00000000
00000110
00000000
00000001
00000100
00002000
00000000
,
00003010
00000000
00001000
00000000
00000100
00010000
00000100
00000000
,
00010000
00000000
00001000
00000000
00100000
00010000
01000000
00000000
,
00100000
00000000
10000000
00000000
00100000
00010000
00100000
00000000
,
00001000
00000000
00010000
00000000
00000010
00001000
00000100
00000000
,
00000010
00000000
00001001
00000000
00000010
00001000
00000100
00000000
,
00010000
00000000
00001000
00000000
00100000
00010000
01000000
00000000
,
10100000
00100000
01010000
01000000
,
00100000
10000000
00010000
00000000
01010000
00000000
00000000
00000000
,
00100000
00000000
00000000
10000000
00100000
00000000
00000000
01000000
,
00010000
00000000
00000000
00100000
00001000
00000000
00000000
00010000
,
00001000
00000000
00000000
00010000
00000000
00000100
00000000
00001000
,
00000000
00000001
00001000
00000001
00001000
00000000
00000000
00000000
,
00000000
00000100
00000010
00001000
,
00000100
00010000
00001000
01000000
,
00010000
10000000
00010000
00000000
10000000
00010000
10000000
00000000
,
00100000
01000000
00001000
00010000
,
00001000
00010000
00001000
00000000
00022000
00000000
00033000
00000000
,
00010000
00000000
00000100
00001000
00000000
00001010
00000000
00001001
,
00000000
00001100
00000000
00001100
00000000
00000100
00010000
00000000
,
00001000
00000000
00100000
00010000
00000000
01010000
00000000
10010000
,
00000000
10010000
00000000
00110000
00000000
00110000
00000000
00100000
,
00001000
00000000
00010000
00000100
00010000
00000100
00000000
00001000
,
00000000
00000010
00001000
00000000
00000001
00000000
00001000
00000001
,
00000000
00000000
00001000
00000100
00000000
00010000
00000000
00001000
,
00010000
00001000
00000000
00100000
00000000
00010000
01000000
00000000
,
10010000
00000000
10000000
01000000
00000000
00100000
00000000
00010000
,
00000000
00101000
00000000
00101000
00000000
00010000
00001000
00000000
,
00010000
00000000
00000100
00001000
00000000
00001010
00000000
00001001
,
00000000
00001100
00000000
00001100
00000000
00000100
00010000
00001000
,
00000000
00001000
00100000
00000000
00010000
00100000
01000000
10000000
,
00000000
00100000
01000000
00000000
00010000
00000000
10000000
00000000
,
20020000
00000000
00000000
30030000
,
00100000
00100000
00100000
10010000
,
10010000
00000000
00100000
00001000
00000000
00011000
00000000
00000000
,
00010100
00000000
00001000
00000010
00000000
00000101
00000000
00000000
,
00001010
00000000
00000100
00010000
00000000
00011000
00000000
00000000
,
00100000
00000000
00010000
01000000
00000000
10010000
00000000
00000000
,
00110000
00000000
00100000
00001000
00000000
00010100
00000000
00000000
,
00001000
00000000
00000010
00000100
00000000
00001001
00000000
00000000
,
00000010
00000000
00001000
00000100
00000000
00010000
00002000
00000000
,
00100000
00000000
00100000
00100000
00000000
00000000
00103000
00000000
,
00010000
01000000
00010000
00000000
10000000
00100000
10000000
00000000
,
00010000
00100000
00010000
00100000
00010000
00100000
00010000
00000000
,
00001000
00100000
00001000
00000000
00010000
00000100
00010000
00000000
,
00000010
00001000
00000010
00001000
00000010
00001000
00000010
00000000
,
00000100
00000001
00000100
00000000
00000010
00001000
00000100
00000000
,
00010000
00001000
00010000
00001000
00010000
00001000
00010000
00000000
,
00001000
00100000
00010000
00000000
01000000
00100000
10000000
00000000
,
00010000
00100000
00001000
00010000
,
00022000
00000000
00000000
00000000
,
00000000
00000000
00000000
00000000
,
00033000
00000000
00000000
00000000
;

//---------------dance-single - ----------------
#NOTES:
     dance-single:
     :
     Medium:
     9:
     0.490062,0.540232,0.602974,0.122224,0.008148,421.000000,347.000000,74.000000,15.000000,0.000000,0.000000,0.490062,0.540232,0.602974,0.122224,0.008148,421.000000,347.000000,74.000000,15.000000,0.000000,0.000000:
0000
0000
0000
0000
,
0000
0000
0000
0000
,
0000
0000
0000
0000
,
0000
0000
0000
0000
,
0000
0000
0000
0000
,
1000
0001
1000
0000
0001
1000
0001
0000
,
2000
3002
1003
1001
,
1000
0010
1000
0010
0000
0110
0000
1001
,
0000
1100
0000
0011
0000
1000
0010
0000
,
0001
1000
0001
1000
0000
0101
0000
1001
,
0000
0101
0000
0101
0000
1000
0010
0000
,
1000
0000
0000
1000
0010
1000
0000
1001
,
0000
1001
0000
0000
1001
0000
0100
0001
,
0000
0000
1000
0001
0000
0110
0000
1001
,
0000
0010
0000
0010
0000
1000
0100
0000
,
0001
1000
0001
1000
0000
1010
0000
1010
,
0000
0101
0000
0101
0000
1000
0010
0000
,
0100
0010
0100
0010
0000
1100
0000
0110
,
0000
0011
0000
0110
0000
1000
0010
0100
,
0000
0001
0001
0000
1000
0010
1000
0010
,
0000
0100
0100
0000
0001
0000
0100
0010
,
0000
0220
0000
0000
0000
0000
0330
0000
,
1100
0011
1100
0000
,
0001
0000
1010
0000
0001
0100
1000
0010
,
0001
0000
1100
0000
0001
1000
0010
0001
,
0100
0000
1010
0101
0000
1000
0100
0010
,
0001
0000
0100
0010
0000
1000
0002
0000
,
0103
0000
0110
0000
1000
0100
0010
0000
,
0100
0000
0110
0000
0001
0010
0100
0000
,
1000
0001
1000
0001
1000
0000
0010
0000
,
0100
0000
0001
0000
1000
0010
1000
0010
,
1000
0000
0001
0000
0100
0010
1000
0000
,
0001
0000
0100
0000
0010
1000
0100
0000
,
0010
0010
0010
0000
0100
0100
0100
0000
,
0001
0000
1000
0000
2002
0000
3003
0001
,
1000
0000
0000
1000
0010
0000
0000
0010
,
0100
0000
0000
0100
0001
0000
0000
0001
,
1000
0000
0010
0100
0000
1001
0000
1100
,
0000
0010
0001
0100
0010
0000
0000
0000
,
1001
0000
0001
1000
0000
0010
0000
1001
,
0000
1100
0000
0011
0000
0100
0010
1000
,
0001
0100
0010
1000
,
1001
1001
0110
0110
,
1000
0001
1000
0000
2002
0000
3003
0000
,
1000
0010
1000
0010
0000
0110
0000
1001
,
0000
1100
0000
0011
0000
1000
0010
0000
,
0001
1000
0001
1000
0000
0101
0000
1001
,
0000
0101
0000
0101
0000
1000
0010
0000
,
1000
0000
0000
1000
0010
1000
0000
1001
,
0000
1001
0000
0000
1001
0000
0100
0001
,
0000
0000
1000
0001
0000
0110
0000
1001
,
0000
0010
0000
0010
0000
1000
0100
0000
,
0001
1000
0001
1000
0000
1010
0000
1010
,
0000
0101
0000
0101
0000
1000
0010
0000
,
0100
0010
0100
0010
0000
1100
0000
0110
,
0000
0011
0000
0110
0000
1000
0010
0100
,
0000
0001
0001
0000
1000
0010
1000
0010
,
0000
0100
0100
0000
0001
0000
1000
0000
,
2002
0000
0000
3003
,
0010
0000
0010
0000
0010
0100
0010
0000
,
1000
0000
0001
0001
0000
1001
0000
0000
,
0001
0000
1000
1000
0000
1001
0000
0000
,
0010
0000
0100
0100
0000
0110
0000
0000
,
0100
0000
0010
0010
0000
0110
0000
0000
,
1000
0000
0000
1000
0000
0000
1000
0000
0000
0000
1001
0000
0000
0000
0000
0000
,
0001
0000
0000
0001
0000
0000
0001
0000
0000
0000
1001
0000
0000
0000
0000
0000
,
0100
0000
0010
0100
0000
0010
0000
0200
,
0020
0000
0330
1001
,
1000
0100
1000
0000
1000
0010
1000
0000
,
1000
0001
1000
0001
1000
0001
1000
0000
,
0001
0010
0001
0000
0001
0100
0001
0000
,
0001
1000
0001
1000
0001
1000
0001
0000
,
0100
0010
0100
0010
1000
0100
0010
0001
,
0100
0010
0100
0010
1000
0100
0010
0001
,
1000
0100
1000
0000
0001
0010
0001
0000
,
1000
0100
0010
0001
0100
0000
0010
0000
,
2002
0000
0000
0000
,
0000
0000
0000
0000
,
3003
0000
0000
0000
;

//---------------dance-single - ----------------
#NOTES:
     dance-single:
     :
     Beginner:
     3:
     0.147833,0.190670,0.057038,0.016297,0.000000,127.000000,120.000000,7.000000,2.000000,0.000000,0.000000,0.147833,0.190670,0.057038,0.016297,0.000000,127.000000,120.000000,7.000000,2.000000,0.000000,0.000000:
0000
0000
0000
0000
,
0000
0000
0000
0000
,
0000
0000
0000
0000
,
0000
0000
0000
0000
,
0000
0000
0000
0000
,
0001
0000
0001
0000
,
0001
0001
0001
0000
,
1000
0000
1000
0000
,
1000
0000
0000
0000
,
0001
0000
0001
0000
,
0001
0000
0000
0000
,
0100
0000
0100
0000
,
0010
0000
0010
0000
,
1000
0000
1000
0000
,
0001
0000
0001
0000
,
1000
0000
1000
0000
,
1000
0000
0000
0000
,
0001
0000
0001
0000
,
0001
0000
0000
0000
,
0100
0000
0010
0000
,
0100
0000
0010
0000
,
0100
0000
0000
0000
,
1001
0000
0000
0000
,
0000
0010
0000
0010
,
0000
1000
0000
1000
,
0000
0100
0000
0100
,
0000
0000
0000
0000
,
0001
0000
0001
0000
,
1000
0000
1000
0000
,
0010
0000
0010
0000
,
0100
0000
0100
0000
,
0001
0000
0100
0000
,
0010
0000
1000
0000
,
1000
0000
0001
0000
,
1000
1000
1000
0000
,
0001
0000
1000
0000
,
0010
0000
0100
0000
,
0001
0000
1000
0000
,
0100
0000
0000
0000
,
1000
0000
0100
0000
,
0010
0000
0001
0000
,
0100
0000
0010
0000
,
0100
0000
0000
0000
,
0010
0010
0010
0000
,
1000
0000
1000
0000
,
1000
0000
0000
0000
,
0001
0000
0001
0000
,
0001
0000
0000
0000
,
1000
0000
0100
0000
,
0010
0000
0001
0000
,
1000
0000
0010
0000
,
0100
0000
0001
0000
,
0100
0000
0100
0000
,
0100
0000
0000
0000
,
0010
0000
0010
0000
,
0010
0000
0000
0000
,
1000
0000
0001
0000
,
1000
0000
0001
0000
,
1001
0000
0000
0000
,
0000
0000
0000
0000
,
0010
0000
0000
0000
,
0110
0000
0000
0000
,
0010
0000
0000
0000
,
0110
0000
0000
0000
,
1000
0000
0000
0000
,
1001
0000
0000
0000
,
1000
0000
0000
0000
,
1001
0000
0000
0000
,
0010
0000
0010
0000
,
0100
0000
0100
0000
,
0010
0000
0010
0000
,
0100
0000
0100
0000
,
0001
0000
0001
0000
,
1000
0000
1000
0000
,
0001
0000
0001
0000
,
1000
0000
0000
0000
,
2002
0000
0000
0000
,
0000
0000
0000
0000
,
3003
0000
0000
0000
;

//---------------dance-single - ----------------
#NOTES:
     dance-single:
     :
     Easy:
     5:
     0.237465,0.349562,0.089631,0.032593,0.000000,204.000000,193.000000,11.000000,4.000000,0.000000,0.000000,0.237465,0.349562,0.089631,0.032593,0.000000,204.000000,193.000000,11.000000,4.000000,0.000000,0.000000:
0000
0000
0000
0000
,
0000
0000
0000
0000
,
0000
0000
0000
0000
,
0000
0000
0000
0000
,
0000
0000
0000
0000
,
1001
0000
1001
0000
,
0010
0010
0010
0000
,
1000
0001
1000
0001
,
1000
0000
0000
0000
,
0001
1000
0001
1000
,
0001
0000
0000
0000
,
0100
0010
0100
0000
,
0010
0100
0010
0000
,
1000
0001
1000
0000
,
0001
1000
0001
0000
,
1000
0100
0010
0001
,
1000
0000
0000
0000
,
0001
0010
0100
1000
,
0001
0000
0000
0000
,
0100
0100
0010
0000
,
0100
0010
0010
0000
,
1000
0000
0001
0000
,
0110
0000
1001
0000
,
0100
0010
0000
0010
,
1000
0001
0000
0001
,
1000
0100
0000
0100
,
0001
0100
0100
0000
,
0001
1000
0001
0000
,
1000
0001
1000
0000
,
0010
0100
0010
0000
,
0100
0010
0100
0000
,
0001
0010
0100
0000
,
0010
0100
1000
0000
,
1001
0000
1001
0000
,
1001
1001
1001
0000
,
0001
0000
1000
0000
,
0010
0000
0100
0000
,
0001
1000
0001
1000
,
0010
0010
0010
0000
,
1000
0000
0100
0000
,
0010
0000
0001
0000
,
0100
0010
0100
0000
,
0010
0000
0100
0000
,
0010
0010
0010
0000
,
1000
0001
1000
0001
,
1000
0000
0000
0000
,
0001
1000
0001
1000
,
0001
0000
0000
0000
,
1000
0010
0100
0000
,
0010
0100
0001
0000
,
1000
0100
0010
0000
,
0100
0010
0001
0000
,
0100
0010
0100
0010
,
0100
0000
0000
0000
,
0010
0100
0010
0100
,
0010
0000
0000
0000
,
1000
0100
0001
0000
,
1000
0010
0001
0000
,
2002
0000
0000
0000
,
3003
0000
0000
0000
,
0010
0100
0010
0000
,
0100
0010
0100
0000
,
0010
0100
0010
0000
,
0100
0010
0100
0000
,
1000
1000
1000
0000
,
0001
0001
0001
0000
,
1000
0001
1000
0000
,
0001
1000
0001
0000
,
0010
0100
0010
0000
,
0100
0010
0100
0000
,
0010
0100
0010
0000
,
0100
0010
0100
0000
,
0001
0100
1000
0000
,
1000
0100
0001
0000
,
0001
0010
1000
0000
,
1000
0010
0001
0000
,
2002
0000
0000
0000
,
0000
0000
0000
0000
,
3003
0000
0000
0000
;

//---------------dance-double - ----------------
#NOTES:
     dance-double:
     :
     Easy:
     6:
     0.245613,0.286005,0.057038,0.057038,0.000000,211.000000,204.000000,7.000000,7.000000,0.000000,0.000000,0.245613,0.286005,0.057038,0.057038,0.000000,211.000000,204.000000,7.000000,7.000000,0.000000,0.000000:
00000000
00000000
00000000
00000000
,
00000000
00000000
00000000
00000000
,
00000000
00000000
00000000
00000000
,
00000000
00000000
00000000
00000000
,
00000000
00000000
00000000
00000000
,
10000000
00000000
00010000
00000000
,
01000000
01000000
01000000
00000000
,
00010000
00100000
00010000
00100000
,
00010000
00000000
00100000
00000000
,
00001000
00010000
00001000
00010000
,
00001000
00000000
00010000
00000000
,
00000100
00000000
00001000
00000010
,
00000001
00000000
00000001
00000010
,
00001000
00000000
00000100
00000000
,
00010000
00001000
00010000
00000000
,
00001000
00100000
00001000
00100000
,
00001000
00000000
00100000
00000000
,
00010000
01000000
00010000
01000000
,
00010000
00000000
10000000
00000000
,
01000000
00100000
01000000
00000000
,
00100000
01000000
00100000
00000000
,
20000000
00000000
00000000
00000000
,
30010000
01000000
10010000
00000000
,
00100000
00001000
00000000
00010000
,
00000100
00001000
00000000
00000001
,
00001000
00000100
00000000
00010000
,
00001000
00100000
00000000
00000000
,
00010000
01000000
00010000
01000000
,
00010000
10000000
00010000
00000000
,
00100000
00001000
00100000
00001000
,
00010000
00001000
00010000
00000000
,
00000100
00001000
00000100
00000010
,
00000001
00000100
00000010
00000000
,
00001100
00000000
00000011
00000000
,
00002002
00000000
00003003
00000000
,
00000010
00000000
00001000
00000000
,
00000100
00000000
00010000
00000000
,
00001000
00010000
00001000
00010000
,
00000100
00000100
00000100
00000000
,
00001000
00000000
00000100
00000000
,
00000010
00000001
00000010
00000000
,
00000100
00000000
00010000
00000000
,
00001000
00000000
00010000
00000000
,
00010000
00001000
00011000
00000000
,
00001000
00100000
00001000
00100000
,
00010000
00000000
01000000
00000000
,
00100000
10000000
00100000
10000000
,
00010000
00000000
00100000
00000000
,
00001000
01000000
00001000
00000000
,
00010000
00001000
00010000
00000000
,
00000100
00000000
00001000
00000000
,
00000010
00000000
00000001
00000000
,
00000100
00000010
00000100
00000010
,
00001000
00000000
00000001
00000000
,
00001000
00000100
00001000
00000100
,
00010000
00000000
00001000
00000000
,
00100000
00010000
01000000
00000000
,
00100000
10000000
01000000
00000000
,
20020000
00000000
00000000
00000000
,
30030000
00000000
00000000
00000000
,
00100000
01000000
00100000
00000000
,
10000000
00010000
10000000
00000000
,
00100000
01000000
00100000
00000000
,
00010000
00000000
00100000
00000000
,
00001000
00010000
00001000
00000000
,
00010000
00000100
00010000
00000000
,
00001000
00000100
00000010
00000000
,
00000001
00000010
00000100
00000000
,
00001000
00000100
00000010
00000001
,
00001000
00000100
00010000
00001000
,
00100000
00010000
01000000
10000000
,
00010000
00100000
00001000
00010000
,
00000010
00001000
00000100
00000001
,
00001000
00000100
00010000
00001000
,
00100000
00010000
01000000
10000000
,
00100000
00001000
00010000
00000000
,
00022000
00000000
00000000
00000000
,
00000000
00000000
00000000
00000000
,
00033000
00000000
00000000
00000000
;
