#TITLE:キミの冒険;
#SUBTITLE:;
#ARTIST:岡崎体育;
#TITLETRANSLIT:KIMI NO BOUKEN;
#SUBTITLETRANSLIT:;
#ARTISTTRANSLIT:TAIIKU OKAZAKI;
#GENRE:;
#CREDIT:;
#BANNER:KIMI NO BOUKEN.png;
#BACKGROUND:KIMI NO BOUKEN-bg.png;
#LYRICSPATH:;
#CDTITLE:;
#MUSIC:KIMI NO BOUKEN.ogg;
#OFFSET:-0.052000;
#SAMPLESTART:56.240036;
#SAMPLELENGTH:12.200012;
#SELECTABLE:YES;
#DISPLAYBPM:200.000000;
#BPMS:0.000000=199.999863
,308.000000=160.000000
,309.500000=180.000000
,311.333344=150.000000
;
#STOPS:
;
#BGCHANGES:;
#KEYSOUNDS:;
#ATTACKS:;

//---------------dance-double - ----------------
#NOTES:
     dance-double:
     :
     Hard:
     11:
     0.549560,0.694160,0.352317,0.219008,0.009522,404.000000,367.000000,37.000000,23.000000,0.000000,0.000000,0.549560,0.694160,0.352317,0.219008,0.009522,404.000000,367.000000,37.000000,23.000000,0.000000,0.000000:
00000000
00000000
00000000
00000000
,
00000000
00000000
00000000
00000000
,
00000000
00000000
00000000
00000000
,
00000000
00000000
00000000
00000000
,
00000000
00000000
00000000
00000000
,
00000000
00000000
00000000
00000000
,
00000000
00000000
00000000
00000000
,
00000000
00000000
00000000
00000000
,
00000000
00000000
00000000
00000000
,
00100000
00000000
00110000
00000000
10000000
00010000
00000000
01000000
,
00000000
00010000
00000000
00100000
00000000
00100000
00001000
00000000
,
00010000
00000000
00011000
00000000
00010000
00000100
00000000
00001000
,
00000000
00000010
00000000
00000100
00000000
00000001
00001000
00000000
,
00000010
00000000
00001010
00000000
00001000
00000100
00000000
00010000
,
00000000
00001000
00010000
00001000
00100000
00010000
00100000
00010000
,
01000000
00000000
00100000
10000000
00100000
00000000
01000000
00010000
,
00000000
00010000
10000000
00100000
10000000
01000000
00100000
00010000
,
00100000
00010000
10000000
01000000
00100000
00010000
00000000
00010000
,
00000000
00100000
00001000
00000000
00010000
00000100
00010000
00001000
,
00010000
00000000
00000100
00001000
00000100
00001000
00000010
00000100
,
00000001
00000000
00000001
00001000
00000000
00001000
00000010
00001000
,
00000100
00001100
00000110
00000011
,
00002000
00003010
00000200
00000301
,
00001001
00000000
00000010
00001000
00000100
00000000
00000100
00001000
,
00000000
00001000
00000100
00010000
00000100
00001000
00000100
00010000
,
00001000
00010000
00000000
00000000
00001000
00000000
00100000
00010000
,
00100000
00010000
00000000
00000000
00000000
00000000
20000000
00000000
,
30200000
00000000
02000000
03300000
10000000
00100000
01000000
00010000
,
00100000
00000000
00110000
00000000
10000000
00010000
01000000
00010000
,
00200000
00000000
00301000
00010000
00002000
00000000
00013000
00000000
,
00000100
00001000
00000100
00001000
00000001
00000010
00000100
00001000
,
00000010
00000100
00000010
00000100
00000001
00001000
00000100
00001000
,
00000100
00010000
00001000
01000000
,
00010000
00100000
00010000
00100000
01000000
10000000
01000000
10000000
,
00100000
01000000
00001000
00010000
,
00000020
00002030
00003002
00000203
,
00000320
00000230
00000302
00002003
,
00003100
00000000
00000100
00010000
00001000
00000000
00010000
00001000
,
00010000
00001000
00101000
00100000
,
00010000
01000000
00100000
10000000
00010000
01000000
00000000
00100000
,
01000000
00000000
01000000
00010000
01000000
00000000
00001000
00000000
,
00010000
00000100
00001000
00000001
,
00000100
00000000
00000010
00001000
00000100
00000000
00001001
00000000
,
00001100
00001100
00000011
00000011
,
00001010
00010010
00001010
00010010
,
00010000
00001000
00010000
00001000
00100000
00001000
00100000
00010000
,
02000000
00000000
03000000
00000000
,
00100000
10000000
00100000
10000000
00100000
00000000
01000000
00010000
,
00000000
00100000
00001000
00010000
00001000
00000000
00010000
00000000
,
00010100
00001100
00001010
00001100
,
00001001
00000000
00000002
00000203
,
00000310
00000000
00000001
00001000
00000000
00001010
00000000
00001000
,
00000000
00000100
00010000
00001000
00010000
00000000
00001000
00000000
,
00100000
00010000
00100000
00000000
00010000
01000000
00010000
00000000
,
10000000
01000000
00100000
00010000
01000000
00000000
10010000
00000000
,
10000000
00100000
01000000
00100000
10000000
00000000
00010000
00100000
,
00000000
00100000
00001000
00000000
00011000
00000000
00010100
00000000
,
00001100
00001001
00001010
00001001
,
00001100
00000000
00000100
00010000
00002000
00000000
00023000
00000000
,
00031000
00000000
00100000
00010000
01000000
00100000
01000000
00010000
,
10000000
00010000
10000000
00010000
10000000
00000000
00000000
00000000
,
00010000
00000000
00010000
01000000
00000000
01000000
00100000
00000000
,
01000000
00010000
00100000
00000000
00001000
00100000
00001000
00100000
,
00010000
00000000
00100000
00000000
00001000
00010000
00000100
00010000
,
00001000
00010000
00001000
00000000
00010000
00000100
00001000
00000100
,
00001000
00000000
00000001
00000000
00001000
00000000
00000100
00000010
,
00000001
00000000
00001000
00000100
00000010
00000000
00001000
00000000
,
00001002
00001000
00000100
00000100
,
00000010
00000010
00001000
00001003
,
00001100
00000000
00000110
00000000
00000011
00000000
00001000
00000100
,
00010000
00000000
00001000
00010000
00001000
00000000
00010000
00000000
,
00001000
00000000
00100000
00000000
00010000
01000000
00000000
00100000
,
00000000
10000000
00100000
01000000
00000000
00010000
01000000
00100000
,
10000000
00000000
00010000
00000000
00100000
00001000
00000000
00010000
,
00000000
00001000
00010000
00000100
00000000
00001000
00000100
00000010
,
00000001
00000000
00001000
00000000
00000100
00010000
00000000
00001000
,
00000000
00010000
00001000
00100000
00010000
10000000
01000000
00100000
,
00000000
00000000
00000000
00000000
00000000
00000000
00000000
00000000
00000000
10000000
00000000
00010000
00000000
10000000
00000000
00000000
00000000
00000000
00000000
00000000
00000000
00000000
00000000
00000000
,
00000000
02200000
00000000
00000000
,
00000000
00000000
00000000
00000000
,
00000000
00000000
00000000
00000000
,
03300000
00000000
00000000
00000000
;

//---------------dance-double - ----------------
#NOTES:
     dance-double:
     :
     Medium:
     8:
     0.352317,0.424209,0.133309,0.133309,0.000000,259.000000,245.000000,14.000000,14.000000,0.000000,0.000000,0.352317,0.424209,0.133309,0.133309,0.000000,259.000000,245.000000,14.000000,14.000000,0.000000,0.000000:
00000000
00000000
00000000
00000000
,
00000000
00000000
00000000
00000000
,
00000000
00000000
00000000
00000000
,
00000000
00000000
00000000
00000000
,
00000000
00000000
00000000
00000000
,
00000000
00000000
00000000
00000000
,
00000000
00000000
00000000
00000000
,
00000000
00000000
00000000
00000000
,
00000000
00000000
00000000
00000000
,
00100000
00000000
10000000
00000000
00010000
00000000
00000000
01000000
,
00000000
00001000
00000000
00010000
00000000
00000000
00010000
00000000
,
00000100
00000000
00001000
00000000
00000001
00000000
00000000
00000001
,
00000000
00001000
00000000
00000100
00000000
00000000
00000100
00000000
,
00010000
00000000
00001000
00000000
00010000
00000000
00000000
00001000
,
00000000
00100000
00010000
01000000
,
00100000
00100000
10000000
00010000
,
00100000
00000000
00001000
00000000
00010000
00001000
00010000
00000000
,
00001000
00010000
00000100
00001000
,
00000010
00000000
00000100
00000000
00000001
00001000
00000001
00000000
,
00001000
00000010
00000100
00000001
,
00001000
00000100
00010000
00001000
,
01000000
00010000
10000000
00100000
,
01000000
01000000
10010000
00000000
,
00100000
00001000
00010000
00001000
,
00100000
00000000
00001000
00000000
00010000
00001000
00010000
00000000
,
00000010
00000000
00001000
00000000
00000001
00000100
00000001
00000000
,
00001000
00000000
00000100
00000000
00001000
00000100
00001000
00000000
,
00000100
00000010
00000001
00001000
,
00000100
00010000
00001000
01000000
,
00020000
00000000
20030000
00000000
,
30100000
01000000
00010000
10000000
,
00100000
00100000
01000000
00000000
,
00001000
00010000
00001000
00010000
,
00000010
00000010
00000100
00000000
,
00000010
00010000
00000100
00010000
,
00001000
00001000
00100000
00100000
,
00010000
01000000
10000000
01000000
,
00010000
00000000
00000000
00100000
00000000
00000000
00010000
00000000
,
00100000
00001000
00010000
00000000
,
00010000
00010000
00000010
00000010
,
00001000
00000100
00000010
00000001
,
00001000
00001000
00000100
00010000
,
00001000
00001000
01000000
00010000
,
10000000
01000000
00100000
00010000
,
01000000
00001000
00010000
00000100
,
00001000
00000100
00000010
00000001
,
00002002
00000000
00003003
00000000
,
00000010
00000000
00001000
00000000
00000100
00000000
00000000
00001001
,
00000000
00000001
00000100
00001000
,
00000010
00000010
00001000
00000100
,
00010000
00000000
00001000
00001000
,
01000000
00010000
10000000
00100000
,
10000000
01000000
00100000
00010000
,
00100000
00100000
00001000
00001000
,
00010000
00000000
00011000
00000000
,
00000100
00000000
00001000
00000000
00000010
00000000
00000000
00001001
,
00000000
00000100
00000001
00001000
,
00000010
00001000
00000100
00010000
,
00001000
00000000
00100000
00010000
,
01000000
01000000
00100000
00100000
,
10000000
00010000
01000000
00000000
,
00100000
00000000
00000000
10000000
00000000
00000000
00010000
00000000
,
20020000
30030000
02200000
03300000
,
20020000
00000000
30030000
00100000
,
00001000
00010000
00000000
00010000
,
00000200
00000000
00000300
00001000
,
00000010
00000100
00001001
00000010
,
00001002
00001000
00001000
00001000
,
00000100
00000100
00000100
00000100
,
00000010
00000010
00000013
00000001
,
00001001
00000000
00001100
00000000
,
00000010
00000000
00001000
00000000
00000100
00000000
00000000
00010000
,
00000000
00001000
00000000
01000000
00000000
00000000
00010000
00000000
,
10000000
00000000
01000000
00000000
00100000
00000000
00000000
00100000
,
00000000
00001000
00000000
00010000
00000000
00000000
00010000
00000000
,
00000100
00000000
00001000
00000000
00000010
00000000
00000000
00001001
,
00000000
00001000
00000100
00010000
,
00000000
00000000
00000000
00000000
,
00000000
00022000
00000000
00000000
,
00000000
00000000
00000000
00000000
,
00000000
00000000
00000000
00000000
,
00033000
00000000
00000000
00000000
;

//---------------dance-double - ----------------
#NOTES:
     dance-double:
     :
     Easy:
     6:
     0.224449,0.308516,0.047610,0.123787,0.000000,165.000000,160.000000,5.000000,13.000000,0.000000,0.000000,0.224449,0.308516,0.047610,0.123787,0.000000,165.000000,160.000000,5.000000,13.000000,0.000000,0.000000:
00000000
00000000
00000000
00000000
,
00000000
00000000
00000000
00000000
,
00000000
00000000
00000000
00000000
,
00000000
00000000
00000000
00000000
,
00000000
00000000
00000000
00000000
,
00000000
00000000
00000000
00000000
,
00000000
00000000
00000000
00000000
,
00000000
00000000
00000000
00000000
,
00000000
00000000
00000000
00000000
,
00100000
00000000
00001000
00000000
,
00010000
00000000
00000010
00000000
,
00001000
00000000
00000100
00000000
,
00010000
00000000
00001000
00000000
,
01000000
00000000
00010000
00000000
,
10000000
01000000
00100000
00010000
,
10000000
00010000
00000000
00010000
,
00000000
00100000
00000000
00100000
,
00000000
00010000
00000000
01000000
,
00000000
10000000
00000000
01000000
,
00000000
00010000
00000000
00100000
,
00000000
00001000
00000000
00010000
,
00000000
00000010
00000000
00001000
,
00000000
00000001
00000000
00000100
,
00000001
00001000
00000000
00000010
,
00000000
00001000
00000000
00000100
,
00000000
00000100
00000000
00010000
,
00000000
00010000
00000000
00001000
,
00100000
00001000
00000000
00100000
,
00000000
00010000
00000000
01000000
,
00100000
00000000
10010000
00000000
,
00100000
10000000
00100000
00000000
,
02000000
00000000
03020000
00000000
,
00130000
00100000
00000000
00000000
,
00002000
00000000
00023000
00000000
,
00030010
00000010
00000000
00000000
,
00001000
00000100
00000010
00000000
,
00000001
00000100
00000010
00000000
,
00001000
00000000
00000100
00000000
,
00020000
00000000
00031000
00000000
,
00001000
00001000
00100000
00000000
,
00010000
01000000
10000000
00000000
,
01000000
01000000
00010000
00000000
,
00100000
00000000
00001000
00000000
,
00010000
00010000
00001000
00000000
,
00001000
00001000
00010000
00000000
,
00000010
00000000
00001000
00000000
,
00002002
00000000
00003003
00000000
,
00000010
00000010
00000100
00000000
,
00000001
00000001
00001000
00000000
,
00000001
00000010
00000100
00001000
,
00000001
00000000
00001000
00000000
,
00000100
00000000
00010000
00000000
,
00001000
00000000
01000000
00000000
,
00010000
00100000
01000000
10000000
,
00100000
00000000
01000000
00000000
,
10000000
10000000
00010000
00000000
,
01000000
01000000
00100000
00000000
,
01000000
00000000
00001000
00000000
,
00010000
00000000
00000100
00000000
,
00001000
00000100
00000010
00000000
,
00000100
00000010
00000001
00000000
,
00001000
00000000
00000001
00000000
,
00002002
00000000
00003003
00000000
,
00000010
00000000
00000100
00000000
,
00000001
00000100
00001000
00000000
,
00000100
00000000
00010000
00000000
,
00001000
01000000
00010000
00000000
,
20020000
00000000
00000000
00000000
,
00000000
00000000
00000000
00000000
,
30030000
00000000
00000000
01000000
,
00010000
00000000
00100000
00000000
,
00001000
00000000
00010000
00000000
,
00000010
00001000
00000001
00000000
,
00001000
00000000
00000100
00000000
,
00010000
00001000
01000000
00000000
,
00100000
00000000
10000000
00000000
,
00010000
00100000
01000000
10000000
,
00000000
00000000
00000000
00000000
,
00000000
20020000
00000000
00000000
,
00000000
00000000
00000000
00000000
,
00000000
00000000
00000000
00000000
,
30030000
00000000
00000000
00000000
;

//---------------dance-single - ----------------
#NOTES:
     dance-single:
     :
     Easy:
     6:
     0.233971,0.347080,0.133309,0.171398,0.000000,172.000000,158.000000,14.000000,18.000000,0.000000,0.000000,0.233971,0.347080,0.133309,0.171398,0.000000,172.000000,158.000000,14.000000,18.000000,0.000000,0.000000:
0000
0000
0000
0000
,
0000
0000
0000
0000
,
0000
0000
0000
0000
,
0000
0000
0000
0000
,
0000
0000
0000
0000
,
0000
0000
0000
0000
,
0000
0000
0000
0000
,
0000
0000
0000
0000
,
0000
0000
0000
0000
,
0010
0000
1000
0000
,
0100
0000
0001
0000
,
0010
0000
0001
0000
,
0100
0000
1000
0000
,
0010
0000
1001
0000
,
1000
0100
0010
0001
,
1000
0001
0000
0001
,
0000
0001
0000
0001
,
1000
0100
0000
0100
,
0000
0100
0000
1000
,
0010
0100
0000
0100
,
0000
0001
0000
0001
,
1000
0000
0010
0000
,
0100
0000
0001
0000
,
2000
0010
0000
0010
,
0000
3010
0000
0100
,
0002
0010
0000
0010
,
0000
0013
0000
0001
,
0100
0010
0000
0100
,
0010
1000
0000
0001
,
1000
0000
2002
0000
,
3003
0000
0000
0000
,
0010
0000
1000
0000
,
0001
0001
0000
0000
,
0010
0000
0001
0000
,
1000
1000
0000
0000
,
0001
0100
0001
0000
,
1000
0100
1000
0000
,
0010
0000
0100
0000
,
2002
0000
3003
0000
,
0010
0000
1001
0000
,
0100
0000
1001
0000
,
0010
1000
0010
1000
,
0010
0000
0100
0000
,
0001
0000
1000
0000
,
0010
0000
0100
0000
,
0001
0000
1000
0000
,
2002
0000
3003
0000
,
0010
0010
0010
0000
,
1000
0100
0001
0000
,
1000
0010
0100
0010
,
1000
0000
1001
0000
,
0100
0100
0100
0000
,
0001
0100
1000
0000
,
0001
0100
0010
0100
,
0001
0000
1001
0000
,
0010
0100
0010
0000
,
1000
0001
1000
0000
,
0001
0010
0100
1000
,
1001
0000
0010
0000
,
1000
0100
1000
0000
,
0001
0100
0001
0000
,
0010
0000
0100
0000
,
2002
0000
3003
0000
,
0220
0000
0330
0000
,
0001
0100
1000
0000
,
0220
0000
0330
0000
,
1000
0100
0001
0000
,
2002
0000
0000
0000
,
0000
0000
0000
0000
,
0000
0000
3003
0000
,
0010
0000
0100
0000
,
1000
0000
0001
0000
,
1000
0001
1000
0000
,
0100
0000
0010
0000
,
0001
1000
0001
0000
,
1000
0000
0001
0000
,
1000
0100
0010
0001
,
0000
0000
0000
0000
,
0000
2002
0000
0000
,
0000
0000
0000
0000
,
0000
0000
0000
0000
,
3003
0000
0000
0000
;

//---------------dance-single - ----------------
#NOTES:
     dance-single:
     :
     Beginner:
     2:
     0.093861,0.154258,0.019044,0.038088,0.000000,69.000000,67.000000,2.000000,4.000000,0.000000,0.000000,0.093861,0.154258,0.019044,0.038088,0.000000,69.000000,67.000000,2.000000,4.000000,0.000000,0.000000:
0000
0000
0000
0000
,
0000
0000
0000
0000
,
0000
0000
0000
0000
,
0000
0000
0000
0000
,
0000
0000
0000
0000
,
0000
0000
0000
0000
,
0000
0000
0000
0000
,
0000
0000
0000
0000
,
0000
0000
0000
0000
,
0010
0000
0000
0000
,
0100
0000
0000
0000
,
1000
0000
0000
0000
,
0001
0000
0000
0000
,
0010
0000
0000
0000
,
0100
0000
0000
0000
,
1000
0000
0000
0000
,
1000
0000
0000
0000
,
0001
0000
0000
0000
,
0001
0000
0000
0000
,
0010
0000
0000
0000
,
0010
0000
0000
0000
,
0100
0000
0000
0000
,
0100
0000
0000
0000
,
1000
0000
0000
0000
,
1000
0000
0000
0000
,
0001
0000
0000
0000
,
0001
0000
0000
0000
,
0100
0000
0000
0000
,
0010
0000
0000
0000
,
0100
0000
0000
0000
,
0100
0000
0000
0000
,
0010
0000
0000
0000
,
0001
0000
0000
0000
,
0100
0000
0000
0000
,
1000
0000
0000
0000
,
0001
0000
0000
0000
,
0100
0000
0000
0000
,
1000
0000
0000
0000
,
0010
0000
0000
0000
,
1000
0000
0000
0000
,
0100
0000
0000
0000
,
0010
0000
0000
0000
,
0001
0000
0000
0000
,
0100
0000
0000
0000
,
0010
0000
0000
0000
,
0100
0000
0000
0000
,
0100
0000
0000
0000
,
0010
0000
0000
0000
,
1000
0000
0000
0000
,
1000
0000
0000
0000
,
0001
0000
0000
0000
,
0100
0000
0000
0000
,
0001
0000
0000
0000
,
1000
0000
0000
0000
,
0010
0000
0000
0000
,
0100
0000
0000
0000
,
1000
0000
0000
0000
,
0001
0000
0000
0000
,
1000
0000
0000
0000
,
1000
0000
0000
0000
,
0001
0000
0000
0000
,
0010
0000
0000
0000
,
0001
0000
0000
0000
,
0100
0000
0000
0000
,
0001
0000
0000
0000
,
0100
0000
0000
0000
,
1000
0000
0000
0000
,
2002
0000
0000
0000
,
0000
0000
0000
0000
,
3003
0000
0000
0000
,
0010
0000
0000
0000
,
1000
0000
0000
0000
,
0001
0000
0000
0000
,
0100
0000
0000
0000
,
0001
0000
0000
0000
,
1000
0000
0000
0000
,
0001
0000
0000
0000
,
0000
0000
0000
0000
,
0000
2002
0000
0000
,
0000
0000
0000
0000
,
0000
0000
0000
0000
,
3003
0000
0000
0000
;

//---------------dance-single - ----------------
#NOTES:
     dance-single:
     :
     Medium:
     8:
     0.363200,0.424209,0.171398,0.142831,0.000000,267.000000,249.000000,18.000000,15.000000,0.000000,0.000000,0.363200,0.424209,0.171398,0.142831,0.000000,267.000000,249.000000,18.000000,15.000000,0.000000,0.000000:
0000
0000
0000
0000
,
0000
0000
0000
0000
,
0000
0000
0000
0000
,
0000
0000
0000
0000
,
0000
0000
0000
0000
,
0000
0000
0000
0000
,
0000
0000
0000
0000
,
0000
0000
0000
0000
,
0000
0000
0000
0000
,
0010
0000
1000
0000
0001
0000
0000
0100
,
0000
0001
0000
1000
0000
0000
0001
0000
,
1000
0000
0010
0000
0100
0000
0000
0001
,
0000
1000
0000
0010
0000
0000
1000
0000
,
0001
0000
0100
0000
0010
0000
0000
0100
,
0000
0001
1000
0001
,
1000
0001
1000
0001
,
1000
0100
0010
0001
,
1000
0001
1000
0001
,
1000
0000
0010
0000
0100
0010
0100
0000
,
0010
1000
0010
0100
,
0001
0010
0100
1000
,
0001
0000
1000
0000
0001
0000
0100
0010
,
0100
0100
1001
0000
,
0010
1000
0001
1000
,
0010
0100
0001
1000
,
0010
0100
0000
0000
0001
1000
0001
0000
,
1000
0010
0000
0000
1000
0001
1000
0000
,
0001
0100
0010
1000
,
0001
0010
0100
1000
,
0002
0000
2003
0000
,
3010
0100
0001
1000
,
0010
0010
0100
0001
,
1001
1001
0000
0000
,
0010
0100
0001
1000
,
1001
1001
0000
1000
,
0001
1000
0010
0010
,
1000
0001
1000
0100
,
0010
0000
0000
0001
0000
0000
0100
0000
,
0010
0000
1001
0000
,
0001
0010
0100
0000
,
1000
0100
0010
0000
,
0001
0100
0010
1000
,
0001
0000
0100
0001
,
1000
0100
0010
0001
,
0100
0010
1000
0001
,
1000
0100
0010
0001
,
2002
0000
3003
0000
,
0010
0000
1000
0000
0001
0000
0000
0001
,
0000
0001
1000
0000
0010
0000
0100
0000
,
0001
1000
0001
0000
1000
0000
1000
0000
,
0010
0000
1000
0001
,
0100
0001
1000
0010
,
1000
0100
0010
0001
,
0010
0010
0001
0100
,
0010
0010
1001
0000
,
0001
0000
0100
0000
0010
0000
0000
1000
,
0000
1000
0001
0000
1000
0000
0010
0000
,
0100
0010
0100
0000
0001
0000
1000
0000
,
1001
0000
0010
0100
,
0001
1000
0010
0010
,
1000
0001
0100
0100
,
0010
0000
0000
1000
0000
0000
0001
0000
,
2002
3003
0220
0330
,
2002
0000
3003
0010
,
0100
0000
0001
0000
1000
0001
1000
0000
,
2002
0000
3003
1000
,
0010
0100
0001
1000
,
1002
1000
1000
1000
,
0100
0100
0100
0100
,
0010
0010
0013
0010
,
1001
0000
0110
0000
,
0001
0000
0100
0000
0010
0000
0000
0010
,
0000
0010
0000
0100
0000
0000
0001
0000
,
1000
0000
0100
0000
0010
0000
0000
0010
,
0000
0001
0000
0100
0000
0000
0010
0000
,
0010
0000
1000
0000
0001
0000
0000
1001
,
0000
0000
0100
0000
0010
0100
0010
0100
,
0000
0000
0000
0000
,
0000
2002
0000
0000
,
0000
0000
0000
0000
,
0000
0000
0000
0000
,
3003
0000
0000
0000
;

//---------------dance-single - ----------------
#NOTES:
     dance-single:
     :
     Hard:
     12:
     0.561803,0.655596,0.352317,0.228530,0.009522,413.000000,376.000000,37.000000,24.000000,0.000000,0.000000,0.561803,0.655596,0.352317,0.228530,0.009522,413.000000,376.000000,37.000000,24.000000,0.000000,0.000000:
// measure 0
0000
0000
0000
0000
,  // measure 1
0000
0000
0000
0000
,  // measure 2
0000
0000
0000
0000
,  // measure 3
0000
0000
0000
0000
,  // measure 4
0000
0000
0000
0000
,  // measure 5
0000
0000
0000
0000
,  // measure 6
0000
0000
0000
0000
,  // measure 7
0000
0000
0000
0000
,  // measure 8
0000
0000
0000
0000
,  // measure 9
0010
0000
0011
0000
1000
0001
0000
0100
,  // measure 10
0000
0101
0000
1010
0000
0100
0001
0000
,  // measure 11
1000
0000
0001
0000
0100
0010
0000
1010
,  // measure 12
0000
0101
0000
1001
0000
0100
0010
0000
,  // measure 13
1000
0000
1001
0000
1000
0100
0000
0010
,  // measure 14
0000
0001
0100
0001
0010
0001
1000
0100
,  // measure 15
0010
0001
1000
0010
1000
0000
0100
0001
,  // measure 16
0000
0001
1000
0010
1000
0100
0010
0001
,  // measure 17
0010
0001
1000
0100
0010
0001
0000
1000
,  // measure 18
0000
0001
1000
0000
0001
0100
0001
1000
,  // measure 19
0001
0000
1000
0010
1000
0010
0100
0000
,  // measure 20
1000
0000
1000
0010
0000
0010
1000
0100
,  // measure 21
1000
1010
0110
0101
,  // measure 22
2000
3001
0200
0310
,  // measure 23
1001
0000
1000
0100
0010
0000
0100
0010
,  // measure 24
0000
0010
0001
0000
0001
0100
0001
1000
,  // measure 25
0001
0100
0000
0000
0010
0000
1000
0001
,  // measure 26
1000
0001
0000
0000
0000
0000
2000
0000
,  // measure 27
3020
0000
0200
0330
1000
0010
0100
0001
,  // measure 28
0010
0000
0011
0000
1000
0001
0100
0001
,  // measure 29
0020
0000
0031
1000
0002
0000
0103
0000
,  // measure 30
0010
1000
0010
1000
0001
0100
0010
1000
,  // measure 31
0010
0100
0010
0100
0001
1000
0010
0100
,  // measure 32
0001
1001
1000
1001
,  // measure 33
0001
0010
0001
0010
0100
1000
0100
1000
,  // measure 34
0010
0110
1000
0200
,  // measure 35
0320
0032
2003
3020
,  // measure 36
0230
0320
2030
3002
,  // measure 37
0013
0000
0010
0001
0100
0000
0100
0010
,  // measure 38
1000
0000
1000
0001
0100
0000
0110
0000
,  // measure 39
0001
0100
0010
1000
0001
0100
0000
0010
,  // measure 40
0100
0000
0100
0001
0100
0010
0100
0001
,  // measure 41
1000
0010
0110
1001
,  // measure 42
0110
0000
1100
0101
,  // measure 43
1000
0010
1000
0000
0001
0100
0001
0000
,  // measure 44
1000
0010
0100
0000
0010
0100
0001
0000
,  // measure 45
1000
0010
1000
0010
0100
0001
0100
0001
,  // measure 46
2000
0000
3000
0000
,  // measure 47
0010
1000
0010
1000
0010
0000
0100
0001
,  // measure 48
0000
0010
0001
1000
0001
0100
0001
0000
,  // measure 49
0101
1010
1100
0011
,  // measure 50
1001
0000
0020
0230
,  // measure 51
0301
0000
1000
0010
0000
1001
0000
1000
,  // measure 52
0000
0010
1000
0010
0100
0000
0001
0000
,  // measure 53
0010
0001
0010
0000
0001
0100
0001
0000
,  // measure 54
1000
0100
0010
0001
0100
0000
1001
0000
,  // measure 55
1000
0010
0100
0010
1000
0000
0001
0010
,  // measure 56
0000
0010
0001
0000
1001
0000
0101
0000
,  // measure 57
0011
0101
1001
0110
,  // measure 58
1001
0000
0001
0100
0020
0000
2030
0000
,  // measure 59
3001
0000
0010
0001
0100
0010
0100
0001
,  // measure 60
1000
0001
1000
0001
1000
0000
0100
0010
,  // measure 61
1000
0000
1000
0001
0000
0001
0100
0000
,  // measure 62
0100
0010
0100
0000
0001
1000
0010
1000
,  // measure 63
0001
0000
0100
0000
0010
1000
0010
0100
,  // measure 64
0001
0100
0010
0000
1000
0100
0010
0001
,  // measure 65
1000
0000
0001
0000
1000
0000
0010
0100
,  // measure 66
0001
0000
0100
0010
1000
0000
0010
0000
,  // measure 67
1002
1000
0100
0100
,  // measure 68
1000
1000
0010
0010
,  // measure 69
1000
0000
1000
0000
1003
0000
0100
0001
,  // measure 70
1000
0000
1000
0001
0100
0000
0010
0000
,  // measure 71
0001
0100
0010
0000
0001
0100
0000
0010
,  // measure 72
0000
1000
0010
0100
0000
0001
0100
0010
,  // measure 73
1000
0001
1000
0000
0010
0100
0000
0001
,  // measure 74
0000
0100
0001
1000
0000
0010
1000
0100
,  // measure 75
0010
0000
0001
0000
0100
0010
0000
1000
,  // measure 76
0000
0001
0100
0010
1000
0100
0010
0001
,  // measure 77
0000
0000
0000
0000
0000
0000
0000
0000
0000
1000
0000
0001
0000
1000
0000
0000
0000
0000
0000
0000
0000
0000
0000
0000
,  // measure 78
0000
0220
0000
0000
,  // measure 79
0000
0000
0000
0000
,  // measure 80
0000
0000
0000
0000
,  // measure 81
0330
0000
0000
0000
;
