#TITLE:It's Not Goodbye, It's See You Later (House Bootleg);
#SUBTITLE:;
#ARTIST:Richie Branson remixed by TT Sound Team "T.D.";
#TITLETRANSLIT:;
#SUBTITLETRANSLIT:;
#ARTISTTRANSLIT:;
#GENRE:;
#CREDIT:;
#BANNER:It's Not Goodbye It's See You Later (House Bootleg).png;
#BACKGROUND:It's Not Goodbye It's See You Later (House Bootleg)-bg.png;
#LYRICSPATH:;
#CDTITLE:;
#MUSIC:It's Not Goodbye It's See You Later (House Bootleg).ogg;
#OFFSET:-0.000000;
#SAMPLESTART:59.060123;
#SAMPLELENGTH:12.000000;
#SELECTABLE:YES;
#DISPLAYBPM:130.000000;
#BPMS:0.000000=130.000000
,16.000000=130.059998
,160.000000=131.000000
,164.000000=130.050003
,256.000000=128.000000
,258.000000=129.979996
,265.000000=129.300003
,270.000000=132.000000
,280.000000=130.000000
;
#STOPS:
;
#BGCHANGES:;
#KEYSOUNDS:;
#ATTACKS:;

//---------------dance-single - ----------------
#NOTES:
     dance-single:
     :
     Hard:
     11:
     0.437657,0.481144,0.142335,0.183002,0.115224,452.000000,431.000000,21.000000,27.000000,0.000000,0.000000,0.437657,0.481144,0.142335,0.183002,0.115224,452.000000,431.000000,21.000000,27.000000,0.000000,0.000000:
0000
0000
0000
0000
,
0000
0000
0000
0000
,
0000
0000
0000
0000
,
0000
0000
0000
0000
,
0001
0100
0010
0000
1001
0000
1001
0000
,
1000
0010
0100
0000
1001
0000
1001
0000
,
0001
0100
1000
0000
1001
0000
1001
0000
,
1000
0010
0001
0000
1001
0000
1001
0000
,
0010
0000
0000
0010
0100
0000
0000
0000
0001
0000
1000
0000
0100
0000
0000
0000
,
0100
0000
0000
0100
0010
0000
0000
0000
1000
0000
0001
0000
0010
0000
0000
0000
,
0001
0000
0000
0001
0100
0000
0000
0000
1000
0000
0010
0000
0100
0000
0000
0000
,
1000
0000
0000
1000
0100
0000
0000
0000
0001
0000
0100
0000
0010
0000
0000
0000
,
1000
0000
0000
0001
0100
0000
0010
0000
1000
0000
0010
0000
0100
0000
0000
0000
,
0001
0000
0000
1000
0010
0000
0100
0000
0001
0000
0100
0000
0010
0000
0000
0000
,
1000
0000
0000
1000
0100
0000
1000
0000
0001
0000
0001
0000
0001
0000
0000
0000
,
0001
0000
0000
0001
0100
0000
0001
0000
1000
0000
1000
0000
1000
0000
0000
0000
,
0010
0000
0000
0010
1000
0000
0000
1000
0001
0000
0100
0000
0001
0000
0000
0000
,
0010
0000
0000
0010
0001
0000
0000
0001
1000
0000
0010
0000
1000
0000
0000
0000
,
0010
0000
0000
0010
0100
0000
0000
0100
0001
0000
1000
0000
0010
0000
1000
0000
,
0001
0000
0000
0001
1000
0000
0000
1000
0010
0000
0100
0000
0001
0000
1000
0000
,
0010
0000
0000
0010
1000
0000
0001
0000
1000
0000
0100
0000
0001
0000
0100
0000
,
1000
0000
0000
1000
0001
0000
0000
0001
0010
0000
0001
0000
1000
0000
0001
0000
,
0010
0000
0000
0010
0100
0000
0000
0100
0001
0000
1000
0000
0001
0000
0100
0000
,
0010
0000
0000
0010
1000
0000
0000
1000
0001
0000
0100
0000
0010
0000
1000
0000
,
0001
0010
0100
0100
1000
0010
0100
0100
,
0001
1000
0010
0010
1000
0001
0010
0010
,
1000
0010
0100
0100
0001
0010
0100
0100
,
1000
0010
0001
0001
1000
0100
0001
0001
,
0010
0100
1000
1000
0001
0100
1000
1000
,
0001
1000
0100
0100
0001
0010
0100
0100
,
1000
1000
0001
0001
0100
0100
0010
0010
,
1000
0100
0010
0001
0100
0010
1001
0000
,
0002
0100
0100
0103
,
2000
0010
0010
3010
,
0002
0000
0103
0000
1000
0000
0010
0100
,
0002
1000
1000
1003
,
0020
0100
0100
0130
,
0200
0010
0010
0310
,
2000
0000
3100
0000
0001
0000
0100
0010
,
2000
0001
0001
3001
,
1001
0000
0000
0001
0100
0000
0010
0000
0100
0000
0001
0000
0001
0000
1000
0000
,
1000
0000
0000
1000
0010
0000
0000
0010
0100
0000
0000
0000
0110
0000
0000
0000
,
1001
0000
0000
1000
0010
0000
0100
0000
0001
0000
1000
0000
0010
0000
0010
0000
,
1000
0000
0000
1000
0001
0000
0000
0001
0100
0000
0000
0000
1001
0000
0000
0000
,
0010
0000
0000
0010
0001
0000
1000
0000
0001
0000
0000
0000
0100
0000
0000
0000
,
0010
0000
0000
0010
1000
0000
0001
0000
1000
0000
0000
0000
0100
0000
0000
0000
,
1000
0000
0000
1000
0001
0000
0100
0000
0001
0000
0000
0001
1000
0000
0100
0000
,
1000
0000
0000
1000
0001
0000
0100
0000
0010
0000
0000
0000
1001
0000
0000
0000
,
0001
1000
0100
1000
0001
1000
0100
1000
,
0001
0010
0100
1000
0001
0010
0100
1000
,
0010
1000
0100
1000
0010
1000
0100
1000
,
0001
0100
0010
0100
0001
0100
0010
0100
,
0001
1000
0100
0010
0001
0010
0100
1000
,
0001
0100
0010
0100
0001
1000
0100
1000
,
0001
1000
0100
0010
1000
0001
0100
0010
,
1000
1000
0001
0000
0001
0001
1000
0000
,
0000
0000
0001
0100
1000
0100
0001
1000
,
0001
1100
0011
1001
,
1000
0100
0010
0001
1000
0100
0010
0001
,
1000
0011
1010
0101
,
1000
0001
0100
0010
1000
1000
1000
0000
,
0001
0100
0010
1000
0001
0001
0001
0000
,
0010
0010
1000
0001
0100
0100
0001
1000
,
0010
1000
0001
0100
0020
0000
0130
0000
,
2002
0000
0000
0000
0000
0000
3003
0020
,
0000
0000
0000
0000
0000
0000
1030
0001
,
0100
0010
1000
0001
0100
0000
0001
1000
,
0000
0000
0001
0000
1000
0000
0020
0200
,
0000
0000
0000
0000
0330
0000
0002
2000
,
0000
0000
0000
0000
3003
0000
0001
0010
,
0001
0000
1000
0000
0010
0000
2000
0002
,
0000
0000
0000
3003
,
0020
0000
0000
0000
0000
0000
0000
0002
,
0000
0000
0000
0033
,
2000
0000
0000
0000
3200
0000
0000
0020
,
0000
0000
0000
0330
,
0002
0000
0000
0000
0000
0000
0000
0200
,
0000
0000
0000
0303
,
0020
0000
0000
0000
2030
0000
0000
3001
;

//---------------dance-double - ----------------
#NOTES:
     dance-double:
     :
     Hard:
     11:
     0.421196,0.481144,0.230448,0.122002,0.125391,435.000000,401.000000,34.000000,18.000000,0.000000,0.000000,0.421196,0.481144,0.230448,0.122002,0.125391,435.000000,401.000000,34.000000,18.000000,0.000000,0.000000:
00000000
00000000
00000000
00000000
,
00000000
00000000
00000000
00000000
,
00000000
00000000
00000000
00000000
,
00000000
00000000
00000000
00000000
,
00010000
01000000
00100000
00000000
10010000
00000000
10010000
00000000
,
10000000
00100000
01000000
00000000
10010000
00000000
10010000
00000000
,
00100000
00001000
00010000
00000000
00011000
00000000
00011000
00000000
,
00000100
00010000
00001000
00000000
00011000
00000000
00011000
00000000
,
00000010
00000000
00000000
00000010
00000100
00000000
00000000
00000000
00000001
00000000
00001000
00000000
00000100
00000000
00000000
00000000
,
00000100
00000000
00000000
00000100
00000010
00000000
00000000
00000000
00001000
00000000
00000001
00000000
00000010
00000000
00000000
00000000
,
00000001
00000000
00000000
00000001
00000100
00000000
00000000
00000000
00000010
00000000
00001000
00000000
00000100
00000000
00000000
00000000
,
00010000
00000000
00000000
00010000
00001000
00000000
00000000
00000000
00100000
00000000
00010000
00000000
01000000
00000000
00000000
00000000
,
10000000
00000000
00000000
00010000
01000000
00000000
00100000
00000000
10000000
00000000
00100000
00000000
01000000
00000000
00000000
00000000
,
00010000
00000000
00000000
10000000
00100000
00000000
01000000
00000000
00010000
00000000
01000000
00000000
00100000
00000000
00000000
00000000
,
10000000
00000000
00000000
10000000
01000000
00000000
00000000
00000000
00010000
00000000
00000000
00010000
01000000
00000000
00000000
00000000
,
00001000
00000000
00000000
00001000
00100000
00000000
00010000
00000000
00100000
00000000
00001000
00000000
00010000
00000000
00000000
00000000
,
00000010
00000000
00000000
00000010
00001000
00000000
00000000
00001000
00000001
00000000
00000100
00000000
00000001
00000000
00000000
00000000
,
00000010
00000000
00000000
00000010
00000001
00000000
00000000
00000001
00001000
00000000
00000010
00000000
00001000
00000000
00000000
00000000
,
00000010
00000000
00000000
00000010
00001000
00000000
00000000
00001000
00000100
00000000
00000000
00000000
00010000
00000000
00000100
00000000
,
00010000
00000000
00000000
00010000
00001000
00000000
00000000
00001000
00100000
00000000
01000000
00000000
00010000
00000000
00000000
00000000
,
00100000
00000000
00000000
00100000
10000000
00000000
00010000
00000000
10000000
00000000
01000000
00000000
00010000
00000000
01000000
00000000
,
10000000
00000000
00000000
10000000
00010000
00000000
00000000
00010000
00100000
00000000
00000000
00000000
00001000
00000000
00000000
00000000
,
00010000
00000000
00000000
00010000
00000100
00000000
00000000
00000100
00001000
00000000
00000010
00000000
00010100
00000000
00000001
00000000
,
00001000
00000000
00000000
00001000
00000100
00000000
00000000
00000100
00010000
00000000
00010000
00000000
00001000
00000000
00000000
00000000
,
00100000
00010000
01000000
00100000
10000000
01000000
00100000
00000000
,
00010000
01000000
00010000
00100000
00001000
00010000
00000100
00000000
,
00001000
00000010
00000100
00000100
00000001
00000010
00000100
00000100
,
00001000
00000010
00000100
00000000
00001000
00000100
00010000
00000000
,
00010000
01000000
00100000
00100000
10000000
00000000
10010000
00000000
,
00010000
10000000
01000000
01000000
00100000
00000000
10010000
00000000
,
10000000
10000000
00010000
00010000
01000000
01000000
00100000
00100000
,
10000000
00010000
00100000
00010000
00100000
00001000
00010000
00000000
,
00021000
00000000
00000000
00000000
00000000
00000000
00000000
00030200
,
00000000
00000000
00001000
00000000
00001000
00000000
00001300
00000010
,
00000100
00000000
00001001
00000000
00001100
00000000
00000100
00010000
,
00001000
00000000
00101000
00000000
00011000
00000000
00100000
00010000
,
01000000
00000000
01000000
00000000
01000000
00000000
00100000
10000000
,
01000000
00000000
01000000
00000000
01000000
00000000
00100000
00001000
,
00010000
00000000
00000010
00000000
00001000
00000000
00000001
00000100
,
00002000
00000100
00003100
00011000
,
00011000
00000000
00000000
00001000
01000000
00000000
00010000
00000000
01000000
00000000
00100000
00000000
10000000
00000000
00100000
00000000
,
01000000
00000000
00000000
01000000
00010000
00000000
00000000
00010000
00100000
00000000
00000000
00100000
00001000
00000000
00000000
00001000
,
00010000
00000000
00000000
00010000
00000010
00000000
00000100
00000000
00000001
00000000
00001000
00000000
00000010
00000000
00000010
00000000
,
00001000
00000000
00000000
00001000
00000100
00000000
00000000
00000100
00010000
00000000
00000000
00010000
00001000
00000000
00100000
00000000
,
00010000
00000000
00000000
00010000
01000000
00000000
00100000
00000000
10000000
00000000
00100000
00000000
01000000
00000000
00000000
00000000
,
00100000
00000000
00000000
00100000
01000000
00000000
00010000
00000000
00100000
00000000
00000000
00000000
00011000
00000000
00000000
00000000
,
00001010
00000000
00000000
00001000
00000001
00000000
00000100
00000000
00000001
00000000
00000000
00000001
00001000
00000000
00000100
00000000
,
00001000
00001010
00010000
00010010
,
00000010
00001000
00000100
00000000
00010000
00001000
00100000
00000000
,
00010000
01000000
00100000
00000000
10000000
00100000
01000000
00000000
,
00001000
00010000
00000100
00000000
00001000
00000001
00000100
00000000
,
00000100
00000001
00001000
00000000
00001010
00000000
00011000
00000000
,
00100000
00010000
10000000
01000000
10000000
00100000
01000000
00000000
,
00010000
00100000
00001000
00000000
00010000
00000100
00001000
00000000
,
00000001
00001000
00000010
00000010
00001000
00000001
00000100
00000000
,
00000010
00001000
00000100
00000000
00010100
00000000
00011000
00000000
,
00001000
00100000
00010000
10000000
00010000
00100000
00001000
00000000
,
00010000
00000100
00010000
00000000
00000010
00001000
00000001
00000000
,
00001000
00000010
00001000
00000100
00001000
00000001
00000010
00000100
,
00001000
00000100
00010000
00001000
01000000
00000000
10010000
00000000
,
10000000
00100000
00010000
00000000
01010000
00000000
00011000
00000000
,
00010000
00000100
00001000
00000000
00001001
00000000
00001100
00000000
,
00010000
00001000
01000000
00000000
10010000
00000000
00110000
00000000
,
00001000
00010000
00000100
00000000
00000010
00000000
00001000
00000000
,
00002002
00000000
00000000
00000000
00000000
00003003
00000000
00000020
,
00000000
00000000
00000000
00000000
00000030
00000000
00001000
00000001
,
00000100
00000000
00001000
00000000
00010000
00000000
00100000
00010000
,
00000000
00000000
00100000
00000000
10000000
00000000
00010000
20000000
,
00000000
00000000
00000000
00000000
00000000
00000000
30010000
00200000
,
00000000
00000000
00000000
00301000
,
00010000
00000000
00000100
00000000
00001000
00000000
00000001
00000020
,
00000000
00000000
00000000
00000030
,
00002000
00000000
00000000
00000000
00000000
00000000
00000000
00000200
,
00000000
00000000
00000000
00003300
,
00020000
00000000
00000000
00000000
00032000
00000000
00000000
02000000
,
00000000
00000000
00000000
03003000
,
00200000
00000000
00000000
00000000
00000000
00000000
00000000
20000000
,
00000000
00000000
00000000
30300000
,
00020000
00000000
00000000
00000000
00230000
00000000
00000000
00301000
;

//---------------dance-double - ----------------
#NOTES:
     dance-double:
     :
     Medium:
     8:
     0.315655,0.454414,0.149113,0.176225,0.000000,326.000000,304.000000,22.000000,26.000000,0.000000,0.000000,0.315655,0.454414,0.149113,0.176225,0.000000,326.000000,304.000000,22.000000,26.000000,0.000000,0.000000:
00000000
00000000
00000000
00000000
,
00000000
00000000
00000000
00000000
,
00000000
00000000
00000000
00000000
,
00000000
00000000
00000000
00000000
,
00100000
00000000
10000000
00010000
10000000
00000000
00100000
00000000
,
00001000
00000000
00010000
00001000
00010000
00000000
00000100
00000000
,
00001000
00000000
00000001
00000100
00000001
00000000
00001000
00000000
,
00000100
00000000
00010000
00001000
00010000
00000000
00001000
00000000
,
00100000
00000000
00010000
01000000
00100000
00000000
10000000
00000000
,
00010000
00000000
00100000
00001000
00010000
00000000
00010000
00000000
,
00000100
00000000
00001000
00000010
00000100
00000000
00000001
00000000
,
00000001
00000000
00001000
00000100
00001000
00000000
00000010
00000000
,
00001000
00000000
00000100
00010000
00000100
00000000
00010000
00000000
,
00001000
00000000
00100000
00010000
00100000
00000000
00010000
00000000
,
01000000
00000000
00100000
10000000
01000000
00000000
00100000
00000000
,
00001000
00010000
00000100
00001100
,
00000010
00001000
00000100
00001000
00000010
00000000
00000100
00000000
,
00000001
00000010
00000001
00000000
00001000
00000000
00000100
00000000
,
00010000
00001000
00100000
00001000
00010000
00000000
00001000
00000000
,
01000000
00000000
00010000
00100000
00010000
00000000
01000000
00000000
,
00100000
10000000
00010000
10000000
00100000
00000000
01000000
00000000
,
00001000
00000000
00010000
00000100
00010000
00000000
00000100
00000000
,
00001000
00000010
00000100
00000010
00001000
00000000
00000001
00000000
,
00001000
00000100
00001000
00000000
00000001
00000000
00000101
00000000
,
00001000
00000000
00000100
00000000
00010100
00000000
00001000
00010000
,
00001000
00000000
00011000
00000000
01001000
00000000
00010000
01000000
,
00100000
10010000
01000000
00100000
,
00010000
00000000
01000000
00001000
00010000
00000000
00010000
00000000
,
00000100
00000000
00001000
00000001
00000100
00000001
00001000
00000100
,
00001000
00000000
00000100
00010000
00001000
00000000
00100000
00000000
,
00010000
00000000
01000000
00100000
10000000
00000000
00010000
00000000
,
00100000
00002000
00023000
00030200
,
00002300
00000000
00000000
00000000
00000000
00000000
00000000
00003020
,
00000000
00000100
00000000
00000130
,
00000001
00000000
00000100
00000000
00001000
00000000
00000000
00001100
,
00000000
00000000
00000100
00000000
00010000
00000000
00000000
00011000
,
00000000
00000000
00000000
00000000
00000000
00000000
00010000
01000000
,
00000000
00000000
00000000
00000000
00000000
00000000
00100000
10000000
,
01000000
10000000
00100000
00000000
01000000
00000000
00002000
00020000
,
00000000
00000000
00000000
00033000
,
00000100
00000000
00001000
00000000
00000100
00001000
00000100
00000000
,
00001000
00000000
00000001
00000000
00000010
00000001
00000010
00000000
,
00000001
00000000
00001000
00000000
00000100
00010000
00000100
00000000
,
00010000
00000000
00001000
00000000
00100000
00010000
00100000
00000000
,
00010000
01000000
00010000
00000000
10000000
00000000
11000000
00000000
,
00100000
00001000
00010000
00000000
00011000
00000000
00010100
00000000
,
00000100
00001000
00000010
00000000
00001001
00000000
00001010
00000000
,
00000010
00001000
00001100
00010100
,
00000100
00010000
00000100
00000000
00010000
00001000
00010000
00000000
,
00001000
00100000
00010000
00000000
01000000
00000000
10000000
00000000
,
01000000
00000000
00010000
00000000
00100000
00001000
00100000
00000000
,
00001000
00010000
00000100
00001000
,
00000001
00000100
00000001
00000000
00001000
00000000
00000100
00000000
,
00010000
00001000
01000000
01000000
,
00001000
00010000
00000010
00000010
,
00010010
00010000
00011000
00001000
,
01001000
01000000
00010000
00100000
,
10000000
00000000
00010000
00100000
00001000
00000000
00010000
00000000
,
00000010
00000000
00001000
00000000
00000001
00000000
00001000
00000001
,
00000100
00000010
00001100
00000001
,
00000001
00001000
00000100
00000000
00010000
00000000
00011000
00000000
,
00100000
00010000
01000000
00000000
00100000
00000000
10010000
00000000
,
00010000
00100000
00010000
00100000
00001000
00010000
00001000
00010000
,
00000010
00001000
00000010
00001000
00000001
00000000
00001001
00000000
,
00000020
00000000
00000000
00000000
00000000
00000000
00000000
00002000
,
00000000
00000000
00000000
00003030
,
00000100
00000000
00000000
00000000
00010000
00000000
00000000
00002000
,
00000000
00000000
00200000
00303000
,
00020000
00000000
00000000
00000000
00000000
00000000
00000000
02000000
,
00000000
00000000
00000000
03030000
,
00200000
00000000
00000000
00000000
20300000
00000000
00000000
30020000
,
00000000
00000000
00000000
00230000
00000000
00000000
00000000
00000000
,
00302000
00000000
00000000
00000000
00000000
00000000
00000000
00020000
,
00000000
00000000
00000000
00033000
,
00000020
00000000
00000000
00000000
00002030
00000000
00000000
00000200
,
00000000
00000000
00000000
00003300
,
00000002
00000000
00000000
00000000
00000000
00000000
00000000
00002003
,
00000000
00000000
00000000
00003000
,
00000200
00000000
00000000
00000000
00020300
00000000
00000000
00031000
;

//---------------dance-single - ----------------
#NOTES:
     dance-single:
     :
     Medium:
     8:
     0.316623,0.454414,0.128780,0.183002,0.000000,327.000000,308.000000,19.000000,27.000000,0.000000,0.000000,0.316623,0.454414,0.128780,0.183002,0.000000,327.000000,308.000000,19.000000,27.000000,0.000000,0.000000:
0000
0000
0000
0000
,
0000
0000
0000
0000
,
0000
0000
0000
0000
,
0000
0000
0000
0000
,
0010
0000
1000
0001
1000
0000
0010
0000
,
1000
0000
0001
1000
0001
0000
0100
0000
,
1000
0000
0001
0100
0001
0000
1000
0000
,
0100
0000
0010
0100
0010
0000
0001
0000
,
0100
0000
0010
0100
0010
0000
1000
0000
,
0001
0000
0010
1000
0001
0000
0010
0000
,
0001
0000
1000
0001
1000
0000
0010
0000
,
0010
0000
0001
1000
0001
0000
0100
0000
,
0100
0000
0001
1000
0001
0000
0010
0000
,
1001
0000
0010
0001
0010
0000
0001
0000
,
0100
0000
0010
1000
0100
0000
0010
0000
,
1000
0100
0010
0011
,
0001
0100
0010
0100
0001
0000
1000
0000
,
0010
1000
0010
0000
0100
0000
0001
0000
,
0001
1000
0010
1000
0001
0000
0010
0000
,
0100
0000
0001
0010
0001
0000
0100
0000
,
0010
1000
0001
1000
0010
0000
0100
0000
,
1000
0000
0001
0100
0001
0000
1000
0000
,
0001
0010
0001
0100
0001
0000
1000
0000
,
0010
0100
0010
0000
1000
0000
1001
0000
,
0010
0101
1000
0101
,
0010
0000
0001
0000
0100
0000
0001
0100
,
0010
1001
0100
0010
,
0001
0000
0100
1000
0001
0000
0001
0000
,
0010
0000
1000
0010
0100
0010
1000
0010
,
0100
0000
0001
1000
0001
0000
0010
0000
,
0001
0000
0100
0010
1000
0000
0001
0000
,
0010
2000
3002
0203
,
0320
0000
0000
0000
0000
0000
0000
0230
,
0000
0001
0000
0301
,
1000
0000
0010
0000
0001
0000
0000
1001
,
0000
0000
0010
0000
0100
0000
0000
1001
,
0000
0000
0000
0000
0000
0000
0001
0100
,
0000
0000
0000
0000
0000
0000
0010
1000
,
0100
1000
0010
0000
0100
0000
2000
0002
,
0000
0000
0000
3003
,
0010
0000
1000
0000
0001
1000
0001
0000
,
0010
0000
0001
0000
1000
0001
1000
0000
,
0100
0010
0100
0000
0001
0000
0001
0000
,
1000
0001
1000
0000
0010
0000
0010
0000
,
0001
0100
0001
0000
1000
0000
1100
0000
,
0010
0001
0010
0000
0001
0000
1001
0000
,
0100
1000
0010
0000
1001
0000
1010
0000
,
0010
0001
0100
0000
0101
0000
1001
0000
,
0010
0001
0010
0000
1000
0100
1000
0000
,
0001
0010
0001
0000
0100
0000
1000
0000
,
0100
0001
0100
0000
0010
0000
0010
0000
,
1000
0010
1000
0000
0010
0000
0010
0000
,
1000
0001
1000
0000
0010
0000
0010
0000
,
0100
1001
0100
1001
,
0010
0001
0100
0000
0010
0000
0010
0000
,
0010
1000
0100
0000
0100
0000
0100
0000
,
1000
0100
0001
0010
,
1000
0000
0001
0010
1000
0000
0100
0000
,
0010
0001
0100
1000
,
0010
0000
1000
0100
0001
0000
0010
0000
,
0001
0100
0010
0000
0001
0000
1001
0000
,
0010
0001
0100
0000
0010
0000
1001
0000
,
0001
0010
0001
0010
0001
1000
0001
1000
,
0010
0100
0010
0100
0001
0010
0100
0000
,
2000
0000
0000
0000
0000
0000
0000
3002
,
0000
0000
0000
0003
,
0100
0000
0000
0000
0010
0000
0000
2002
,
0000
3003
0020
0030
,
0002
0000
0000
0000
0000
0000
0000
0200
,
0000
0000
0000
0303
,
0020
0000
0000
0000
2030
0000
0000
3002
,
0000
0000
0000
0023
0000
0000
0000
0000
,
2030
0000
0000
0000
0000
0000
0000
0002
,
0000
0000
0000
3003
,
0020
0000
0000
0000
0032
0000
0000
0200
,
0000
0000
0000
0303
,
0020
0000
0000
0000
0000
0000
0000
2030
,
0000
0000
0000
3000
,
0200
0000
0000
0000
0302
0000
0000
1003
;

//---------------dance-double - ----------------
#NOTES:
     dance-double:
     :
     Easy:
     5:
     0.213987,0.293566,0.054223,0.277893,0.000000,221.000000,213.000000,8.000000,41.000000,0.000000,0.000000,0.213987,0.293566,0.054223,0.277893,0.000000,221.000000,213.000000,8.000000,41.000000,0.000000,0.000000:
00000000
00000000
00000000
00000000
,
00000000
00000000
00000000
00000000
,
00000000
00000000
00000000
00000000
,
00000000
00000000
00000000
00000000
,
00200000
00000000
00000000
00300000
,
00002000
00000000
00000000
00003000
,
00020000
00000000
00000000
00030000
,
00000200
00000000
00000000
00000300
,
00001000
00000001
00001000
00000001
,
00001000
00000100
00000100
00000100
,
00010000
00001000
00010000
00001000
,
01000000
01000000
01000000
01000000
,
00010000
10000000
00100000
00100000
,
10000000
00010000
00100000
00100000
,
00001000
00001000
00010000
00010000
,
00000010
00000010
00001001
00001001
,
00000001
00000100
00001000
00001000
,
00010000
01000000
10000000
10000000
,
00100000
00100000
00010000
01000000
,
00100000
00100000
10000000
01000000
,
00000000
00010000
00100000
00001000
,
00000000
00001000
00010000
00000100
,
00000000
00000001
00000010
00001000
,
00000000
00010000
00001000
00010000
,
00000000
00001000
00100000
00010000
,
00000000
10000000
01000000
00010000
,
00100000
00100000
01000000
10010000
,
01000000
01000000
00100000
10010000
,
00100000
00100000
00100000
00001000
,
00010000
00001000
00010000
00001000
,
00010000
00000010
00000010
00000010
,
00000020
00000030
00000200
00000300
,
00002002
00000000
00000000
00003003
,
00000200
00000000
00000000
00000300
,
00002000
00003000
00020000
00030000
,
02000000
03000000
00200000
00300000
,
02000000
00000000
00000000
03000000
,
00002000
00000000
00000000
00003000
,
00020000
00030000
00000020
00000030
,
00000200
00000000
00000000
00000300
,
00000001
00001000
00000100
00000100
,
00001000
00000001
00000010
00000010
,
00001000
00001000
00000100
00010000
,
00001000
00001000
01000000
00010000
,
00100000
00100000
20020000
30030000
,
01000000
01000000
20020000
30030000
,
00100000
00001000
00001000
00010000
,
00000100
00001000
00001000
00000001
,
00000010
00001000
00000200
00000300
,
00010000
00001000
00200000
00300000
,
00010000
01000000
20000000
30000000
,
01000000
00001000
00020000
00030000
,
00000100
00001000
00001000
00000001
,
00000100
00000001
00000001
00001000
,
00000100
00010000
00001000
00100000
,
00010000
01000000
00100000
10000000
,
00100000
00100000
00002000
00003000
,
00010000
00010000
00000020
00000030
,
00000001
00000100
00000010
00001000
,
00010000
00001000
00100000
00010000
,
01000000
01000000
00100000
00100000
,
01000000
00001000
00010000
00001000
,
00010000
00000010
00000100
00000001
,
00001000
00100000
00010000
01000000
,
20020000
00000000
00000000
30030000
,
00200000
00000000
00000000
00300000
,
10000000
00010000
10000000
00000000
,
00010000
00000000
00100000
00000000
,
00002000
00000000
00003000
00000000
,
00020000
00000000
00030000
00000000
,
00000001
00001000
00000010
00000000
,
00000200
00000300
00010000
00001000
,
00200000
00000000
00000000
00000000
,
00302000
00000000
00000000
00000000
,
00023000
00000000
00000000
00000000
,
00030020
00000000
00000000
00000000
,
00002030
00000000
00000000
00000000
,
00003200
00000000
00000000
00000000
,
00020300
00000000
00000000
00030000
;

//---------------dance-single - ----------------
#NOTES:
     dance-single:
     :
     Easy:
     5:
     0.223670,0.320254,0.108446,0.291448,0.000000,231.000000,215.000000,16.000000,43.000000,0.000000,0.000000,0.223670,0.320254,0.108446,0.291448,0.000000,231.000000,215.000000,16.000000,43.000000,0.000000,0.000000:
0000
0000
0000
0000
,
0000
0000
0000
0000
,
0000
0000
0000
0000
,
0000
0000
0000
0000
,
0020
0000
0000
0030
,
2000
0000
0000
3000
,
0002
0000
0000
0003
,
0200
0000
0000
0300
,
1000
0001
1000
0001
,
0100
0100
0100
0100
,
0001
1000
0001
1000
,
0100
0100
0100
0100
,
0001
1000
0010
0010
,
1000
0001
0010
0010
,
1000
1000
0001
0001
,
0010
0010
1001
1001
,
0001
0100
1000
1000
,
0100
0001
1000
1000
,
0010
0010
0001
0100
,
0010
0010
1000
0100
,
0001
0010
1000
0001
,
1000
0100
0001
1000
,
0001
0010
1000
0100
,
1000
0010
0001
0100
,
0010
0010
1000
0001
,
0010
0010
0001
1000
,
0010
0010
0100
1001
,
0100
0100
0010
1001
,
0010
0010
0010
1001
,
0001
0001
1000
1000
,
0001
0010
0100
1000
,
0001
0010
0200
0300
,
2002
0000
0000
3003
,
0200
0000
0000
0300
,
2000
3000
0002
0003
,
0200
0300
0020
0030
,
0200
0000
0000
0300
,
2000
0000
0000
3000
,
0020
0030
0002
0003
,
0200
0000
0000
0300
,
0001
1000
0010
0010
,
1000
0001
0010
0010
,
0001
0100
0010
0110
,
1000
0010
0100
0110
,
0010
0010
2002
3003
,
0100
0100
2002
3003
,
0010
1000
1001
0000
,
0010
0001
1001
0000
,
0010
0001
0200
0300
,
0010
1000
0200
0300
,
0001
0100
2000
3000
,
1000
0100
0002
0003
,
0010
0001
0100
0100
,
0010
1000
0100
0100
,
0001
0100
0010
1000
,
0010
1000
0100
0001
,
0010
0010
2002
3003
,
0100
0100
2002
3003
,
0001
0100
1000
1000
,
0001
1000
1000
0010
,
0100
0100
0010
0010
,
1000
0001
1000
0001
,
0010
0001
0100
0000
,
0001
0010
0100
1000
,
2002
0000
0000
3003
,
0020
0000
0000
0030
,
1000
0001
1000
0000
,
0001
0000
0010
0000
,
2000
0000
3000
0000
,
0002
0000
0003
0000
,
0001
1000
0010
0000
,
0200
0000
0300
0000
,
0020
0000
0000
0000
,
2030
0000
0000
0000
,
3002
0000
0000
0000
,
0203
0000
0000
0000
,
0302
0000
0000
0000
,
0023
0000
0000
0030
,
2002
0000
0000
3003
;

//---------------dance-single - ----------------
#NOTES:
     dance-single:
     :
     Beginner:
     2:
     0.126843,0.160127,0.020334,0.013556,0.000000,131.000000,128.000000,3.000000,2.000000,0.000000,0.000000,0.126843,0.160127,0.020334,0.013556,0.000000,131.000000,128.000000,3.000000,2.000000,0.000000,0.000000:
// measure 0
0000
0000
0000
0000
,  // measure 1
0000
0000
0000
0000
,  // measure 2
0000
0000
0000
0000
,  // measure 3
0000
0000
0000
0000
,  // measure 4
0010
0000
0000
0000
,  // measure 5
1000
0000
0000
0000
,  // measure 6
0001
0000
0000
0000
,  // measure 7
0100
0000
0000
0000
,  // measure 8
1000
0000
1000
0000
,  // measure 9
0001
0000
0001
0000
,  // measure 10
0010
0000
0010
0000
,  // measure 11
0100
0000
0100
0000
,  // measure 12
0001
0000
0010
0000
,  // measure 13
1000
0000
0010
0000
,  // measure 14
1000
0000
0001
0000
,  // measure 15
0010
0000
0100
0000
,  // measure 16
0001
0000
0100
0000
,  // measure 17
1000
0000
0100
0000
,  // measure 18
0010
0000
0001
0000
,  // measure 19
0100
0000
1000
0000
,  // measure 20
0001
0000
1000
0000
,  // measure 21
0001
0000
1000
0000
,  // measure 22
0010
0000
0100
0000
,  // measure 23
0010
0000
1000
0000
,  // measure 24
0010
0000
1000
0000
,  // measure 25
0010
0000
0001
0000
,  // measure 26
0010
0000
0100
0000
,  // measure 27
0100
0000
0010
0000
,  // measure 28
0010
0000
1000
0000
,  // measure 29
0100
0000
0001
0000
,  // measure 30
0001
0000
0100
0000
,  // measure 31
0010
0000
1000
0000
,  // measure 32
1001
0000
0000
0000
,  // measure 33
0100
0000
0000
0000
,  // measure 34
1000
0000
0001
0000
,  // measure 35
0100
0000
0010
0000
,  // measure 36
0100
0000
0000
0000
,  // measure 37
1000
0000
0000
0000
,  // measure 38
0010
0000
0001
0000
,  // measure 39
0100
0000
0000
0000
,  // measure 40
0001
0000
0010
0000
,  // measure 41
1000
0000
0010
0000
,  // measure 42
0001
0000
0100
0000
,  // measure 43
1000
0000
0100
0000
,  // measure 44
0010
0000
0001
0000
,  // measure 45
0100
0000
1000
0000
,  // measure 46
0010
0000
1000
0000
,  // measure 47
0100
0000
0001
0000
,  // measure 48
0010
0000
0100
0000
,  // measure 49
0010
0000
0100
0000
,  // measure 50
0001
0000
1000
0000
,  // measure 51
0001
0000
1000
0000
,  // measure 52
0010
0000
0100
0000
,  // measure 53
1000
0000
0001
0000
,  // measure 54
1000
0000
0010
0000
,  // measure 55
0100
0000
0001
0000
,  // measure 56
0010
0000
1000
0000
,  // measure 57
0100
0000
0001
0000
,  // measure 58
1000
0000
0001
0000
,  // measure 59
0001
0000
1000
0000
,  // measure 60
0100
0000
0010
0000
,  // measure 61
1000
0000
1000
0000
,  // measure 62
0010
0000
0100
0000
,  // measure 63
0001
0000
0001
0000
,  // measure 64
1001
0000
0000
0000
,  // measure 65
0010
0000
0000
0000
,  // measure 66
1000
0000
0001
0000
,  // measure 67
1000
0000
0000
0000
,  // measure 68
0001
0000
0000
0000
,  // measure 69
0100
0000
0000
0000
,  // measure 70
0001
0000
0010
0000
,  // measure 71
0100
0000
0000
0000
,  // measure 72
0010
0000
0000
0000
,  // measure 73
1000
0000
0000
0000
,  // measure 74
0001
0000
0000
0000
,  // measure 75
0100
0000
0000
0000
,  // measure 76
0001
0000
0000
0000
,  // measure 77
0010
0000
0000
0000
,  // measure 78
2002
0000
0000
3003
;
