#TITLE:Invitation;
#SUBTITLE:;
#ARTIST:ろん 「チュウニズム」 より;
#TITLETRANSLIT:;
#SUBTITLETRANSLIT:;
#ARTISTTRANSLIT:ron from "CHUNITHM";
#GENRE:;
#CREDIT:;
#BANNER:Invitation.png;
#BACKGROUND:Invitation-bg.png;
#LYRICSPATH:;
#CDTITLE:;
#MUSIC:Invitation.ogg;
#OFFSET:0.809000;
#SAMPLESTART:58.119568;
#SAMPLELENGTH:12.908165;
#SELECTABLE:YES;
#BPMS:0.000000=147.000000
;
#STOPS:259.833344=0.816330
;
#BGCHANGES:2.000=Invitation.avi=1.000=1=0=0=StretchNoLoop==CrossFade==,
99999=-nosongbg-=1.000=0=0=0 // don't automatically add -songbackground-
;
#KEYSOUNDS:;
#ATTACKS:;

//---------------dance-double - ----------------
#NOTES:
     dance-double:
     :
     Hard:
     12:
     0.515098,0.502450,0.380287,0.309864,0.077466,512.000000,458.000000,54.000000,44.000000,0.000000,0.000000,0.515098,0.502450,0.380287,0.309864,0.077466,512.000000,458.000000,54.000000,44.000000,0.000000,0.000000:
00000000
00000000
00000000
00000000
,
00000000
00000000
00000000
00000000
,
00000000
00000000
00000000
00000000
,
00000000
00000000
00000000
00000000
,
00000000
00000000
00000000
00000000
,
00100000
00000000
00000000
00100000
00010000
00000000
00000000
00000000
10000000
00000000
01000000
00000000
00100000
00000000
00010000
00000000
,
00000000
00000000
00100000
00000000
00001000
00000000
00000000
00001000
00010000
00000000
00010000
00000000
00000100
00000000
00001000
00000000
,
00000010
00000000
00000000
00000000
00000100
00000000
00000000
00000100
00000001
00000000
00001000
00000000
00000100
00000000
00000010
00000000
,
00000000
00000000
00000010
00000000
00000001
00000000
00000000
00000001
00001000
00000000
00000100
00000000
00010000
00000000
00001000
00000000
,
00010000
00000000
00020000
00000000
00031000
00000000
00001000
00100000
,
00000000
00100000
00010000
10000000
01000000
00100000
00010000
00100000
,
00001000
00000000
00010000
00000000
00000100
00001000
00000010
00000200
,
00000000
00000001
00000000
00000301
00000000
00000001
00001000
00000100
,
00000010
00000000
00000020
00000000
00001030
00000000
00001000
00000100
,
00000000
00010000
00001000
00010000
00000100
00000000
00010000
00001000
,
00100000
00000000
00100000
00000000
10000000
01000000
00100000
00010000
,
00000000
00110000
00000000
00101000
00000000
00010000
00000100
00001000
,
00000020
00000000
00000100
00000000
00000130
00000001
00001000
00000100
,
00000000
00000000
00000100
00000000
00000010
00000000
00000000
00000010
00000001
00000000
00001000
00000000
00000100
00000000
00010000
00000000
,
00001000
00000000
00000000
00000000
00011000
00000000
00000000
00001000
00100000
00000000
00010000
00000000
00100000
00000000
00010000
00000000
,
00000000
00000000
01000000
00000000
00100000
00000000
00000000
00100000
10000000
00000000
01000000
00000000
00100000
00000000
00010000
00000000
,
00100000
00000000
00202000
00000000
00303000
00000000
00010000
00000100
,
00000000
00001000
00000100
00000010
00000001
00001000
00000100
00001000
,
00000010
00000100
00000001
00001000
00000100
00000000
00010000
00001000
,
00000000
00022000
00000000
00033000
00000000
00001000
00100000
00010000
,
01000000
00000000
02020000
00000000
03030000
00000000
00100000
10000000
,
00000000
00010000
00100000
00001000
00100000
00000000
00001000
00010000
,
00000100
00000000
00001100
00000000
00000101
00000000
00001000
00000100
,
00000000
00000011
00000000
00000101
00000000
00001000
00000001
00000100
,
00000010
00000000
00002000
00000000
00000002
00000000
00003003
00000010
,
00001000
00000000
00000000
00001000
00000000
00000000
00000002
00000000
00000000
00000000
00000103
00000000
00000010
00000000
00001000
00000000
,
00000100
00000000
00001100
00000000
00000100
00010000
00001000
00000000
,
00011000
00000000
00101000
00000000
00100000
00010000
01000000
00100000
,
10000000
00000000
00020000
00000000
00200000
00000000
00330000
00100000
,
00001000
00000000
00000000
00001000
00000000
00000000
00002000
00000000
00000000
00000000
00013000
00000000
00000100
00000000
00010000
00000000
,
00000100
00000000
00001000
00000100
00000010
00000000
00000011
00000000
,
00000000
00000001
00001000
00000100
00000010
00000000
00001001
00000000
,
00000001
00000100
00000001
00000100
00000010
00001000
00000100
00000010
,
00000000
00000022
00000000
00000033
00000000
00000001
00001000
00000100
,
00000000
00000100
00010000
00001000
00000000
00001000
00100000
00010000
,
00000000
00010000
01000000
01010000
00000000
10100000
00000000
00000000
,
00010000
00100000
00001000
00000000
00010000
00000100
00001000
00000001
,
00000000
00002002
00000000
00003003
00000000
00000010
00001000
00001010
,
00000000
00001000
00000100
00010100
00000000
00000100
00010000
00011000
,
00000000
00001000
00100000
00010000
00000000
10000000
01000000
00100000
,
00020000
00000000
01030000
00000000
00100000
10000000
00010000
00100000
,
00000000
00100000
00001000
00000000
00001000
00010000
00000100
00001000
,
00000001
00000000
00000010
00000000
00001000
00000100
00000010
00000001
,
00000000
00001000
00000100
00000000
00010000
00001000
00010000
00000000
,
00001000
00010000
00001000
00010000
00002000
00000000
00000000
00000000
00000000
00000000
00000000
00000000
00003000
00000000
00100000
00000000
,
00010000
01000000
00100000
10000000
01000000
00100000
00010000
00100000
,
00010000
00000000
00000000
01000000
00000000
01000000
00000000
00000000
00100000
00000000
10000000
00000000
00010000
01000000
00010000
02000000
,
00000000
00000000
03100000
10000000
00010000
01000000
00001000
00010000
,
00001000
00000000
00000000
00010000
00000000
00000000
00001000
00000000
00000000
00010000
00000000
00000000
00000100
00000000
00001000
00000000
,
00000010
00000010
00000100
00000001
00000010
00000010
00000001
00001000
,
00000100
00010000
00000100
00010000
00001000
00100000
00001000
00100000
,
00020000
02030000
03200000
20300000
,
30010000
00000000
00110000
00000000
02020000
00000000
03030000
01000000
,
00010000
00000000
00000000
00110000
00000000
00000000
00110000
00000000
00000000
00000000
00100000
00000000
00001000
00000000
00010000
00000000
,
00001000
00000000
00010000
00000100
00001000
00000010
00001000
00000000
,
00000101
00000000
00001010
00000000
00000010
00001000
00000100
00010000
,
00001000
00000000
00011000
00000000
00011000
00000000
00100000
00010000
,
01000000
00000000
00000000
01010000
00000000
00000000
01010000
00000000
00000000
00000000
00100000
00000000
10000000
00000000
01000000
00000000
,
00100000
00010000
00100000
00001000
00010000
00000000
00010000
00000100
,
00000000
00001000
00000100
00000010
00000110
00000000
00002002
00003003
,
00000010
00001000
00000100
00000000
00010000
00001000
00100000
00010000
,
00000000
20020000
00000000
30030000
00000000
00100000
10000000
01000000
,
00000000
00100000
00001000
00010000
00000000
00010000
00000100
00001000
,
00000000
00000010
00001000
00000100
00000000
00000110
00000000
00000001
,
00001001
00000000
00001000
00000100
00000010
00000001
00001000
00001100
,
00000000
00002020
00000000
00003030
00000000
00000001
00001000
00001001
,
00000000
00001000
00000100
00001100
00000000
00000100
00010000
00011000
,
00000000
00010000
00001000
00100000
00010000
01000000
00100000
00000000
,
10010000
00000000
00110000
00000000
10000000
01000000
00100000
00010000
,
00000000
00220000
00000000
00000000
00330000
00100000
00001000
00010000
,
00000000
00001000
00010000
00000100
00000000
00001000
00000100
00000010
,
00000000
00000010
00000001
00000100
00000010
00001010
00000000
00000000
,
00000010
00001000
00000100
00001000
00000010
00000100
00000001
00001001
,
00000000
00002002
00000000
00003003
00000000
00000010
00001000
00001100
,
00000000
00000100
00010000
00011000
00000000
00010000
00001000
00101000
,
00000000
00100000
00010000
01000000
00100000
10000000
01000000
00100000
,
00020000
00000000
00130000
00000000
00001000
00010000
00000000
00022000
,
00000000
00003000
00030100
00000000
00001000
00000000
00001010
00000000
,
00000202
00000000
00000000
00000000
00000303
00000000
00000000
00000000
00001000
00000010
00001000
00000000
00000001
00000010
00000100
00001000
;

//---------------dance-single - ----------------
#NOTES:
     dance-single:
     :
     Hard:
     12:
     0.553328,0.620673,0.478880,0.316906,0.105635,550.000000,482.000000,68.000000,45.000000,0.000000,0.000000,0.553328,0.620673,0.478880,0.316906,0.105635,550.000000,482.000000,68.000000,45.000000,0.000000,0.000000:
0000
0000
0000
0000
,
0000
0000
0000
0000
,
0000
0000
0000
0000
,
0000
0000
0000
0000
,
0000
0000
0000
0000
,
1000
0000
0100
0000
0010
0000
0000
0010
0001
0000
0100
0000
0010
0000
1000
0000
,
0000
0000
1000
0000
0001
0000
0000
0001
0100
0000
0010
0000
1000
0000
0001
0000
,
0010
0000
0000
0000
0010
0000
0000
0010
0001
0000
1000
0000
0100
0000
0010
0000
,
0000
0000
0010
0000
0001
0000
0000
0001
1000
0000
0010
0000
0100
0000
0010
0000
,
1010
0000
0202
0000
0303
0000
0001
0010
,
0000
0001
1000
0100
0010
0001
0100
0010
,
1000
0001
0001
1000
0100
0010
0001
0100
,
0000
0220
0000
0330
0000
0001
0100
0001
,
1000
0000
2002
0000
3003
0000
0010
0001
,
0000
1000
0100
1000
0001
0000
0010
0001
,
0101
0000
0101
0000
0010
1000
0100
0010
,
0000
0011
0000
1100
0000
0010
0100
0001
,
2000
0000
3010
0000
0100
0001
1000
0010
,
0000
0000
1000
0000
1001
0000
0000
0001
0100
0000
0001
0000
1000
0000
0100
0000
,
0010
0000
0000
0000
0011
0000
0000
0001
0100
0000
0010
0000
1000
0000
2002
0000
,
0000
3003
0110
0000
0001
0100
0010
1000
,
1001
0000
0220
0000
0330
0000
0001
0010
,
0000
1000
0100
0010
0001
1000
0010
0100
,
0001
0010
0001
0010
0100
1000
0100
1000
,
0000
2002
0000
3003
0000
0010
1000
0001
,
0011
0000
2200
0000
3300
0000
0010
0100
,
0000
0001
1000
0010
0100
0001
1000
0100
,
1000
0100
0010
0001
0010
0001
0100
0010
,
0000
1001
0000
0110
0000
0001
0100
0010
,
0010
0000
1001
0000
2200
0000
3300
0001
,
0100
0000
0000
0100
0000
0000
0110
0000
0000
0000
1000
0000
0100
0000
0010
0000
,
0001
0010
0001
0010
0100
1000
0100
1000
,
0010
0000
1000
0100
0010
0001
0100
0010
,
0000
0000
0101
0000
2020
0000
3030
0001
,
0010
0000
0000
0011
0000
0000
1001
0000
0000
0000
0001
0000
1000
0000
0010
0000
,
0100
0100
0001
1000
1001
0000
0110
0000
,
0000
1000
0100
0010
0001
0000
1001
0000
,
0001
0001
1000
0010
1000
0100
1000
0001
,
0000
2002
0000
3003
0000
0010
1000
0100
,
0000
0010
0001
0100
0000
0001
1000
1001
,
0000
1000
0001
1001
0000
0110
0000
0000
,
0001
0010
0001
0010
0100
1000
0100
0010
,
0000
0220
0000
0000
0330
1000
0001
0100
,
0000
0001
1000
0010
0000
1000
0001
0011
,
0000
0001
1000
1010
0000
0010
0100
0001
,
2000
0000
3010
0000
0001
0100
0010
1000
,
0000
0000
0001
0000
0011
0000
0000
0001
0100
0000
0100
0000
0010
0000
1000
0000
,
0001
0000
0000
0000
1001
0000
0000
0001
1000
0000
0010
0000
1000
0000
0100
0000
,
0000
0000
0100
0000
1000
0000
0000
1000
0010
0000
0100
0000
0001
0000
0000
0000
,
1000
0100
1000
0100
2000
0000
0000
0000
0000
0000
0000
0000
3000
0000
0001
0100
,
0001
0000
1000
0001
1000
0000
0010
1000
0010
0000
1000
0000
0100
0000
0010
0000
,
0001
0000
0001
0100
0000
0100
0010
0000
1000
0000
0100
0000
0010
0000
0001
0200
,
0000
0000
0300
0001
1000
0010
1000
0100
,
1000
0000
0010
1000
0000
0010
1000
0000
0010
1000
0000
0010
0100
0000
0010
0000
,
1000
0000
1000
0000
0001
0100
0001
0000
1000
0000
1000
0000
0010
1000
0010
0000
,
1000
0100
0010
0001
0100
0010
0100
0001
,
0010
0100
1000
0001
1000
0100
0010
0001
,
1000
0000
0101
0000
2020
0000
3030
0001
,
0010
0000
0000
0011
0000
0000
1001
0000
0000
0000
0010
0000
1000
0000
0100
0000
,
0010
0000
0010
0001
0100
0000
1001
0000
,
0110
0000
0001
0010
0100
0000
1000
0001
,
0100
0000
0110
0000
2002
0000
3003
0010
,
1000
0000
0000
0001
0000
0000
1000
0000
0000
0000
0010
0000
1000
0000
0100
0000
,
0010
0001
0100
0010
0110
0000
1001
0000
,
0001
0100
0010
1000
1001
0000
0220
0330
,
0001
0001
1000
0000
0010
1000
0100
0010
,
0000
0202
0000
0303
0000
0001
1000
0010
,
0000
1000
0001
0100
0000
0010
1000
1010
,
0000
0001
0100
0101
0000
1001
0000
0010
,
1000
0000
0001
0010
0100
1000
0010
0100
,
0000
0202
0000
0303
0000
0010
1000
0001
,
0000
0010
0001
0100
0000
0010
1000
1010
,
0000
0100
0010
0110
0000
1001
0000
0001
,
0010
0001
0010
0001
1000
0100
0010
0001
,
0000
2002
0000
3003
0000
0001
0100
0101
,
0000
1000
0010
1010
0000
0010
0100
0110
,
0000
1000
0001
0100
0001
1000
0000
0010
,
1000
1000
0001
0010
0100
1000
0010
0100
,
0000
0220
0000
0330
0000
1000
0001
0101
,
0000
0001
1000
1100
0000
0010
0100
1001
,
0000
0100
0010
1001
0000
0001
0100
0010
,
2000
0000
0001
0000
3001
0010
0000
2002
,
0000
0000
3003
0000
0010
0100
0001
0000
,
2000
0000
0000
0000
3002
0000
0000
0000
0103
0010
0100
0000
0001
0010
0100
1000
;

//---------------dance-threepanel - ----------------
#NOTES:
     dance-threepanel:
     :
     Hard:
     1:
     0.003018,0.091022,0.007042,0.000000,0.003521,3.000000,1.000000,1.000000,0.000000,0.000000,1.000000,0.003018,0.091022,0.007042,0.000000,0.003521,3.000000,1.000000,1.000000,0.000000,0.000000,1.000000:
000
000
000
000
,
000
000
000
000
,
000
000
000
000
,
000
000
000
000
,
000
000
000
000
,
000
000
000
000
,
000
000
000
000
,
000
000
000
000
,
000
000
000
000
,
000
000
000
000
,
000
000
000
000
,
000
000
000
000
,
000
000
000
000
,
000
000
000
000
,
000
000
000
000
,
000
000
000
000
,
000
000
000
000
,
000
000
000
000
,
000
000
000
000
,
000
000
000
000
,
000
000
000
000
,
000
000
000
000
,
000
000
000
000
,
000
000
000
000
,
000
000
000
000
,
000
000
000
000
,
000
000
000
000
,
000
000
000
000
,
000
000
000
000
,
000
000
000
000
,
000
000
000
000
,
000
000
000
000
,
000
000
000
000
,
000
000
000
000
,
000
000
000
000
,
000
000
000
000
,
000
000
000
000
,
000
000
000
000
,
000
000
000
000
,
000
000
000
000
,
000
000
000
000
,
000
000
000
000
,
000
000
000
000
,
000
000
000
000
,
000
000
000
000
,
000
000
000
000
,
000
000
000
000
,
000
000
000
000
,
000
000
000
000
,
000
000
000
000
,
000
000
000
000
,
000
000
000
000
,
000
000
000
000
,
000
000
000
000
,
000
000
000
000
,
000
000
000
000
,
000
000
000
000
,
000
000
000
000
,
000
000
000
000
,
000
000
000
000
,
000
000
000
000
,
000
000
000
000
,
000
000
000
000
,
000
000
000
000
,
000
000
000
000
,
000
000
000
000
,
000
000
000
000
,
000
000
000
000
,
000
000
000
000
,
000
000
000
000
,
000
000
000
000
,
000
000
000
000
,
000
000
000
000
,
000
000
000
000
,
000
000
000
000
,
000
000
000
000
,
000
000
000
000
,
000
000
000
000
,
000
000
000
000
,
000
000
000
000
,
000
000
000
000
,
000
000
000
000
,
000
000
000
000
,
000
000
000
000
,
000
000
000
000
,
000
000
000
000
,
000
000
111
000
000
000
000
000
000
000
000
000
;

//---------------dance-double - ----------------
#NOTES:
     dance-double:
     :
     Medium:
     7:
     0.363184,0.384226,0.253525,0.140847,0.017606,361.000000,325.000000,36.000000,20.000000,0.000000,0.000000,0.363184,0.384226,0.253525,0.140847,0.017606,361.000000,325.000000,36.000000,20.000000,0.000000,0.000000:
00000000
00000000
00000000
00000000
,
00000000
00000000
00000000
00000000
,
00000000
00000000
00000000
00000000
,
00000000
00000000
00000000
00000000
,
00000000
00000000
00000000
00000000
,
00100000
00000000
10010000
00000000
00100000
00001000
00000000
00010000
,
00000000
00010000
00001000
00000000
00010000
00000000
00000100
00000000
,
00001000
00000000
00001001
00000000
00000010
00001000
00000000
00001000
,
00000000
00000100
00001000
00000000
00010000
00000000
00011000
00000000
,
00100000
00000000
00020000
00000000
00030000
00000000
00000000
10000000
,
00000000
00010000
00100000
00000000
01000000
00000000
10000000
00000000
,
00100000
00000000
01000000
00000000
00010000
00000000
00100000
00001000
,
00000000
00022000
00000000
00033000
00000000
00010000
00000100
00000000
,
00001000
00000000
00002002
00000000
00003003
00000000
00000000
00000010
,
00000000
00001000
00000100
00000000
00010000
00000000
00001000
00000000
,
00100000
00000000
00010000
00000000
10000000
00010000
10000000
00010000
,
00000000
01000000
00000000
00001000
00000000
00000000
00010000
00002000
,
00000000
00000000
00003000
00000000
,
00010000
00000100
00001000
00000001
,
00001000
00000000
00000100
00000000
00010000
00001000
00000000
00001000
,
00000000
00001000
00100000
00000000
00010000
00000000
01000000
00000000
,
10010000
00000000
02200000
00000000
03300000
00000000
00000000
00100000
,
00000000
10000000
01000000
00010000
,
00100000
00000000
00010000
00000000
01000000
00010000
01000000
00010000
,
00000000
20020000
00000000
30030000
00000000
00000000
01000000
00000000
,
00100000
00000000
20020000
00000000
30030000
00000000
00000000
00100000
,
00000000
00001000
00010000
00000000
00001000
00000000
00010000
00000000
,
00000100
00000000
00001000
00000000
00000010
00000000
00000100
00000001
,
00000000
00001001
00000000
00000110
00000000
00000000
00000010
00002000
,
00000000
00000100
00003100
00000000
,
00000001
00000000
00000000
00000001
00000000
00000000
00000001
00000000
00000000
00000000
00000000
00000000
00000110
00000000
00000000
00000000
,
00001000
00000000
00000100
00000000
00010000
00001000
00010000
00000000
,
00001000
00000000
00100000
00000000
00010000
01000000
10000000
00000000
,
00000000
01100000
10010000
00000000
,
00100000
00000000
00000000
00100000
00000000
00000000
00100000
00000000
00000000
00000000
10000000
00000000
01000000
00000000
00100000
00000000
,
00010000
00100000
00001000
00010000
,
00000000
00001000
00010000
00001000
00010000
00000000
00011000
00000000
,
00010000
00000000
00000100
00000000
00001000
00000000
00000000
00001001
,
00000000
00001001
00000000
00000000
00000000
00000010
00000000
00001000
,
00000000
00000100
00001000
00000100
00000000
00010000
00000000
00001000
,
00000000
00010000
00001000
00010000
00000000
00001000
00000000
00000000
,
00100000
00000000
00010000
00000000
01000000
00000000
00100000
01000000
,
00000000
10010000
00000000
00000000
00000000
00100000
00000000
00001000
,
00000000
00010000
00001000
00010000
00000000
00000100
00000000
00001000
,
00000000
00000001
00000100
00000001
00000000
00000000
00001000
00000000
,
00000020
00000100
00000000
00000100
,
00000000
00001000
00000000
00001030
,
00000001
00000000
00000100
00000000
00000010
00001000
00000000
00000100
,
00000000
00001100
00000100
00010000
,
00001000
00202000
00000000
00303000
,
00010000
01000000
10000000
00100000
,
01000000
00000000
00010000
00000000
00100000
00000000
00001000
00010000
,
00000000
00001000
00010000
00000100
,
00001000
00000000
00000001
00000000
00001000
00000100
00000010
00000000
,
00000001
00001000
00000001
00000000
00001000
00000001
00001000
00000000
,
00000100
00010000
00001000
00100000
,
00010000
01000000
00010000
00000000
10000000
00100000
10000000
00000000
,
00010000
01010000
10100000
00000000
,
00100000
00000000
00000000
00100000
00000000
00000000
00100000
00000000
00000000
00000000
10000000
00000000
00010000
00000000
00000000
00000000
,
00100000
00000000
00001000
00000000
00010000
00000100
00010000
00000000
,
00000100
00000000
00001000
00000000
00000001
00000100
00000001
00000100
,
00000000
00001010
00000101
00000000
,
00000010
00000000
00000000
00000010
00000000
00000000
00000010
00000000
00000000
00000000
00000000
00000000
00001001
00000000
00000000
00000000
,
00000010
00000000
00001000
00000100
00001000
00000000
00000010
00000000
,
00000000
00001000
00000100
00001000
00000100
00000000
00020000
00030000
,
00001000
00000000
00001000
00000000
00100000
00010000
01000000
00100000
,
00000000
10010000
00000000
00000000
00000000
10000000
00000000
00010000
,
00000000
00100000
00010000
00100000
00000000
00001000
00000000
00010000
,
00000000
00001000
00010000
00001000
00000000
00011000
00000000
00000000
,
00010000
00000000
00000100
00000000
00001000
00000010
00001000
00000010
,
00000000
00001001
00000000
00000000
00000000
00000001
00000000
00000001
,
00000000
00001000
00000100
00001000
00000000
00000010
00000000
00000010
,
00000000
00001000
00000100
00010000
00000000
00011000
00000000
00000000
,
00001000
00000000
00001000
00000000
00100000
00010000
00000000
01010000
,
00000000
10010000
00000000
00000000
00000000
00100000
10000000
01000000
,
00000000
00100000
00000000
00001000
00000000
00010000
00001000
00010000
,
00000000
00000100
00000000
00001000
00000000
00001001
00000000
00000000
,
00000010
00000000
00000110
00000000
00000001
00000100
00000010
00001000
,
00000000
00001001
00000000
00000000
00000000
00000010
00000000
00000010
,
00000000
00001000
00000100
00001000
00000000
00000100
00000000
00010000
,
00000000
00001000
00010000
00001000
00000000
00000000
00010000
00000000
,
00002000
00000000
00103000
00000000
00100000
00010000
00000000
02020000
,
00000000
03030000
00100000
10000000
,
00010000
00000000
00000000
00000000
00100000
00000000
00000000
00000000
00001000
00000000
00000000
00000000
00010000
00000000
00000000
00011000
;

//---------------dance-single - ----------------
#NOTES:
     dance-single:
     :
     Medium:
     7:
     0.367208,0.443338,0.274652,0.154932,0.017606,365.000000,326.000000,39.000000,22.000000,0.000000,0.000000,0.367208,0.443338,0.274652,0.154932,0.017606,365.000000,326.000000,39.000000,22.000000,0.000000,0.000000:
// measure 0
0000
0000
0000
0000
,  // measure 1
0000
0000
0000
0000
,  // measure 2
0000
0000
0000
0000
,  // measure 3
0000
0000
0000
0000
,  // measure 4
0000
0000
0000
0000
,  // measure 5
0010
0000
1001
0000
1000
0001
0000
1000
,  // measure 6
0000
1000
0001
0000
1000
0000
0100
0000
,  // measure 7
0010
0000
0001
0000
1000
0001
0000
0001
,  // measure 8
0000
1000
0010
0000
0100
0000
0001
0000
,  // measure 9
1000
0000
2002
0000
3003
0000
0000
1000
,  // measure 10
0000
1000
0010
0000
0100
0000
0001
0000
,  // measure 11
1000
0000
0100
0000
0010
0000
0001
1000
,  // measure 12
0000
2002
0000
3003
0000
0001
1000
0000
,  // measure 13
0010
0000
0220
0000
0330
0000
0000
0001
,  // measure 14
0000
0010
0100
0000
1000
0000
0010
0000
,  // measure 15
0100
0000
0001
0000
1000
0001
1000
0001
,  // measure 16
0000
1000
0000
0010
0000
0000
0100
0020
,  // measure 17
0000
0000
0030
0000
,  // measure 18
1000
0100
0010
0001
,  // measure 19
1000
0000
0001
0000
1000
0010
0000
0010
,  // measure 20
0000
0010
1000
0000
0001
0000
0100
0000
,  // measure 21
1001
0000
0220
0000
0330
0000
0000
0010
,  // measure 22
0000
0001
0100
0010
,  // measure 23
1000
0000
0001
0000
0100
0001
0100
0001
,  // measure 24
0000
2002
0000
3003
0000
0000
0100
0000
,  // measure 25
0010
0000
2002
0000
3003
0000
0000
0010
,  // measure 26
0000
1000
0001
0000
1000
0000
0001
0000
,  // measure 27
1000
0000
0100
0000
0010
0000
0001
1000
,  // measure 28
0000
1001
0000
0110
0000
0000
0010
0200
,  // measure 29
0000
0001
0301
0000
,  // measure 30
1000
0000
0000
1000
0000
0000
1000
0000
0000
0000
0000
0000
0110
0000
0000
0000
,  // measure 31
0001
0000
0100
0000
1000
0001
1000
0000
,  // measure 32
0010
0000
0010
0000
0001
0100
1000
0000
,  // measure 33
0000
0110
1001
0000
,  // measure 34
0010
0000
0000
0010
0000
0000
0010
0000
0000
0000
1000
0000
0100
0000
0010
0000
,  // measure 35
0001
0010
0100
1000
,  // measure 36
0000
0001
1000
0001
1000
0000
1001
0000
,  // measure 37
0010
0000
0001
0000
0100
0000
0000
1001
,  // measure 38
0000
1001
0000
0000
0000
0010
0000
1000
,  // measure 39
0000
0001
0010
0001
0000
1000
0000
0100
,  // measure 40
0000
0010
0001
0010
0000
0001
0000
0000
,  // measure 41
0010
0000
0001
0000
0100
0000
0010
0100
,  // measure 42
0000
1001
0000
0000
0000
0010
0000
1000
,  // measure 43
0000
0001
1000
0001
0000
1000
0000
0010
,  // measure 44
0000
0100
0001
0100
0000
0000
0010
0000
,  // measure 45
2000
0001
0000
0001
,  // measure 46
0000
0010
0000
3010
,  // measure 47
0100
0000
0001
0000
1000
0010
0000
0100
,  // measure 48
0000
1001
0100
0010
,  // measure 49
0001
2002
0000
3003
,  // measure 50
0001
0100
1000
0010
,  // measure 51
0100
0000
0001
0000
0010
0000
0001
1000
,  // measure 52
0000
0010
0100
0001
,  // measure 53
1000
0000
0010
0000
1000
0001
1000
0000
,  // measure 54
0001
1000
0001
0000
1000
0001
1000
0000
,  // measure 55
0010
0100
0001
1000
,  // measure 56
0001
0100
0001
0000
1000
0010
1000
0000
,  // measure 57
0001
0101
1010
0000
,  // measure 58
0010
0000
0000
0010
0000
0000
0010
0000
0000
0000
1000
0000
0001
0000
0000
0000
,  // measure 59
0010
0000
0001
0000
1000
0001
1000
0000
,  // measure 60
0010
0000
0100
0000
0010
0100
0010
0100
,  // measure 61
0000
1001
0110
0000
,  // measure 62
0100
0000
0000
0100
0000
0000
0100
0000
0000
0000
0000
0000
1001
0000
0000
0000
,  // measure 63
0010
0000
1000
0100
1000
0000
0010
0000
,  // measure 64
0000
0100
0001
0100
0001
0000
2002
3003
,  // measure 65
0010
0000
0010
0000
0010
0000
0001
0100
,  // measure 66
0000
1001
0000
0000
0000
1000
0000
0001
,  // measure 67
0000
1000
0001
1000
0000
0100
0000
0010
,  // measure 68
0000
0001
1000
0001
0000
1001
0000
0000
,  // measure 69
0001
0000
0100
0000
0010
0100
0010
0100
,  // measure 70
0000
1001
0000
0000
0000
1000
0000
0010
,  // measure 71
0000
0100
0001
0100
0000
0010
0000
1000
,  // measure 72
0000
0001
1000
0001
0000
1001
0000
0000
,  // measure 73
0110
0000
1001
0000
1000
0001
1000
0001
,  // measure 74
0000
1001
0000
0000
0000
0010
1000
0010
,  // measure 75
0000
0100
0001
0100
0000
1000
0000
0001
,  // measure 76
0000
0100
0010
0100
0000
1001
0000
0000
,  // measure 77
0010
0000
0110
0000
1000
0000
0001
0100
,  // measure 78
0000
1001
0000
0000
0000
0010
1000
0010
,  // measure 79
0000
1000
0001
1000
0000
0001
0000
0100
,  // measure 80
0000
0010
0100
0010
0000
0000
1001
0000
,  // measure 81
0200
0000
0310
0000
1000
0001
0000
2002
,  // measure 82
0000
3003
0010
1000
,  // measure 83
0001
0000
0000
0000
0010
0000
0000
0000
0100
0000
0000
0000
1001
0000
0000
1001
;

//---------------dance-single - ----------------
#NOTES:
     dance-single:
     :
     Beginner:
     1:
     0.111672,0.147889,0.021127,0.112678,0.000000,111.000000,108.000000,3.000000,16.000000,0.000000,0.000000,0.111672,0.147889,0.021127,0.112678,0.000000,111.000000,108.000000,3.000000,16.000000,0.000000,0.000000:
0000
0000
0000
0000
,
0000
0000
0000
0000
,
0000
0000
0000
0000
,
0000
0000
0000
0000
,
0000
0000
0000
0000
,
0000
1000
0000
1000
,
0000
1000
0000
0000
,
0000
0001
0000
0001
,
0000
0001
0000
0000
,
0100
0100
0000
0000
,
0000
0010
0000
0010
,
0000
0010
0000
0010
,
0000
0000
0000
0000
,
1000
1000
0000
0000
,
0000
0001
0000
0001
,
0000
0001
0000
0001
,
0000
0000
0000
0000
,
0000
0100
0000
0100
,
0000
0100
0000
0000
,
0000
0010
0000
0010
,
0000
0010
0000
0000
,
1000
1000
0000
0000
,
0000
0001
0000
0001
,
0000
0001
0000
0001
,
0000
0000
0000
0000
,
1000
1000
0000
0000
,
0000
0010
0000
0010
,
0000
0010
0000
0010
,
0000
0000
0000
0000
,
0000
0100
0100
0000
,
0200
0000
0300
0000
,
0000
0000
0001
0000
,
0001
0000
0001
0000
,
0000
0010
0010
0000
,
0020
0000
0030
0000
,
0000
1000
0000
1000
,
0000
1000
1000
0000
,
0001
0000
1000
0000
,
0002
0000
0003
0000
,
1000
0000
0001
0000
,
2000
0000
3000
0000
,
0010
0000
0100
0000
,
0020
0000
0030
0000
,
0100
0000
0010
0000
,
0200
0000
0300
0000
,
2002
0000
0000
0000
,
3003
0000
0000
0000
,
0000
0000
0000
0000
,
0000
0000
0000
0000
,
0010
0000
0000
0000
,
0100
0000
0100
0000
,
0100
0000
0000
0000
,
0010
0000
0000
0000
,
1000
0000
0000
0000
,
0001
0000
0001
0000
,
0001
0000
0000
0000
,
1000
0000
0000
0000
,
0000
0010
0010
0000
,
0020
0000
0030
0000
,
0000
0000
0100
0000
,
0100
0000
0100
0000
,
0000
1000
1000
0000
,
2000
0000
3000
0000
,
0001
0000
0001
0000
,
0000
0000
1001
0000
,
0000
0010
0000
0020
,
0000
0030
0000
0000
,
0000
0000
0100
0000
,
0100
0000
0100
0000
,
0000
0000
0001
0000
,
0002
0000
0003
0000
,
0000
0000
1000
0000
,
0001
0000
1000
0000
,
0000
0000
0010
0000
,
0020
0000
0030
0000
,
0000
0000
0100
0000
,
0010
0000
0100
0000
,
0000
0000
0010
0000
,
0020
0000
0030
0000
,
0000
0000
1000
0000
,
0001
0000
1000
0000
,
0002
0000
0003
0000
,
2000
0000
3000
0000
,
0000
0000
0001
0000
,
1001
0000
0000
0000
;

//---------------dance-double - ----------------
#NOTES:
     dance-double:
     :
     Easy:
     4:
     0.184107,0.266201,0.028169,0.042254,0.000000,183.000000,179.000000,4.000000,6.000000,0.000000,0.000000,0.184107,0.266201,0.028169,0.042254,0.000000,183.000000,179.000000,4.000000,6.000000,0.000000,0.000000:
00000000
00000000
00000000
00000000
,
00000000
00000000
00000000
00000000
,
00000000
00000000
00000000
00000000
,
00000000
00000000
00000000
00000000
,
00000000
00000000
00000000
00000000
,
00000000
00100000
00000000
00100000
,
00000000
00010000
00000000
00010000
,
00000000
10000000
00000000
10000000
,
00000000
00100000
00000000
00100000
,
01000000
00010000
00000000
00000000
,
00000000
00100000
00000000
00100000
,
00000000
00001000
00000000
00001000
,
00000000
00010000
00000000
00010000
,
00000100
00001000
00000000
00000000
,
00000000
00000010
00000000
00000010
,
00000000
00000100
00000000
00000100
,
00000000
00000001
00000000
00001000
,
00002000
00000000
00000000
00000000
,
00003000
00000000
00000000
00000100
,
00000000
00000001
00000000
00000100
,
00000000
00001000
00000000
00000100
,
00010000
00001000
00000000
00000000
,
00000000
00010000
00000000
00010000
,
00000000
00001000
00000000
00001000
,
00000000
00100000
00000000
00100000
,
00010000
01000000
00000000
00000000
,
00000000
00100000
00000000
00100000
,
00000000
10000000
00000000
01000000
,
00000000
00100000
00000000
00010000
,
00000000
01000000
01000000
00000000
,
00002000
00000000
00013000
00000000
,
00010000
00000100
00010000
00000000
,
00000100
00001000
00000100
00000000
,
00000000
00001000
00001000
00000000
,
00000002
00000000
00001003
00000000
,
00000010
00001000
00000010
00000000
,
00000000
00001000
00000100
00000000
,
00010000
00000000
00010000
00000000
,
00001000
00000000
00001000
00000000
,
01000000
00010000
01000000
00000000
,
00100000
10000000
00100000
00000000
,
01000000
00000000
01000000
00000000
,
00100000
00000000
00100000
00000000
,
10000000
00010000
10000000
00000000
,
00100000
00000000
01000000
00000000
,
00002000
00000000
00000000
00000000
,
00020000
00000000
00033000
00000000
,
00010000
00000000
00000100
00000000
,
00001000
00000000
00000001
00000000
,
00001000
00000020
00000030
00000000
,
00001000
00000100
00000010
00000001
,
00000100
00000000
00000010
00000000
,
00001000
00000000
00000100
00000000
,
00010000
00000000
00001000
00000000
,
00010000
00010000
00001000
00001000
,
00100000
00000000
00010000
00000000
,
01000000
00100000
10000000
00010000
,
01000000
01000000
01000000
00000000
,
00010000
00000000
00100000
00000000
,
00001000
00010000
00001000
00000000
,
00010000
00001000
00010000
00000000
,
00000100
00000100
00000100
00000000
,
00001000
00000000
00000001
00000000
,
00000100
00000010
00000100
00000000
,
00000001
00000100
00001000
00000000
,
00000000
00000010
00001000
00000100
,
00000000
00010000
00000000
00001000
,
00000000
00100000
00000000
00010000
,
00000000
01000000
00000000
00100000
,
00000000
10000000
01000000
00010000
,
00000000
00100000
00000000
00001000
,
00000000
00010000
00000000
00000100
,
00000000
00001000
00000000
00000001
,
00001000
00001000
00001000
00001000
,
00000000
00001001
00000000
00000110
,
00000000
00000001
00000000
00000100
,
00000000
00001000
00000000
00000100
,
00010000
00010000
00010000
00001000
,
00000000
00100000
00000000
00010000
,
00000000
01000000
00000000
00100000
,
00000000
10000000
00000000
01000000
,
00000000
00100000
00000000
10010000
,
00000000
00100000
00000000
00001000
,
00010000
00000000
00001000
00000000
,
00011000
00000000
00000000
00000000
;

//---------------dance-single - ----------------
#NOTES:
     dance-single:
     :
     Easy:
     3:
     0.168010,0.207045,0.014085,0.077466,0.000000,167.000000,165.000000,2.000000,11.000000,0.000000,0.000000,0.168010,0.207045,0.014085,0.077466,0.000000,167.000000,165.000000,2.000000,11.000000,0.000000,0.000000:
// measure 0
0000
0000
0000
0000
,  // measure 1
0000
0000
0000
0000
,  // measure 2
0000
0000
0000
0000
,  // measure 3
0000
0000
0000
0000
,  // measure 4
0000
0000
0000
0000
,  // measure 5
0000
0001
0000
0001
,  // measure 6
0000
1000
0000
1000
,  // measure 7
0000
0010
0000
0010
,  // measure 8
0000
0100
0000
0100
,  // measure 9
0001
1000
0000
0000
,  // measure 10
0000
0001
0000
0001
,  // measure 11
0000
1000
0000
1000
,  // measure 12
0000
0010
0000
0010
,  // measure 13
1000
0001
0000
0000
,  // measure 14
0000
0100
0000
0100
,  // measure 15
0000
0001
0000
0001
,  // measure 16
0000
1000
0000
1000
,  // measure 17
2000
0000
0000
0000
,  // measure 18
3000
0000
0000
0000
,  // measure 19
0000
0001
0000
0001
,  // measure 20
0000
1000
0000
1000
,  // measure 21
0010
0100
0000
0000
,  // measure 22
0000
0001
0000
1000
,  // measure 23
0000
0001
0000
1000
,  // measure 24
0000
0010
0000
0100
,  // measure 25
0010
0100
0000
0000
,  // measure 26
0000
0001
0000
0100
,  // measure 27
0000
1000
0000
0010
,  // measure 28
0000
0001
0000
0100
,  // measure 29
0000
0010
0010
0000
,  // measure 30
1000
0001
1000
0000
,  // measure 31
0000
0100
0000
0100
,  // measure 32
0000
0010
0000
0010
,  // measure 33
0000
0100
0100
0000
,  // measure 34
0001
1000
0001
0000
,  // measure 35
0000
0010
0000
0010
,  // measure 36
0000
1000
0001
1000
,  // measure 37
0001
0000
0001
0000
,  // measure 38
0002
0000
0003
0001
,  // measure 39
0000
1000
0000
0100
,  // measure 40
0000
0010
0000
0000
,  // measure 41
1000
0000
1000
0000
,  // measure 42
2000
0000
3000
1000
,  // measure 43
0000
0001
0000
0100
,  // measure 44
0000
0010
0000
0000
,  // measure 45
1000
0000
0001
0000
,  // measure 46
0100
0000
0010
0000
,  // measure 47
1000
0000
0100
0000
,  // measure 48
0010
0000
0001
0000
,  // measure 49
0100
0200
0000
0300
,  // measure 50
0001
0010
0100
1000
,  // measure 51
0020
0030
0200
0300
,  // measure 52
0002
0003
2000
3000
,  // measure 53
0001
0000
1000
0000
,  // measure 54
0010
0010
0100
0100
,  // measure 55
0001
0000
1000
0000
,  // measure 56
0010
0100
0010
0100
,  // measure 57
0000
0001
0001
0000
,  // measure 58
1000
0100
0001
0000
,  // measure 59
0100
0000
0100
0000
,  // measure 60
0001
0100
1000
0000
,  // measure 61
0000
0010
0010
0000
,  // measure 62
1000
0010
0001
0000
,  // measure 63
0100
0000
0100
0000
,  // measure 64
0000
0001
0100
1000
,  // measure 65
0000
0010
0000
0010
,  // measure 66
0000
0010
0000
1000
,  // measure 67
0000
0001
0000
1000
,  // measure 68
0000
0001
0000
0000
,  // measure 69
0100
0000
0100
0000
,  // measure 70
0200
0000
0300
0100
,  // measure 71
0000
0001
0000
0010
,  // measure 72
0000
0100
0000
1000
,  // measure 73
0001
0000
0001
0000
,  // measure 74
0002
0000
0003
0001
,  // measure 75
0000
1000
0000
0001
,  // measure 76
0000
0100
0000
0010
,  // measure 77
1000
0000
1000
0000
,  // measure 78
2000
0000
3000
1000
,  // measure 79
0000
0001
0000
0100
,  // measure 80
0000
0010
0000
1000
,  // measure 81
0000
0001
0000
1000
,  // measure 82
1001
0000
0000
0000
,  // measure 83
0010
0000
0100
0000
,  // measure 84
1001
0000
0000
0000
;
