#TITLE:Initiation;
#SUBTITLE:;
#ARTIST:BEMANI Sound Team "謎の勢力";
#TITLETRANSLIT:;
#SUBTITLETRANSLIT:;
#ARTISTTRANSLIT:BEMANI Sound Team "Nazo no seiryoku";
#GENRE:;
#CREDIT:;
#BANNER:Initiation.png;
#BACKGROUND:Initiation-bg.png;
#LYRICSPATH:;
#CDTITLE:;
#MUSIC:Initiation.ogg;
#OFFSET:0.020000;
#SAMPLESTART:50.300144;
#SAMPLELENGTH:12.000000;
#SELECTABLE:YES;
#BPMS:0.000000=160.000000
,196.000000=40.000000
,211.500000=160.000000
;
#STOPS:36.000000=0.750000,
129.500000=0.750000,
211.500000=0.562500
;
#BGCHANGES:0.000=Initiation.avi=1.000=0=0=0=StretchNoLoop====,
99999=-nosongbg-=1.000=0=0=0 // don't automatically add -songbackground-
;
#KEYSOUNDS:;
#ATTACKS:;

//---------------dance-single - ----------------
#NOTES:
     dance-single:
     :
     Hard:
     16:
     0.722916,0.807704,0.149066,0.282442,0.651185,645.000000,626.000000,19.000000,36.000000,0.000000,0.000000,0.722916,0.807704,0.149066,0.282442,0.651185,645.000000,626.000000,19.000000,36.000000,0.000000,0.000000:
0000
0000
0000
0000
,
0000
0000
0000
0000
,
0000
0000
0000
0000
,
0000
0000
0000
0000
,
0000
0000
0000
0000
,
0020
0001
0000
0001
0000
0001
0000
0031
,
2000
0100
0000
0100
0000
0100
0000
3100
,
0020
0000
0000
0100
0000
0000
0000
0000
0000
0130
0000
0000
0110
0000
0000
0000
1001
0000
0000
0000
0001
0000
0100
0000
,
1000
0000
1001
0000
1000
0100
1000
0010
1000
0001
0100
0010
,
1000
0000
0001
0000
0100
0000
0010
0000
1000
0100
1000
0000
0010
0000
0100
0000
,
0001
0010
0001
0000
0100
0000
0010
0000
1000
0010
1000
0000
0010
0000
0100
0000
,
0001
0100
0001
0000
1000
0000
0010
0000
1000
0010
1000
0000
0001
0000
0100
0000
,
0010
1000
0010
0000
0100
0000
0001
0000
0010
0001
0010
0000
0001
0000
1000
0000
,
0100
0001
0100
0000
0010
0000
1000
0000
0001
0100
0010
0000
1000
0000
0010
0000
,
0100
0001
1000
0000
0010
0000
1000
0000
0001
0010
0001
0000
0100
0000
0010
0000
,
1000
0100
1000
0000
0010
0000
0100
0000
0001
1000
0100
0000
1000
0000
0010
0000
,
1000
0001
0100
0000
0001
0000
0010
0000
0001
1000
0100
0000
1000
0000
0010
0000
,
0100
0000
0001
0000
0010
0000
0001
0000
1000
0000
0001
0000
0100
0010
0100
0000
,
0001
0000
1000
0000
0010
0100
0010
0000
1000
0000
0100
0000
0010
1000
0010
0000
,
0100
0000
0001
0000
0010
0001
0010
0000
0001
0000
1000
0000
0100
1000
0100
0000
,
1000
0000
0001
0000
0010
0001
0010
0000
0001
0000
0100
0000
0010
1000
0100
0000
,
1000
0000
0001
0000
0100
0010
0001
0000
1000
0000
0010
0000
0100
0001
0010
0001
,
0100
0000
0001
0000
1000
0100
0010
0000
1000
0000
0001
0000
0100
0010
1000
0010
,
0100
0000
0001
0000
1000
0010
0100
0000
0001
1000
0100
0000
1000
0010
0100
0000
,
0001
0100
0010
0000
1000
0100
0010
0000
1000
0010
1000
0010
0100
0001
0100
0001
,
1000
0100
0010
0001
1000
0100
0010
0001
1000
0000
0000
0000
1001
0000
0000
0000
,
0010
1000
0000
0001
0000
1000
0010
0000
0000
1000
0100
0000
1000
0000
0001
0000
,
0010
0001
0000
0100
0000
0010
1000
0000
1001
0000
0000
0000
0101
0000
0000
0010
,
1000
0010
0000
0100
0000
0100
0001
0000
0000
1000
0010
0000
0100
0000
0001
0000
,
1000
0100
0000
0010
0000
0001
1000
0000
0001
0000
0100
0000
0001
0000
1000
0000
,
0001
0010
0000
0001
0000
0100
0001
0000
1000
0010
1000
0000
0001
0000
0100
0000
,
0001
0010
0000
0001
0000
0100
0010
0000
2002
0000
3003
0000
2200
0000
3300
0010
,
0001
0100
0000
1010
0000
0001
0100
0000
0000
0000
0010
0000
1000
0000
0001
0000
,
0100
0000
0001
0000
1000
0100
0010
0001
1000
0000
0100
0000
1000
0010
0100
0001
,
1000
0000
0010
0000
1000
0001
0100
0010
1000
0000
0001
0000
0010
0001
0100
0010
,
1000
0000
0001
0000
1000
0010
0100
0001
1000
0000
0010
0000
1000
0100
0010
0001
,
0100
0000
0001
0000
0010
0100
0001
1000
0010
0000
0100
0000
0001
0010
0100
0000
,
0001
0000
1000
0000
0001
0100
0010
0100
0001
0000
1000
0000
0010
1000
0100
1000
,
0010
0000
0100
0000
0001
0010
0001
0100
0001
0000
1000
0000
0010
0100
1000
0000
,
0001
0000
0100
0000
0010
1000
0001
0100
0001
0000
1000
0000
0010
0100
0001
1000
,
0100
0000
1000
0000
0010
1000
0100
1000
0010
0000
0100
0000
0011
0000
1000
0000
,
0101
0000
1000
0000
0001
0010
0100
1000
0001
0000
0100
0000
0010
1000
0010
0000
,
1010
0000
0001
0000
1000
0100
0010
0001
1000
0000
0010
0000
0100
0010
0001
0000
,
1000
0000
0101
0000
1000
0001
0100
0001
1000
0000
0010
0000
1000
0100
0010
0000
,
0100
0000
1001
0000
0010
0100
0001
0100
0010
0000
1100
0000
0001
0100
0010
0000
,
1000
0000
0001
0000
0010
0001
0100
0000
0010
0000
0001
0000
1000
0100
0010
0000
,
1000
0000
0001
0000
0100
0010
1000
0000
0100
0000
0001
0000
0100
0010
1000
0000
,
0001
0010
0100
0000
1000
0100
0010
0000
0001
0100
0010
0000
1000
0010
0100
0000
,
0002
0000
2000
3003
,
0020
0000
0032
0203
2300
0000
3002
0000
,
0203
0000
0320
2030
3200
0000
0302
2003
,
3020
0000
0032
0203
2300
3020
0230
0301
,
2020
0000
3030
0100
0202
0000
0303
0001
0022
0000
0033
1000
2002
0003
3020
0000
,
1030
0010
1000
0001
1000
0010
1000
0001
,
0100
0001
0010
0001
0100
0001
0010
0001
,
1000
0100
1000
0010
1000
0100
1000
0010
,
0100
0001
0010
0001
0100
0001
0010
0001
,
1000
0100
1000
0000
0100
1000
0100
0000
1000
0000
0010
0000
0100
0000
0001
0000
,
0010
0001
0010
0000
0001
0010
0001
0000
0100
0000
0010
0000
1000
0000
0001
0000
,
1000
0100
1000
0000
0100
1000
0100
0000
0010
0001
0010
0000
0001
0010
0001
0000
,
0100
0010
0100
0000
0010
0100
0010
0000
0001
0000
0100
0000
0010
0000
1000
0000
,
0001
0000
0100
0000
0001
0010
0100
1000
0010
0000
0100
0000
0001
1000
0001
0000
,
1000
0000
0100
0000
1000
0100
0010
0001
0100
0000
0010
0000
1000
0001
1000
0000
,
0010
0000
0100
0000
0001
0100
0010
1000
0010
0000
0100
0000
0001
0010
0001
0000
,
1000
0000
0010
0000
0100
0001
0010
0001
0100
0000
0010
0000
1000
0100
0010
0000
,
0001
0000
0100
0000
0001
0100
0010
0000
1000
0000
0010
0000
1000
0010
0100
0000
,
0001
0000
1000
0000
0100
1000
0001
0000
1000
0000
0001
0000
0100
0001
1000
0000
,
0001
0010
0001
0000
1000
0100
1000
0000
0010
0100
0010
0000
1000
0100
1000
0000
,
0001
0010
0001
0010
0100
1000
0100
1000
0001
0100
1000
0100
0001
1000
0010
0100
,
0002
0000
0000
0000
,
0000
0000
0000
0000
,
0003
0000
0000
0000
;

//---------------dance-double - ----------------
#NOTES:
     dance-double:
     :
     Hard:
     16:
     0.685929,0.724149,0.125530,0.282442,0.517810,612.000000,596.000000,16.000000,36.000000,0.000000,0.000000,0.685929,0.724149,0.125530,0.282442,0.517810,612.000000,596.000000,16.000000,36.000000,0.000000,0.000000:
00000000
00000000
00000000
00000000
,
00000000
00000000
00000000
00000000
,
00000000
00000000
00000000
00000000
,
00000000
00000000
00000000
00000000
,
00000000
00000000
00000000
00000000
,
00200000
01000000
00000000
01000000
00000000
01300000
00000000
10000000
,
00010000
00200000
00000000
00010000
00000000
00010000
00000000
00310000
,
02000000
00000000
00000000
00001000
00000000
00000000
00000000
00000000
00000000
03001000
00000000
00000000
01000000
00000000
00000000
00000000
01010000
00000000
00000000
00000000
10000000
00000000
00100000
00000000
,
01000000
00000000
01010000
00000000
01000000
00010000
10000000
01000000
00100000
00010000
00001000
00000100
,
00000010
00001000
00000010
00001000
00000001
00000100
00000001
00000100
,
00001000
00000100
00001000
00000100
00000001
00000100
00001000
00000100
,
00010000
00001000
01000000
00010000
01000000
10000000
01000000
10000000
,
01000000
00010000
01000000
00010000
01000000
10000000
01000000
00010000
,
00100000
00001000
00010000
00000010
00001000
00000100
00001000
00000100
,
00000010
00000001
00000010
00000001
00001000
00000100
00010000
00001000
,
01000000
00010000
10000000
01000000
00100000
00010000
00100000
00010000
,
10000000
01000000
10000000
01000000
00100000
00010000
10000000
01000000
,
00100000
00000000
00001000
00000000
00010000
00000000
00000010
00000000
00001000
00000000
00000010
00000000
00001000
00000001
00000100
00000000
,
00000001
00000000
00001000
00000000
00000100
00000000
00010000
00000000
00001000
00000000
00100000
00000000
00010000
10000000
01000000
00000000
,
10000000
00000000
00010000
00000000
00100000
00010000
00100000
00000000
00010000
00000000
10000000
00000000
00100000
10000000
01000000
00000000
,
10000000
00000000
00010000
00000000
00100000
00000000
00001000
00000000
00010000
00000000
00000010
00000000
00001000
00000100
00000010
00000000
,
00000001
00000000
00000100
00000000
00000010
00001000
00000100
00000000
00001000
00000000
00000100
00000000
00010000
00001000
00100000
00001000
,
00010000
00000000
00001000
00000000
00100000
00010000
01000000
00000000
00100000
00000000
10000000
00000000
01000000
00100000
00010000
00100000
,
01000000
00000000
00010000
00000000
00100000
00001000
00010000
00000000
00000100
00000000
00010000
00000000
00000010
00001000
00000100
00000000
,
00001000
00000000
00000001
00000000
00000100
00000010
00001000
00000000
00000100
00001000
00000010
00001000
00000100
00001000
00000010
00001000
,
00000100
00010000
00001000
00010000
00000100
00010000
00001000
00000000
01000000
00000000
00000000
00000000
01010000
00000000
00000000
00010000
,
10000000
00100000
00000000
00100000
00000000
00100000
10000000
00000000
00000000
00010000
00100000
00000000
00001000
00000000
00010000
00000000
,
00000100
00001000
00000000
00000001
00000000
00001000
00000100
00000000
00001100
00000000
00000000
00000000
00010100
00000000
00000000
00000100
,
00010000
00001000
00000000
00001000
00000000
00010000
00001000
00000000
00000000
00010000
01000000
00000000
00100000
00000000
10000000
00000000
,
00010000
00100000
00000000
00001000
00000000
00010000
00001000
00000000
00011000
00000000
00000000
00000000
00010010
00000000
00000000
00000010
,
00001000
00000100
00000000
00001000
00000000
00000001
00001000
00000000
00000100
00001000
00000010
00000000
00001000
00000000
00000100
00000000
,
00010000
00001000
00000000
00010000
00000000
00001000
01000000
00000000
02020000
00000000
03030000
00000000
20020000
00000000
30030000
00100000
,
10000000
01000000
00000000
00110000
00000000
01000000
00001000
00000000
00000000
00000000
00000001
00000000
00001000
00000000
00000100
00000000
,
00000001
00000000
00000001
00000000
00001000
00000100
00000010
00000001
00001000
00000000
00001000
00000000
00000100
00010000
00001000
00000000
,
00010000
00000000
00010000
00000000
00001000
00100000
00010000
00100000
00001000
00000000
00100000
00000000
00010000
01000000
00100000
00000000
,
10000000
00000000
10000000
00000000
00010000
00100000
01000000
10000000
00100000
00000000
00100000
00000000
01000000
00010000
00100000
00000000
,
00001000
00000000
00001000
00000000
00010000
00000100
00010000
00001000
00010000
00000000
00000100
00000000
00001000
00000010
00000100
00000000
,
00000001
00000000
00001000
00000000
00000100
00001000
00000010
00000100
00000001
00000000
00001000
00000000
00000100
00010000
00001000
00000000
,
00010000
00000000
00001000
00000000
00100000
00010000
01000000
00100000
10000000
00000000
00010000
00000000
10000000
01000000
00100000
00000000
,
10000000
00000000
00010000
00000000
00100000
00001000
00010000
00001000
00100000
00000000
00001000
00000000
00010000
00000100
00001000
00000000
,
00000010
00000000
00000100
00000000
00000001
00001000
00000100
00000010
00000001
00000000
00001000
00000000
00000101
00000000
00001000
00000000
,
00000011
00000000
00000100
00000000
00000001
00000010
00000100
00001000
00000010
00000000
00001000
00000000
00000100
00010000
00001000
00000000
,
01000000
00000000
00010000
00000000
00100000
00010000
01000000
00010000
00100000
00000000
10000000
00000000
01000000
00010000
00100000
00000000
,
00001000
00000000
00010000
00000000
00000100
00001000
00000001
00001000
00000100
00000000
00000010
00000000
00001000
00000100
00010000
00000000
,
00001000
00000000
00100000
00000000
00010000
10000000
01000000
10000000
00010000
00000000
00100000
00000000
00001000
00010000
00001000
00000000
,
00010000
00000000
00000100
00000000
00001000
00000100
00000010
00000000
00000001
00000000
00000100
00000000
00000010
00001000
00000100
00000000
,
00010000
00000000
00001000
00000000
00100000
00010000
01000000
00000000
00100000
00000000
10000000
00000000
00010000
00100000
00001000
00000000
,
00010000
00000100
00010000
00000000
00000010
00001000
00000010
00000000
00001000
00000001
00000100
00000000
00000001
00001000
00000100
00000000
,
00002000
00003200
00020300
00032000
,
02003000
00000000
03200000
20300000
32000000
00010000
00100000
00010000
,
03002000
00023000
00030200
00002300
00003002
00000023
00000230
00002300
,
00003020
00000000
00002030
00003200
00020300
00001000
00000100
00001000
,
00030020
00000000
00000030
00001000
00002200
00000000
00003300
00010000
00022000
00000000
00033000
00100000
00220000
00300000
01030000
00000000
,
00100000
10000000
01000000
10000000
00100000
01000000
00010000
00100000
,
00001000
00010000
00001000
00100000
00001000
00010000
00000010
00001000
,
00000001
00000010
00000001
00001000
00000100
00000010
00000001
00001000
,
00000100
00010000
00001000
01000000
00010000
00100000
01000000
10000000
,
00100000
00000000
10000000
00000000
00010000
01000000
00100000
00000000
10000000
00000000
00010000
00000000
00100000
00000000
00001000
00000000
,
00010000
00000000
00000010
00000000
00001000
00000100
00000010
00000000
00001000
00000000
00000001
00000000
00000100
00000000
00000010
00000000
,
00010000
00000000
00001000
00000000
00010000
00000100
00001000
00000000
00000010
00000000
00010000
00000000
00001000
00100000
00010000
00000000
,
01000000
00000000
00100000
00000000
10000000
01000000
00100000
00000000
00010000
01000000
00100000
00000000
10000000
00010000
01000000
00000000
,
00100000
00000000
10000000
00000000
00100000
01000000
00010000
01000000
00100000
00000000
01000000
00000000
00001000
00000000
00010000
00000000
,
00000010
00000000
00001000
00000000
00000100
00001000
00000001
00001000
00000100
00000000
00010000
00000000
00001000
00000000
00100000
00000000
,
00010000
00000000
01000000
00000000
00100000
10000000
01000000
10000000
00100000
00000000
01000000
00000000
00010000
00000000
00100000
00000000
,
00001000
00000000
00010000
00000000
00000010
00001000
00000100
00001000
00000010
00000000
00000100
00000000
00000001
00000000
00001000
00000000
,
00000100
00000000
00000100
00000000
00010000
00001000
00010000
00000100
00010000
00000000
00001000
00000000
01000000
00000000
00010000
00000000
,
10000000
00000000
00100000
00000000
10000000
01000000
10000000
00010000
10000000
00000000
00100000
00000000
01000000
00000000
00001000
00000000
,
00010000
00000000
00000100
00000000
00001000
00000100
00000010
00000000
00000001
00000000
00001000
00000000
00000100
00010000
00001000
00000000
,
00100000
00010000
00100000
00010000
10000000
01000000
10000000
01000000
00100000
00010000
10000000
01000000
00100000
00000000
00001000
00000000
,
00022000
00000000
00000000
00000000
,
00000000
00000000
00000000
00000000
,
00033000
00000000
00000000
00000000
;

//---------------dance-double - ----------------
#NOTES:
     dance-double:
     :
     Medium:
     12:
     0.498756,0.557038,0.188294,0.149066,0.074533,445.000000,421.000000,24.000000,19.000000,0.000000,0.000000,0.498756,0.557038,0.188294,0.149066,0.074533,445.000000,421.000000,24.000000,19.000000,0.000000,0.000000:
00000000
00000000
00000000
00000000
,
00000000
00000000
00000000
00000000
,
00000000
00000000
00000000
00000000
,
00000000
00000000
00000000
00000000
,
00000000
00000000
00000000
00000000
,
20000000
00000000
00000000
00010000
00000000
00010000
00000000
00010000
,
00000000
00010000
00000000
00010000
00000000
00010000
00000000
00010000
,
00000000
30010000
00000000
00000000
01100000
00000000
00000000
00000000
,
10010000
00000000
00110000
00011000
,
00001100
00000000
00000000
00000000
00000010
00001000
00000010
00001000
,
00000001
00000100
00000001
00000100
00000010
00001000
00000010
00001000
,
00000001
00000100
00000010
00000000
00001000
00000100
00001000
00000100
,
00010000
00000100
00010000
00000100
00001000
00000100
00001000
00000100
,
00010000
00001000
00010000
00000000
00001000
00100000
00010000
00100000
,
00001000
00100000
00010000
00000000
01000000
00010000
10000000
00010000
,
01000000
00010000
10000000
00000000
00100000
01000000
00010000
01000000
,
00100000
01000000
00010000
00000000
00100000
00001000
00010000
00001000
,
00100000
00001000
00010000
00000000
00000100
00001000
00000010
00000000
,
00000100
00000001
00001000
00000000
00000010
00000100
00000001
00000000
,
00001000
00000000
00001100
00000000
00000100
00010000
00001000
00000000
,
00010000
00001000
01000000
00000000
01000000
00010000
10000000
00000000
,
01100000
00000000
10010000
00000000
00100000
10000000
01000000
00100000
,
00010000
00000000
10010000
00000000
01000000
00010000
00100000
01000000
,
10000000
00000000
00000000
00000000
10010000
00000000
00000000
00000000
00100000
00010000
00100000
00000000
00001000
00000000
00000000
00000000
,
00010000
00001000
00010000
00000000
00000100
00000000
00000000
00000000
00001000
00000100
00001000
00000000
00000010
00000100
00000010
00000000
,
00001000
00000100
00001000
00000000
00000001
00000000
00000000
00000000
00001001
00000000
00000000
00000000
00001001
00000000
00000000
00000000
,
00000010
00000000
00000000
00001000
00000000
00000000
00001100
00000000
00000000
00000000
00000100
00000000
00010000
00000000
00001000
00000000
,
01000000
00000000
00000000
01010000
00000000
00000000
10000000
00000000
10010000
00000000
00000000
00000000
10010000
00000000
00000000
00000000
,
00100000
00000000
00000000
00110000
00000000
00000000
10010000
00000000
00000000
00000000
01000000
00000000
00100000
00000000
10000000
00000000
,
10100000
00000000
00000000
01010000
00000000
00000000
10010000
00000000
00100000
00000000
10000000
00000000
01000000
00000000
10000000
00000000
,
00100000
01000000
00001000
01000000
00010000
00100000
00001000
00100000
,
00001000
00000000
00010000
00000000
00000100
00000000
00010000
00000000
00001000
00000000
00000000
00000000
00011000
00000000
00000000
00010000
,
00001000
00010000
00000000
00000100
00000000
00000000
00001100
00000000
00000000
00000000
00000000
00000000
00000000
00000000
00000000
00000000
,
00000001
00000100
00000001
00001000
00000001
00000100
00000001
00000010
,
00000001
00001000
00000100
00001000
00000010
00001000
00000100
00010000
,
00001000
00010000
00000100
00010000
00001000
00010000
00001000
01000000
,
00001000
00010000
00001000
01000000
00010000
10000000
00100000
10000000
,
01000000
00100000
00010000
00100000
01000000
10000000
00100000
00100000
,
10000000
01000000
00100000
00010000
00100000
00001000
00010000
00010000
,
00001000
00100000
00001000
00010000
00000010
00010000
00001000
00001000
,
00010000
00000100
00001000
00000001
00000100
00000010
00000010
00000010
,
00001000
00000000
00000100
00000000
00001000
00000100
00001000
00000000
00000010
00000000
00000100
00000000
00000001
00000000
00000000
00000000
,
00001000
00000000
00000100
00000000
00010000
00001000
00010000
00000000
00000100
00000000
00010000
00000000
00001000
00000000
00000000
00000000
,
00100000
00000000
00010000
00000000
01000000
00100000
01000000
00000000
00010000
00000000
10000000
00000000
00100000
00000000
00000000
00000000
,
10000000
00000000
00010000
00000000
00100000
00010000
00100000
00000000
00010000
00000000
01000000
00000000
00100000
00000000
00000000
00000000
,
10000000
00000000
00010000
00000000
01000000
00100000
01000000
00000000
00010000
00000000
10000000
00000000
00100000
01000000
00100000
00000000
,
10000000
00000000
00010000
00000000
01000000
00100000
01000000
00000000
00010000
00000000
10000000
00000000
01000000
00000000
00100000
00000000
,
01000000
00100000
01000000
00100000
01000000
00100000
01000000
00200000
,
02000000
00000000
00000000
03300000
,
00002000
00023000
00030200
00002300
,
00003002
00000000
00000023
00000000
00000031
00000100
00001000
00010000
,
00002000
02003000
03020000
20030000
,
30200000
00000000
00000000
00000000
02300000
00000000
00000000
00000000
03002000
00000000
00000000
00000000
00020000
00000000
00000000
00033000
,
00000100
00001000
00000010
00000100
,
00000001
00001000
00000100
00010000
,
00001000
01000000
00100000
10000000
,
00010000
00100000
00001000
00010000
,
00000100
00001000
00000010
00001000
00000100
00001000
00000010
00001000
,
00000100
00010000
00001000
00010000
00000100
00010000
00001000
00010000
,
00001000
01000000
00010000
01000000
00001000
01000000
00010000
00100000
,
00010000
01000000
00100000
10000000
01000000
00100000
00010000
01000000
,
00001000
00010000
00001000
00010000
00000100
00010000
00000100
00010000
,
00000100
00001000
00000100
00001000
00000010
00000100
00000001
00001000
,
00000100
00001000
00000100
00001000
00000100
00010000
00000100
00010000
,
00001000
00100000
00001000
00010000
00001000
00100000
00010000
01000000
,
00100000
10000000
01000000
00100000
00010000
01000000
00100000
01000000
,
00010000
00100000
01000000
10000000
00100000
01000000
00010000
00100000
,
00001000
00010000
00000100
00000000
00000010
00001000
00000100
00000000
,
00000001
00000100
00000010
00001000
00000100
00010000
00001000
00000000
,
00022000
00000000
00000000
00000000
,
00000000
00000000
00000000
00000000
,
00033000
00000000
00000000
00000000
;

//---------------dance-single - ----------------
#NOTES:
     dance-single:
     :
     Medium:
     12:
     0.509964,0.557038,0.203986,0.149066,0.074533,455.000000,429.000000,26.000000,19.000000,0.000000,0.000000,0.509964,0.557038,0.203986,0.149066,0.074533,455.000000,429.000000,26.000000,19.000000,0.000000,0.000000:
0000
0000
0000
0000
,
0000
0000
0000
0000
,
0000
0000
0000
0000
,
0000
0000
0000
0000
,
0000
0000
0000
0000
,
2000
0000
0000
0001
0000
0001
0000
0001
,
0000
0001
0000
0001
0000
0001
0000
0001
,
0000
3001
0000
0000
0110
0000
0000
0000
,
1001
0000
0011
1001
,
1100
0000
0000
0000
0010
1000
0010
1000
,
0001
0100
0001
0100
0010
1000
0010
1000
,
0001
0100
0010
1000
0001
0010
0001
0010
,
0100
1000
0100
1000
0001
0010
0001
0010
,
0001
0100
0010
1000
0001
1000
0001
1000
,
0010
0100
0010
0100
0001
1000
0001
1000
,
0010
0100
0010
0100
0001
0100
0001
0100
,
0010
1000
0010
1000
0001
0100
0001
0100
,
0010
0000
1001
0000
1000
0100
0010
0000
,
1000
0100
0010
0000
1000
0100
0010
0000
,
0010
0001
0100
0000
0001
0010
0100
0000
,
0001
0010
0100
0000
0001
0010
0100
0000
,
0010
1000
0100
0000
0001
1000
0100
0010
,
0001
0000
1001
0000
1000
0001
0010
0100
,
1000
0000
0000
0000
1001
0000
0000
0000
0010
0001
0010
0000
0001
0000
0000
0000
,
1000
0010
1000
0000
0010
0000
0000
0000
1000
0000
0100
0000
0010
0000
0001
0000
,
0100
0010
0100
0000
0010
0000
0000
0000
1001
0000
0000
0000
1001
0000
0000
0000
,
0010
0000
0000
0001
0000
0000
1001
0000
0000
0000
0010
0000
0100
0000
0010
0000
,
0100
0000
0000
0101
0000
0000
1000
0000
1001
0000
0000
0000
1001
0000
0000
0000
,
0010
0000
0000
0011
0000
0000
1001
0000
0000
0000
0100
0000
0010
0000
1000
0000
,
1010
0000
0000
0101
0000
0000
1001
0000
0010
0000
1000
0000
0100
0000
1000
0000
,
0010
0100
0001
0100
0001
1000
0010
0100
,
0001
0000
1000
0000
0010
0000
0100
0000
0001
0000
0000
0000
1001
0000
0000
0001
,
1000
0001
0000
0010
0000
0000
1001
0000
0000
0000
0000
0000
0000
0000
0000
0000
,
1000
0100
1000
0010
1000
0001
1000
0010
,
1000
0100
1000
0010
1000
0100
1000
0001
,
0100
0001
1000
0001
0100
0001
1000
0010
,
0100
0001
0100
0010
0100
0001
0010
0001
,
1000
0010
1000
0010
0100
0001
0010
0000
,
1000
0100
0010
0001
0010
0100
1000
0000
,
0001
0010
0011
0000
1000
0100
1100
0000
,
0001
0100
0010
1000
0001
0001
0001
0000
,
0010
0000
1000
0000
0100
1000
0100
0000
1000
0000
0001
0000
0100
0000
0000
0000
,
0010
0000
1000
0000
0001
1000
0001
0000
1000
0000
0001
0000
0100
0000
0000
0000
,
0010
0000
0001
0000
0100
0010
0100
0000
0001
0000
1000
0000
0010
0000
0000
0000
,
1000
0000
0001
0000
0010
0001
0010
0000
0001
0000
0100
0000
0010
0000
0000
0000
,
1000
0000
0001
0000
0100
0010
0100
0000
0001
0000
1000
0000
0010
0100
0010
0000
,
1000
0000
0001
0000
0100
0010
0100
0000
0001
0000
1000
0000
0100
0000
0010
0000
,
0100
0010
0100
0010
0100
0010
0100
0020
,
0200
0000
0000
0330
,
2000
3002
0203
2300
,
3002
0000
0023
0000
0031
0010
0100
1000
,
0002
0203
0302
2003
,
3020
0000
0000
0000
0230
0000
0000
0000
2300
0000
0000
0000
0002
0000
0000
3003
,
0010
0100
1000
1001
,
0010
0100
0001
1001
,
0010
0100
0010
0000
1000
0001
1000
0000
,
0010
0010
0010
0010
0010
0010
0010
0000
,
0001
0100
0001
0100
0010
1000
0010
1000
,
0001
0010
0001
0010
0100
1000
0100
1000
,
0001
0100
0010
0100
0001
0100
0010
0100
,
0001
1000
0010
1000
0100
0010
0001
0100
,
0001
1000
0001
0100
0001
0100
0001
0100
,
1000
0010
0100
0001
1000
0010
0100
0001
,
1000
0100
1000
0100
0010
0001
0010
0001
,
0100
0010
1000
0001
0100
0010
1000
0001
,
1000
0000
0100
0000
1000
0000
0100
0000
0010
0000
0001
0000
1000
0001
1000
0000
,
0001
0000
0010
0000
0001
0000
0010
0000
0100
0000
1000
0000
0001
1000
0001
0000
,
0100
0010
1000
0001
0100
0010
1000
0001
,
0100
0001
1000
0010
0100
0001
1000
0000
,
2002
0000
0000
0000
,
0000
0000
0000
0000
,
3003
0000
0000
0000
;

//---------------dance-single - ----------------
#NOTES:
     dance-single:
     :
     Easy:
     7:
     0.344086,0.445630,0.376589,0.258905,0.023537,307.000000,259.000000,48.000000,33.000000,0.000000,0.000000,0.344086,0.445630,0.376589,0.258905,0.023537,307.000000,259.000000,48.000000,33.000000,0.000000,0.000000:
// measure 0
0000
0000
0000
0000
,  // measure 1
0000
0000
0000
0000
,  // measure 2
0000
0000
0000
0000
,  // measure 3
0000
0000
0000
0000
,  // measure 4
0000
0000
0000
0000
,  // measure 5
2002
0000
0000
0000
,  // measure 6
0000
0000
0000
0000
,  // measure 7
3003
0000
0110
0000
,  // measure 8
1001
0000
0110
1001
,  // measure 9
0110
0000
0010
0010
,  // measure 10
1000
0001
0010
0010
,  // measure 11
0001
1000
0001
0001
,  // measure 12
0010
0100
1000
1000
,  // measure 13
0100
0010
0001
1000
,  // measure 14
0010
0010
1000
0001
,  // measure 15
0010
0010
0001
0100
,  // measure 16
0010
1000
0001
0100
,  // measure 17
0010
1000
0001
0010
,  // measure 18
1000
0010
0001
0100
,  // measure 19
1000
0100
0001
0010
,  // measure 20
0100
1000
0001
1000
,  // measure 21
0001
1000
0010
0100
,  // measure 22
0001
0100
0010
1000
,  // measure 23
0010
0100
0001
0001
,  // measure 24
1000
1000
0010
0100
,  // measure 25
0010
0100
1001
1001
,  // measure 26
0010
0000
0000
0010
0000
0000
0010
0000
0000
0000
1000
0000
0001
0000
0000
0000
,  // measure 27
0100
0000
0000
0100
0000
0000
0100
0000
0001
0000
0000
0000
1000
0000
0000
0000
,  // measure 28
0010
0000
0000
0010
0000
0000
0010
0000
0000
0000
1000
0000
0001
0000
0000
0000
,  // measure 29
0010
0000
0000
0010
0000
0000
0000
0000
1001
0000
0000
0000
0110
0000
0000
0000
,  // measure 30
0010
0000
0000
0010
0000
0000
0010
0000
0000
0000
0001
0000
0100
0000
0010
0000
,  // measure 31
1000
0000
1001
0000
0220
0330
2002
3003
,  // measure 32
0010
0000
0000
0100
0000
0000
1001
0000
0000
0000
0000
0000
0000
0000
0000
0000
,  // measure 33
1000
0100
0010
0001
,  // measure 34
1000
0100
1000
0000
0010
0000
0100
0000
,  // measure 35
0001
0010
0100
1000
,  // measure 36
0001
0010
0001
0000
0010
0000
0100
0000
,  // measure 37
1000
0000
1001
0000
0010
0100
0001
0000
,  // measure 38
0001
0000
1001
0000
0100
0010
1000
0000
,  // measure 39
0001
0101
1000
1100
,  // measure 40
0001
0011
1000
1010
,  // measure 41
0010
0100
0010
0000
2000
0000
3002
0000
,  // measure 42
0013
0100
0010
0000
0002
0000
2003
0000
,  // measure 43
3010
0100
0010
0000
2000
0000
3020
0000
,  // measure 44
0130
0001
0100
0000
0002
0000
0203
0000
,  // measure 45
0310
1001
0100
1001
,  // measure 46
0010
1001
0100
1001
,  // measure 47
0010
0010
0010
0010
,  // measure 48
0220
0000
0000
0330
,  // measure 49
0020
0032
0203
0000
,  // measure 50
0320
2030
3200
0000
,  // measure 51
0302
0023
2030
0000
,  // measure 52
3020
0000
0000
0000
0230
0000
0000
0000
2300
0000
0000
0000
0002
0000
0000
3003
,  // measure 53
0000
0100
1000
0001
,  // measure 54
0010
0100
1000
0001
,  // measure 55
0000
0010
1000
0001
,  // measure 56
1000
0100
0010
0001
,  // measure 57
0010
0011
1000
1100
,  // measure 58
0001
0011
0100
1100
,  // measure 59
0001
0010
0001
0000
1000
0100
1000
0000
,  // measure 60
0001
0010
0001
0000
1000
0100
1000
0000
,  // measure 61
0001
0100
0001
0000
1001
0000
0101
0000
,  // measure 62
1000
0100
1000
0000
1001
0000
1010
0000
,  // measure 63
0001
0010
0001
0000
1010
0000
1001
0000
,  // measure 64
1000
0010
1000
0000
0101
0000
1010
0000
,  // measure 65
0001
0100
0100
0000
0110
0000
1001
0000
,  // measure 66
1000
0100
0100
0000
0110
0000
1001
0000
,  // measure 67
2001
3010
1002
0013
,  // measure 68
1001
0110
1001
0110
,  // measure 69
2002
0000
0000
0000
,  // measure 70
0000
0000
0000
0000
,  // measure 71
3003
0000
0000
0000
;

//---------------dance-double - ----------------
#NOTES:
     dance-double:
     :
     Easy:
     7:
     0.335119,0.473482,0.360898,0.313824,0.015691,299.000000,253.000000,46.000000,40.000000,0.000000,0.000000,0.335119,0.473482,0.360898,0.313824,0.015691,299.000000,253.000000,46.000000,40.000000,0.000000,0.000000:
00000000
00000000
00000000
00000000
,
00000000
00000000
00000000
00000000
,
00000000
00000000
00000000
00000000
,
00000000
00000000
00000000
00000000
,
00000000
00000000
00000000
00000000
,
02200000
00000000
00000000
00000000
,
00000000
00000000
00000000
00000000
,
00000000
03300000
10010000
00000000
,
00011000
00000000
00001001
00000000
,
00011000
00000000
10010000
00100000
,
00010000
01000000
00100000
10000000
,
00010000
00100000
00001000
00010000
,
00001000
00010000
00000010
00000010
,
00000010
00001001
00000100
00001000
,
00000010
00000100
00000001
00001000
,
00000100
00010000
00001000
01000000
,
00010000
10000000
00100000
00100000
,
00100000
10010000
01000000
00010000
,
00200000
00300000
00010000
10000000
,
02000000
00000000
03000000
00000000
00100000
00001000
00100000
00000000
,
00020000
00000000
00030000
00000000
00000100
00001000
00000100
00000000
,
00002000
00000000
00003000
00000000
00000001
00000100
00000001
00000000
,
00001000
00000000
00000100
00000000
00010000
00000100
00010000
00000000
,
00001000
00100000
00010000
01010000
,
10000000
11000000
10010000
10010000
,
01100000
01100000
10010000
10010000
,
00100000
00000000
00000000
00100000
00000000
00000000
00100000
00000000
00000000
00000000
10000000
00000000
00010000
00000000
00000000
00000000
,
00100000
00000000
00000000
00100000
00000000
00000000
00001000
00000000
00010000
00000000
00000000
00000000
00010000
00000000
00000000
00000000
,
00000010
00000000
00000000
00000010
00000000
00000000
00000010
00000000
00000000
00000000
00001000
00000000
00000001
00000000
00000000
00000000
,
00000010
00001001
00000110
00000110
,
00000001
00001000
00000100
00010000
,
00001000
01000000
10100000
10100000
,
00100000
00000000
00000000
01000000
00000000
00000000
10010000
00000000
00000000
00000000
00000000
00000000
00000000
00000000
00000000
00000000
,
01000000
10000000
01000000
00000000
10000000
00000000
00010000
00000000
,
00100000
00010000
00100000
00000000
00001000
00000000
00010000
00000000
,
00000010
00001000
00000001
00001000
,
00000010
00000000
00010000
00000000
00000100
00000000
00010000
00001000
,
00010000
00001000
01000000
00100000
,
10000000
00000000
00010000
00000000
01000000
00000000
00100000
10000000
,
00100000
01000000
00010000
00100000
,
00002000
00023000
00032000
00023000
,
00030100
00001000
00000100
00000000
00001000
00000001
00001000
00000000
,
00000200
00020300
00032000
02003000
,
03010000
01000000
00010000
00000000
10000000
00100000
10000000
00000000
,
00200000
02300000
03002000
00023000
,
00030100
00001000
00000101
00001100
,
00000200
00020300
00031000
00011000
,
00110000
00110000
01010000
01010000
,
20020000
00000000
00000000
30030000
,
00200000
20300000
32000000
03020000
,
00230000
00302000
00023000
00030020
,
00002030
00003200
00000302
00000023
,
00002030
00000000
00000000
00000000
00003200
00000000
00000000
00000000
00020300
00000000
00000000
00000000
00002000
00000000
00000000
00033000
,
01000000
00010000
01000000
00000000
00100000
00000000
00100000
00000000
,
10000000
01000000
00100000
00010000
,
00100000
00001000
00100000
00000000
00001000
00000000
00001000
00000000
,
00010000
00000100
00001000
00000001
,
00001000
00000010
00001000
00000000
00000010
00000000
00000010
00000000
,
00000100
00000001
00000100
00000000
00000010
00000000
00000010
00000000
,
00001000
00000100
00010000
00001000
,
01000000
00100000
00010000
10010000
,
00100000
00101000
00001000
00011000
,
00010000
00000000
00010100
00000000
00001000
00000010
00000100
00000000
,
00000001
00001001
00001000
00001100
,
00000100
00000000
00010100
00000000
00010000
00001000
01000000
00000000
,
00010000
01010000
10100000
10000000
,
00010000
00110000
00101000
00001000
,
00011000
00000000
00001001
00000000
,
00011000
00000000
10010000
00000000
,
00022000
00000000
00000000
00000000
,
00000000
00000000
00000000
00000000
,
00033000
00000000
00000000
00000000
;

//---------------dance-single - ----------------
#NOTES:
     dance-single:
     :
     Beginner:
     5:
     0.187174,0.334222,0.101993,0.086302,0.000000,167.000000,154.000000,13.000000,11.000000,0.000000,0.000000,0.187174,0.334222,0.101993,0.086302,0.000000,167.000000,154.000000,13.000000,11.000000,0.000000,0.000000:
// measure 0
0000
0000
0000
0000
,  // measure 1
0000
0000
0000
0000
,  // measure 2
0000
0000
0000
0000
,  // measure 3
0000
0000
0000
0000
,  // measure 4
0000
0000
0000
0000
,  // measure 5
2002
0000
0000
0000
,  // measure 6
0000
0000
0000
0000
,  // measure 7
3003
0000
0010
0000
,  // measure 8
0010
0000
0010
0010
,  // measure 9
0010
0000
0010
0000
,  // measure 10
1000
0000
0010
0000
,  // measure 11
0001
0000
0010
0000
,  // measure 12
1000
0000
0010
0000
,  // measure 13
0001
0000
0100
0000
,  // measure 14
1000
0000
0100
0000
,  // measure 15
0001
0000
0100
0000
,  // measure 16
1000
0000
0010
0000
,  // measure 17
1001
0000
0010
0000
,  // measure 18
1001
0000
0100
0000
,  // measure 19
1001
0000
0010
0000
,  // measure 20
1001
0000
0100
0000
,  // measure 21
1001
0000
0010
0010
,  // measure 22
0100
0000
0010
0010
,  // measure 23
0100
0000
0001
0001
,  // measure 24
1000
0000
0001
0001
,  // measure 25
1000
0000
1000
0000
,  // measure 26
0010
0000
0001
0000
,  // measure 27
0100
0000
0001
0000
,  // measure 28
1000
0000
0010
0000
,  // measure 29
0001
0000
1000
1000
,  // measure 30
1000
0000
0001
0001
,  // measure 31
0001
0000
0010
0010
,  // measure 32
0010
0000
0000
0000
,  // measure 33
1000
0000
0010
0000
,  // measure 34
0100
0000
0001
0000
,  // measure 35
0001
0000
0100
0000
,  // measure 36
0010
0000
1000
0000
,  // measure 37
1000
0000
0010
0000
,  // measure 38
0001
0000
0100
0000
,  // measure 39
0001
0000
0010
0000
,  // measure 40
1000
0000
1001
0000
,  // measure 41
0010
0010
1000
0000
,  // measure 42
0010
0010
0001
0000
,  // measure 43
0100
0100
1000
0000
,  // measure 44
0100
0100
0001
0000
,  // measure 45
0010
0000
0100
0000
,  // measure 46
0010
0000
0100
0000
,  // measure 47
0010
0010
0010
0010
,  // measure 48
0020
0000
0030
0000
,  // measure 49
0020
0030
2000
3000
,  // measure 50
0200
0300
0002
0003
,  // measure 51
0020
0030
0002
0003
,  // measure 52
0100
0010
0100
0010
,  // measure 53
0000
1000
0000
0001
,  // measure 54
0000
1000
0000
0001
,  // measure 55
0000
0001
0000
1000
,  // measure 56
0000
0001
0000
1000
,  // measure 57
0010
0010
0010
0000
,  // measure 58
0100
0100
0100
0000
,  // measure 59
0001
0001
0001
0000
,  // measure 60
1000
1000
1000
0000
,  // measure 61
0001
0001
1000
1000
,  // measure 62
0001
0001
1000
1000
,  // measure 63
0010
0010
0100
0100
,  // measure 64
0010
0010
0100
0100
,  // measure 65
0001
0100
0001
0000
,  // measure 66
1000
0100
1000
0000
,  // measure 67
1001
0000
1001
0000
,  // measure 68
1001
1001
1001
0000
,  // measure 69
2002
0000
0000
0000
,  // measure 70
0000
0000
0000
0000
,  // measure 71
3003
0000
0000
0000
;
