#TITLE:In Your EyEs;
#SUBTITLE:;
#ARTIST:kors k;
#TITLETRANSLIT:;
#SUBTITLETRANSLIT:;
#ARTISTTRANSLIT:;
#GENRE:;
#CREDIT:;
#BANNER:In Your EyEs.png;
#BACKGROUND:In Your EyEs-bg.png;
#LYRICSPATH:;
#CDTITLE:;
#MUSIC:In Your EyEs.ogg;
#OFFSET:0.060000;
#SAMPLESTART:53.278980;
#SAMPLELENGTH:12.000000;
#SELECTABLE:YES;
#BPMS:0.000000=180.000000
;
#STOPS:
;
#BGCHANGES:;
#KEYSOUNDS:;
#ATTACKS:;

//---------------dance-single - ----------------
#NOTES:
     dance-single:
     :
     Hard:
     17:
     0.936696,1.055083,0.210208,0.202123,1.208696,811.000000,785.000000,26.000000,25.000000,0.000000,0.000000,0.936696,1.055083,0.210208,0.202123,1.208696,811.000000,785.000000,26.000000,25.000000,0.000000,0.000000:
0000
0000
0000
0000
,
0000
0000
0000
0000
,
0000
0000
0000
0000
,
0000
0000
0000
0000
,
0000
0000
0000
0000
,
2000
0000
0000
0010
3020
0000
0100
0100
,
0000
1000
0000
1030
0000
0000
1001
0000
,
0101
0000
1100
0000
1001
0000
0000
0001
,
0100
1000
0000
0000
0001
0010
1000
0000
,
0001
0000
0000
0000
1000
0000
0000
0000
0000
0000
0001
0000
1000
0010
1000
0010
,
1000
0000
0000
0000
0001
0000
0000
0000
0000
0000
0100
0000
0010
1000
0001
1000
,
0100
1100
0000
0101
0101
0000
1000
0001
,
1000
0000
0001
0000
0100
0000
0000
0000
0000
0000
0010
0000
1000
0010
1000
0100
,
1000
0000
0001
0100
0020
0000
1030
0001
,
0200
0000
0000
0000
0310
0000
1000
0000
0001
0000
0000
0000
0001
0100
0000
0000
,
0100
0010
0000
0000
0010
1000
0000
0000
1000
0001
0000
0000
0000
0000
1000
0000
,
0010
0001
0000
0000
1000
0100
0001
0000
,
1001
0000
0000
0100
1000
0000
0010
1000
0000
0010
1000
0000
0010
0100
0010
0000
,
1000
0000
0000
0001
0010
0000
0001
0100
0000
0001
1000
0000
0010
0000
0100
0000
,
0001
0000
0000
1000
0010
0000
1000
0001
0000
1000
0100
0000
0010
0000
0001
0000
,
1000
0000
0000
0010
1000
0000
0001
1000
0000
0010
1000
0000
0010
0100
0010
1000
,
0010
0000
1000
0010
0000
1000
0010
0000
0100
0000
0001
0100
0000
0001
0100
0000
,
0001
0000
1000
0100
0000
1000
0100
0000
0001
0000
0010
0001
0000
0010
0001
0000
,
1000
0100
1000
0010
1000
0001
0010
0100
1000
0001
1000
0010
1000
0100
0010
0001
,
2000
3002
0203
0320
,
1030
0000
0000
0000
0101
0000
0000
0001
0000
1000
0010
0000
1000
0000
0001
0000
,
0100
0000
0001
0000
1000
0000
0001
0010
0000
0010
0001
0000
1000
0000
0001
0000
,
0100
0000
0010
0000
1000
0000
0100
0010
0000
0010
0001
0000
0100
0000
0010
0000
,
0001
0100
0010
0100
0001
0000
1000
0010
0100
0010
1000
0000
0001
0100
0010
0000
,
1000
0000
0001
0000
0100
0000
0001
0010
0000
0010
0100
0000
1000
0000
0001
0000
,
1000
0000
0010
0000
0100
0000
0100
0010
0000
0010
1000
0000
0001
0000
0100
0000
,
0001
0000
0010
0000
0100
0000
1000
0001
0000
0001
0010
0000
0100
0000
1000
0000
,
0001
0100
0010
0100
0001
0000
1000
0001
0010
0001
1000
0001
0100
0000
0001
0000
,
1000
0000
0001
0000
0100
0000
0010
1000
0000
1000
0010
0000
0100
0000
0001
0000
,
0010
0001
0100
0001
1000
0000
0010
1000
0100
1000
0010
0000
0100
0000
0001
0000
,
1000
0000
0100
0000
1000
0000
0010
1000
0000
1000
0001
0000
0100
0000
0010
0000
,
1000
0100
1000
0000
0001
0000
0100
0010
0000
0010
1000
0000
0001
0100
0010
0000
,
1000
0000
0001
0000
0101
0000
0001
0010
0000
0010
0100
0000
1000
0000
0001
0000
,
0010
0000
0100
0000
0101
0000
1000
0100
0000
0100
0010
0000
0001
0000
0100
0000
,
0001
1000
0001
0010
0001
1000
0001
0000
1000
0100
1000
0001
1000
0010
1000
0000
,
0001
0000
0010
0001
0000
1000
0001
0000
0100
0001
0000
1000
0100
0010
0001
1000
,
0001
0000
1000
0001
0000
1000
0010
0100
0000
0100
0000
0001
1000
0000
0010
1000
,
0001
0000
0100
0001
0000
1000
0010
1000
0000
0001
0000
0001
0100
0000
0010
1000
,
0100
0000
1000
0010
0000
1000
0001
1000
0000
0010
0000
0100
0001
0000
0010
0001
,
0010
0000
0001
0100
0000
0100
0010
1000
0000
0001
0000
1000
0100
0010
0001
0100
,
0010
0000
1000
0010
0000
1000
0001
0100
0000
0001
0000
1000
0100
0000
0010
0000
,
0001
0000
0100
0010
0000
0100
0001
1000
0000
0010
0000
1000
0100
0000
0010
0001
,
0010
0000
0001
0100
0000
0001
0100
0010
0000
0010
0000
0010
1000
0000
0001
0100
,
0010
0000
1000
0010
0000
1000
0001
0100
0000
0001
0000
1000
0010
0100
0010
1000
,
0001
0000
0100
0001
0000
1000
0001
0000
1000
0010
0000
1000
0001
0000
0010
0000
,
0001
0000
1000
0010
0000
1000
0001
0000
1000
0100
0000
1000
0001
0000
0010
0000
,
0001
0000
0100
0010
0000
0100
0001
0000
0100
0010
0000
0100
0001
0000
1000
0000
,
0010
0000
1000
0100
0000
1000
0010
0000
1000
0001
0000
1000
0100
0000
1000
0000
,
0001
0000
0100
0010
0000
1000
0100
0010
0001
0000
0100
0010
0000
1000
0100
0010
,
0001
0000
1000
0010
0000
1000
0010
0100
0001
0000
1000
0010
0000
1000
0010
0100
,
0001
0000
1000
0010
0000
1000
0001
0100
0010
0000
0000
1000
0010
1000
0001
1000
,
0200
0302
2003
3001
,
0020
0000
0032
0000
0000
0203
0000
0010
,
0320
0000
2030
0000
0000
3200
0000
0010
,
0320
0000
2030
0000
0000
3002
0000
0100
,
0203
0000
0302
0000
0000
2003
0000
0010
,
3010
0000
0000
1000
0000
0100
0000
0010
0000
0001
0000
1000
0001
0000
0100
0000
,
0000
0000
0001
0000
1000
0000
0000
0010
0000
0001
0000
0100
0010
0000
1000
0000
,
0001
0000
0000
0100
0000
0010
0000
1000
0000
0001
0000
1000
0100
0000
0010
0000
,
0000
0000
0001
0100
0001
0100
0001
0000
1000
0100
0010
0100
1000
0100
0010
0100
,
1000
0001
1000
0100
1000
0010
1000
0001
,
0100
0010
1000
0001
0100
0010
1000
0001
,
0010
0001
1000
0100
0001
1000
0010
0001
,
1000
0010
0100
0001
0010
1000
0001
0100
,
1000
0000
0000
0000
0010
0100
0010
0100
0001
1000
0001
1000
0001
0010
0100
1000
,
0010
0000
0000
0000
1000
0100
1000
0100
0010
0000
0000
0000
1000
0010
0100
0001
,
1000
0001
1000
0010
0100
0001
1000
0001
0100
0010
1000
0100
0010
0001
1000
0100
,
0020
0000
0000
0130
,
0001
0010
0000
0001
0000
0100
0000
0001
0000
1001
0000
0001
0100
0000
0010
0000
,
1000
0100
0010
0000
0001
0000
0100
0010
0000
1010
0000
0001
0100
0000
0101
0000
,
1000
0001
0000
0101
0000
1000
0000
1100
0000
0010
0000
0100
0001
0000
1001
0000
,
0001
0100
0010
0000
1010
0000
0001
0100
0000
1001
0000
0010
1000
0100
0010
0001
,
1000
0010
0000
1010
0000
1000
0000
1001
0000
0001
0100
0010
1000
0000
1001
0000
,
0001
0000
0101
0000
1000
0000
0001
0010
0000
1000
0000
0010
0001
0000
1000
0000
,
0001
0100
0010
1000
0000
0001
0000
1000
0000
0010
0100
0001
0100
0000
0010
0000
,
1000
0000
1000
0100
0000
0010
0001
0100
0001
0000
0100
1000
0000
0100
0001
0100
,
0010
1000
0000
1001
0000
0010
0000
0011
0000
1000
0000
0100
1000
0000
0010
0000
,
0100
0001
0100
0000
0010
1000
0010
0100
0000
0001
0100
0010
1000
0000
0001
0000
,
1000
0100
0000
0010
0000
1000
0000
1010
0000
0100
0010
1000
0001
0000
0100
0000
,
0001
0010
0100
0000
0001
0000
1000
0100
0000
0010
0000
0001
0100
0000
0010
0000
,
1000
0100
1000
0010
1000
0001
1000
0010
1000
0100
1000
0010
0100
0000
0001
0000
,
0100
0010
0100
0001
0100
0010
0100
0001
1000
0001
0010
0001
1000
0000
0001
0000
,
1000
0000
0001
0010
0100
0010
0001
0000
0100
0000
0001
0010
1000
0010
0001
0000
,
1000
0100
1000
0100
0010
0001
0010
0001
1000
0100
0010
0001
1000
0010
0100
0001
,
2000
0000
0000
0000
,
3000
0000
0000
0000
;

//---------------dance-double - ----------------
#NOTES:
     dance-double:
     :
     Hard:
     17:
     0.877792,1.200611,0.121274,0.194038,1.046998,760.000000,745.000000,15.000000,24.000000,0.000000,0.000000,0.877792,1.200611,0.121274,0.194038,1.046998,760.000000,745.000000,15.000000,24.000000,0.000000,0.000000:
00000000
00000000
00000000
00000000
,
00000000
00000000
00000000
00000000
,
00000000
00000000
00000000
00000000
,
00000000
00000000
00000000
00000000
,
00000000
00000000
00000000
00000000
,
00200000
00000000
00000000
10300000
00020000
00000000
00130000
00001000
,
00010000
00000100
00000000
00001001
00000000
00000000
00000110
00000000
,
00001100
00000000
00000001
00000000
00001010
00000000
00000000
00000001
,
00000100
00001000
00000000
00000000
00000001
00000010
00001000
00000000
,
00000100
00000000
00000000
00000000
00001000
00000000
00000100
00000000
00000000
00000000
00010000
00000000
00001000
00010000
00000100
00010000
,
00001000
00000000
00000000
00000000
00100000
00000000
00001000
00000000
00000000
00000000
00100000
00000000
00010000
01000000
00010000
00100000
,
00010000
10000000
00000000
01010000
01010000
00000000
10000000
00100000
,
10000000
00000000
00200000
00000000
00000000
00000000
01300000
00000000
00010000
00000000
00000000
00000000
10000000
01000000
00100000
00010000
,
01000000
00000000
00010000
00100000
00002000
00000000
00013000
00000100
,
00001000
00000010
00000000
00001001
00000000
00001000
00000100
00010000
,
00001000
01000000
00010000
10000000
00100000
00000000
00000000
10000000
,
01000000
00010000
00000000
00000000
10000000
00100000
00010000
00000000
,
10000000
00000000
00000000
10000000
00010000
00000000
00100000
00010000
00000000
00100000
00001000
00000000
00010000
00000000
00000100
00000000
,
00001000
00000000
00000000
00000010
00001000
00000000
00000001
00001000
00000000
00000100
00010000
00000000
00001000
00000000
01000000
00000000
,
00100000
00000000
00000000
10000000
00100000
00000000
10000000
00010000
00000000
00100000
00010000
00000000
00100000
00000000
00001000
00000000
,
00010000
00000000
00000000
00000100
00010000
00000000
00000100
00001000
00000000
00000010
00000100
00000000
00000001
00000000
00001000
00000000
,
00000100
00000000
00001000
00000100
00000000
00001000
00000100
00000000
00010000
00000000
00001000
00010000
00000000
00001000
00010000
00000000
,
00001000
00000000
00100000
00010000
00000000
00100000
00010000
00000000
01000000
00000000
00010000
10000000
00000000
00010000
10000000
00000000
,
00100000
10000000
00100000
10000000
00010000
01000000
00010000
01000000
00100000
10000000
00010000
10000000
00100000
01000000
00010000
00100000
,
00002000
00023000
00030020
00000130
,
00000001
00000000
00000100
00000000
00001000
00000000
00010000
00001000
00000000
00001000
00010000
00000000
00001000
00000000
01000000
00000000
,
00010000
00000000
10000000
00000000
00100000
00000000
01000000
00010000
00000000
00010000
00100000
00000000
00001000
00000000
00010000
00000000
,
00000010
00000000
00001000
00000000
00000100
00000000
00001000
00000001
00000000
00000001
00001000
00000000
00000100
00000000
00010000
00000000
,
00001000
00000000
01000000
00000000
00010000
00000000
10000000
00100000
00000000
00100000
10000000
00000000
00010000
00000000
00100000
00000000
,
00001000
00000000
00100000
00000000
00010000
00000000
10000000
01000000
00000000
00100000
00010000
00000000
00100000
00000000
00001000
00000000
,
00010000
00000000
00000100
00000000
00001000
00000000
00000001
00000100
00000000
00000010
00001000
00000000
00000100
00000000
00010000
00000000
,
00001000
00000000
01000000
00000000
00010000
00000000
10000000
00100000
00000000
01000000
00010000
00000000
10000000
00000000
00100000
00000000
,
10000000
00000000
00010000
01000000
00010000
00100000
00010000
01000000
00000000
00010000
00100000
00000000
00001000
00000000
00010000
00000000
,
00000100
00000000
00001000
00000000
00000001
00000000
00001000
00000100
00000000
00000010
00000001
00000000
00001000
00000000
00000100
00000000
,
00010000
00000000
00001000
00000000
00100000
00000000
00010000
01000000
00000000
00100000
10000000
00000000
00100000
00000000
01000000
00000000
,
00001000
00000000
00010000
00000000
00000100
00000000
00001000
00000010
00000000
00000100
00000001
00000000
00001000
00000000
00000100
00000000
,
00010000
00000000
00001000
00000000
00100000
00000000
00010000
01000000
00000000
00100000
10000000
00000000
00100000
00000000
01000000
00000000
,
00010000
00100000
00010000
00000000
10000000
00000000
00100000
00000000
10000000
01000000
10000000
00000000
00010000
00000000
00100000
00000000
,
00001000
00010000
00001000
00000000
00010000
00000000
00000010
00000000
00001000
00000100
00000010
00000000
00000001
00000000
00000100
00000000
,
00000010
00001000
00000010
00001000
00000100
00010000
00000100
00010000
00001000
00100000
00001000
00100000
00010000
00100000
01000000
10000000
,
00100000
00000000
10000000
00010000
00000000
00100000
00001000
00000000
00010000
00001000
00000000
00010000
00000100
00000000
00001000
00000000
,
00000010
00000000
00001000
00000001
00000000
00001000
00000100
00001000
00000000
00000100
00000000
00010000
00001000
00000000
00010000
00000000
,
00001000
00000000
00100000
00010000
00000000
00100000
00010000
01000000
00000000
00100000
00000000
10000000
01000000
00000000
00100000
00000000
,
00010000
00000000
00100000
00001000
00000000
00010000
00001000
00010000
00000000
00000100
00000000
00001000
00000010
00000000
00000100
00000000
,
00000001
00000000
00001000
00000001
00000000
00001000
00000100
00001000
00000000
00000100
00000000
00010000
00001000
00000000
00100000
00000000
,
00010000
00000000
10000000
01000000
00000000
00100000
00010000
01000000
00000000
00010000
00000000
00100000
00001000
00000000
00010000
00000000
,
00000100
00000000
00001000
00000010
00000000
00000100
00000001
00001000
00000000
00000100
00000000
00010000
00001000
00000000
00010000
00000000
,
00001000
00000000
00100000
00010000
00000000
10000000
00010000
01000000
00000000
00100000
00000000
10000000
00010000
00000000
00100000
00000000
,
00001000
00000000
00010000
00000100
00000000
00010000
00001000
00010000
00000000
00001000
00000000
00100000
00010000
00000000
01000000
00000000
,
00100000
00000000
10000000
00100000
00000000
10000000
00010000
00000000
10000000
01000000
00000000
10000000
00100000
00000000
01000000
00000000
,
00001000
00000000
00010000
00001000
00000000
00010000
00000100
00000000
00010000
00000010
00000000
00001000
00000001
00000000
00001000
00000000
,
00000100
00000000
00010000
00001000
00000000
00100000
00001000
00000000
01000000
00001000
00000000
01000000
00100000
00000000
10000000
00000000
,
00100000
00000000
10000000
01000000
00000000
00100000
00010000
01000000
00000000
00010000
00000000
00100000
00001000
00000000
00010000
00000000
,
00000100
00000000
00001000
00000100
00000000
00001000
00000010
00000100
00000001
00000000
00001000
00000100
00000000
00010000
00001000
00010000
,
00001000
00000000
00100000
00010000
00000000
01000000
00100000
10000000
00010000
00000000
00100000
00001000
00000000
00100000
00010000
00000000
,
01000000
00000000
00100000
10000000
01000000
00000000
00100000
00010000
01000000
00000000
00100000
10000000
01000000
00100000
00010000
01000000
,
00200000
20300000
30020000
00031000
,
00001200
00000000
00002300
00000000
00000000
00003020
00000000
00000100
,
00000230
00000000
00000302
00000000
00000000
00002003
00000000
00000100
,
00003200
00000000
00020300
00000000
00000000
00032000
00000000
00100000
,
00203000
00000000
00320000
00000000
00000000
02030000
00000000
00100000
,
03100000
00000000
00000000
10000000
00000000
00100000
00000000
01000000
00000000
00010000
00000000
00000000
00100000
00000000
00001000
00000000
,
00010000
00000000
00001000
00000000
00100000
00000000
00000000
00010000
00000000
10000000
00000000
00100000
01000000
00000000
00100000
00000000
,
10000000
00000000
00000000
00010000
00000000
00100000
00000000
00001000
00000000
00100000
00000000
00000000
00010000
00000000
01000000
00000000
,
00000000
00000000
10000000
00100000
10000000
00100000
01000000
00010000
01000000
00010000
00100000
00001000
00010000
00001000
00010000
00000010
,
00001000
00000100
00000010
00000001
00001000
00000100
00010000
00001000
,
01000000
00010000
10000000
00100000
10000000
01000000
00010000
00001000
,
00000100
00000010
00001000
00000100
00000001
00000100
00001000
00000010
,
00010000
00001000
01000000
00100000
10000000
01000000
00100000
00010000
,
10000000
00000000
00000000
00000000
00010000
00100000
00010000
01000000
00010000
10000000
00010000
01000000
00010000
00100000
00010000
01000000
,
00100000
00000000
00000000
00000000
10000000
01000000
00100000
00010000
00100000
00000000
00000000
00000000
00001000
00010000
00000100
00010000
,
00001000
00000000
00010000
00000000
00000010
00000000
00001000
00000000
00000001
00000010
00000100
00001000
00000001
00000010
00000100
00001000
,
00000020
00000000
00000000
00000130
,
00000001
00000100
00000000
00000010
00000000
00001000
00000000
00001100
00000000
00000100
00000000
00010000
00001000
00000000
00100000
00000000
,
00000000
00000000
01000000
00000000
00100000
00000000
10000000
01000000
00000000
00100000
00000000
00010000
01000000
00000000
01010000
00000000
,
01000000
00100000
00000000
01000000
00000000
00001000
00000000
00010000
00000000
00011000
00000000
00010000
00000100
00000000
00001000
00000000
,
00000000
00000000
00000010
00000000
00001010
00000000
00000010
00000100
00000000
00000001
00000000
00001000
00000100
00000000
00000010
00000000
,
00000100
00000010
00000000
00000001
00000000
00001000
00000000
00000100
00000000
00001100
00000000
00000100
00010000
00000000
00001000
00000000
,
00000000
00000000
00100000
00000000
00010000
00000000
01000000
00100000
00000000
00100000
00000000
00100000
01000000
00000000
00001000
00000000
,
00010000
00000100
00000000
00001000
00000000
00000001
00000000
00001000
00000000
00000100
00000000
00010000
00001000
00000000
00100000
00000000
,
00010000
00000000
00000000
01010000
00000000
00000000
10000000
00000000
01000000
00000000
00000000
00110000
00000000
00000000
00100000
00000000
,
00001000
00010000
00000000
00000100
00000000
00001000
00000000
00000001
00000000
00001000
00000100
00010000
00000100
00000000
00010000
00000000
,
00001000
00000000
00100000
00000000
00010000
00000000
10000000
01000000
00000000
00100000
00010000
01000000
00010000
00000000
00100000
00000000
,
00001000
00010000
00000000
00001000
00000000
00010000
00000000
00000010
00000000
00001000
00000100
00000010
00000001
00000000
00000100
00000000
,
00000010
00000000
00001000
00000000
00000100
00000000
00010000
00001000
00000000
00001000
00010000
00001000
00100000
00000000
00010000
00000000
,
01000000
00100000
10000000
00100000
01000000
00100000
10000000
00100000
01000000
00100000
00000000
01000000
00010000
00000000
00100000
00000000
,
00001000
00000000
00010000
00000000
00000010
00000000
00001000
00000001
00000000
00000001
00000000
00000001
00001000
00000000
00000100
00000000
,
00001000
00000100
00001000
00000100
00010000
00001000
00010000
00001000
00100000
00010000
00100000
00010000
10000000
01000000
10000000
01000000
,
00100000
00010000
00100000
00001000
00010000
00001000
00010000
00000100
00010000
00000100
00001000
00000100
00010000
00001000
00100000
00001000
,
00020000
00000000
00000000
00000000
,
00030000
00000000
00000000
00000000
;

//---------------dance-double - ----------------
#NOTES:
     dance-double:
     :
     Medium:
     13:
     0.595974,0.691261,0.153614,0.105104,0.509350,516.000000,497.000000,19.000000,13.000000,0.000000,0.000000,0.595974,0.691261,0.153614,0.105104,0.509350,516.000000,497.000000,19.000000,13.000000,0.000000,0.000000:
00000000
00000000
00000000
00000000
,
00000000
00000000
00000000
00000000
,
00000000
00000000
00000000
00000000
,
00000000
00000000
00000000
00000000
,
00000000
00000000
00000000
00000000
,
00100000
00000000
00000000
10000000
00000000
00000000
00010000
00000000
,
00100000
00000000
00000000
00001000
00000000
00000000
00010000
00000000
,
00000010
00000000
00001000
00000000
00000001
00000000
00000000
00001000
,
00000001
00000100
00000000
00000000
00000001
00001000
00000100
00000000
,
00000010
00000000
00001000
00000000
00000000
00000100
00000000
00010000
,
00010000
00000000
00001000
00000000
00000000
00100000
00000000
00010000
,
00010000
00000000
01000000
00000000
00000000
00100000
00000000
10000000
,
10000000
00000000
00010000
00000000
00000000
00100000
00000000
00001000
,
00001000
00000000
00010000
00000000
00000100
00000000
00000000
00001000
,
00000010
00000100
00000000
00000000
00000001
00000000
00001000
00000000
,
00000010
00000000
00000100
00000000
00000010
00000000
00000000
00001000
,
00000001
00000100
00000000
00000000
00000001
00001000
00000100
00000000
,
00000010
00000000
00000010
00000000
00001000
00000100
00010000
00000000
,
00010000
00000000
00001000
00000000
00001000
00100000
00010000
00000000
,
01000000
00000000
01000000
00000000
00100000
10000000
01000000
00000000
,
00100000
00000000
00100000
00000000
00001000
00010000
00000100
00000000
,
00001000
00000010
00001000
00000010
00000100
00000001
00000100
00000001
,
00001000
00000010
00000100
00000001
00001000
00000100
00010000
00000100
,
00010000
00001000
00100000
00010000
00100000
00001000
00010000
00001000
,
00020000
00032000
00200000
00303000
,
00100000
00000000
00000000
00100000
00010000
00000000
00000000
00010000
00000000
01000000
00010000
00000000
01000000
00000000
00100000
00000000
,
10000000
00000000
00000000
10000000
00100000
00000000
00000000
00100000
00000000
01000000
00100000
00000000
01000000
00000000
00010000
00000000
,
00100000
00000000
00000000
00100000
00010000
00000000
00000000
00010000
00000000
00010000
00100000
00000000
00001000
00000000
00010000
00000000
,
00002000
00000000
00003000
00020000
00000000
00030000
00011000
00011000
,
00010000
00000000
00000000
00010000
00000100
00000000
00000000
00000100
00000000
00001000
00000100
00000000
00001000
00000000
00000010
00000000
,
00000100
00000000
00000000
00000100
00000001
00000000
00000000
00000001
00000000
00001000
00000001
00000000
00001000
00000000
00000100
00000000
,
00010000
00000000
00000000
00010000
00001000
00000000
00000000
00001000
00000000
00001000
00010000
00000000
00001000
00000000
00100000
00000000
,
00010000
01000000
10000000
01000000
00010000
00100000
01000000
10000000
,
00100000
00000000
01000000
00000000
00100000
00000000
10000000
00100000
00000000
00100000
10000000
00000000
00100000
00000000
01000000
00000000
,
00020000
00000000
00030000
00200000
00000000
00300000
00110000
00110000
,
00100000
00000000
00000000
00100000
00001000
00000000
00000000
00001000
00000000
00010000
00001000
00000000
00010000
00000000
00000100
00000000
,
00001000
00000000
00000000
00001000
00000010
00000000
00000000
00000010
00000000
00000010
00000100
00000000
00000001
00000000
00001000
00000000
,
00000001
00000000
00000000
00000001
00001000
00000000
00000000
00001000
00000000
00000100
00001000
00000000
00000100
00000000
00010000
00000000
,
00001000
00000000
00000000
00001000
00010000
00000000
00000000
00001000
00000000
00001000
00100000
00000000
00010000
00000000
01000000
00000000
,
00100000
10000000
01000000
00100000
00010000
00100000
00001000
00010000
,
00000100
00000000
00000000
00001000
00000000
00000000
00000010
00000000
00000000
00000001
00000000
00000000
00000100
00000000
00000010
00000000
,
00001000
00000000
00000000
00000001
00000000
00000000
00001000
00000000
00000000
00000100
00000000
00000000
00010000
00000000
00001000
00000000
,
00001000
00000000
00000000
00100000
00000000
00000000
00010000
00000000
00000000
01000000
00000000
00000000
00100000
00000000
10000000
00000000
,
10000000
00000000
00000000
00100000
00000000
00000000
01000000
00000000
00000000
00001000
00000000
00000000
00010000
00000000
00010000
00000000
,
00001000
00000000
00000000
00010000
00000000
00000000
00000100
00000000
00000000
00001000
00000000
00000000
00000001
00000000
00001000
00000000
,
00000100
00000000
00000000
00010000
00000000
00000000
00001000
00000000
00000000
00100000
00000000
00000000
00010000
00000000
01000000
00000000
,
00100000
00000000
00000000
10000000
00000000
00000000
00010000
00000000
00000000
00100000
00000000
00000000
00010000
00000000
01000000
00000000
,
00001000
00000000
00000000
00010000
00000000
00000000
00000100
00000000
00000000
00001000
00000000
00000000
00000010
00000000
00000100
00000000
,
00000001
00000000
00000000
00001000
00000000
00000000
00000100
00000000
00000000
00010000
00000000
00000000
00001000
00000000
00000000
00000000
,
00100000
00000000
00000000
00010000
00000000
00000000
01000000
00010000
00000000
01000000
00000000
00000000
00100000
00000000
10000000
00000000
,
00100000
00000000
00000000
01000000
00000000
00000000
00010000
00100000
00000000
00010000
00000000
00000000
00100000
00000000
00001000
00000000
,
00010000
00000000
00000000
00000100
00000000
00000000
00010000
00000100
00000000
00010000
00000000
00000000
00000100
00000000
00001000
00000000
,
00000001
00000000
00000000
00001001
00000000
00000000
00001000
00000000
00000000
00001001
00000000
00000000
00000001
00000000
00000100
00000000
,
00000010
00000000
00000000
00010000
00000000
00000000
00001000
00000000
00010000
00000000
00000000
00001000
00000000
00000000
00100000
00000000
,
00010000
00000000
00000000
01000000
00000000
00000000
00100000
00000000
10000000
00000000
00000000
00100000
00000000
00000000
01000000
00000000
,
00010000
00000000
00000000
00100000
00000000
00000000
00001000
00000000
00010000
00000000
00000000
00000010
00000000
00000000
00001000
00000000
,
00000002
00000203
00000020
00000330
,
00001001
00000000
00000010
00000000
00000000
00000010
00000000
00000000
,
00000000
00000000
00001000
00000000
00000000
00001000
00000000
00000000
,
00000100
00000000
00010000
00000000
00000000
00010000
00000000
00000000
,
00000000
00000000
00001000
00000000
00000000
00001000
00000000
00000000
,
00100000
00010000
01000000
00000000
00000000
01000000
00000000
00100000
,
10000000
00000000
00100000
00000000
00000000
00100000
00000000
01000000
,
00010000
00000000
00100000
00000000
00000000
00100000
00000000
00100000
,
00001000
00000000
00010000
00000000
00001000
00000000
00010000
00000000
00000100
00000000
00001000
00000000
00000100
00001000
00000100
00001000
,
00000100
00001100
00000101
00001100
,
00000010
00001010
00000011
00001010
,
00000100
00010100
00011000
00010100
,
00010000
00011000
01001000
00011000
,
00001000
00100000
00010000
00000000
01000000
00100000
10000000
00000000
,
00010000
00100000
00001000
00000000
00010000
00000100
00001000
00000000
,
00000010
00001000
00000001
00001000
00000100
00010000
00001000
00010000
,
00002000
00000000
00000000
01003000
,
00010000
00000000
00000000
01000000
00000000
00100000
00000000
10000000
00000000
00010000
00000000
00000000
10000000
00000000
01000000
00000000
,
00000000
00000000
00100000
00000000
00010000
00000000
00000000
00100000
00000000
00001000
00000000
00000000
00100000
00000000
00001000
00000000
,
00010000
00000000
00000000
00001000
00000000
00010000
00000000
00000100
00000000
00000100
00000000
00000000
00010000
00000000
00001000
00000000
,
00000000
00000000
00010000
00000000
00000010
00000000
00000000
00001000
00000000
00000100
00000000
00000000
00000010
00000000
00000001
00000000
,
00000100
00000000
00000000
00000010
00000000
00001000
00000000
00000100
00000000
00000010
00000000
00000000
00000001
00000000
00001000
00000000
,
00000000
00000000
00000100
00000000
00010000
00000000
00000000
00001000
00000000
00100000
00000000
00010000
00000000
00000000
01000000
00000000
,
00100000
00000000
00000000
10000000
00000000
10000000
00000000
00010000
00000000
00010000
00000000
00010000
00100000
00000000
00001000
00000000
,
00000000
00000000
00010000
00000000
00000100
00000000
00000000
00001000
00000000
00000010
00000000
00000100
00000010
00000000
00001000
00000000
,
00000100
00000000
00000000
00010000
00000000
00001000
00000000
00100000
00000000
00010000
00000000
10000000
00010000
00000000
00100000
00000000
,
00000000
00000000
00001000
00000000
00010000
00000000
00000000
00000100
00000000
00001000
00000000
00000010
00001000
00000000
00000010
00000000
,
00000100
00000001
00000000
00000001
00000000
00001000
00000000
00001000
00000000
00000010
00000000
00000000
00001000
00000000
00000100
00000000
,
00000000
00000000
00010000
00000000
00001000
00000000
00000000
00100000
00000000
00010000
00000000
01000000
00010000
00000000
00100000
00000000
,
10000000
00100000
00000000
01000000
00000000
00010000
00000000
00010000
00000000
00100000
00000000
00010000
00100000
00000000
00010000
00000000
,
00000000
00000000
00100000
00000000
00001000
00000000
00000000
00010000
00000000
00000100
00000000
00000100
00001000
00000000
00000010
00000000
,
00001000
00000001
00000000
00001000
00000000
00000100
00000000
00010000
00000000
00001000
00000000
00000000
00100000
00000000
00010000
00000000
,
01000000
00100000
10000000
01000000
00010000
01000000
10000000
00200000
,
02000000
00000000
00000000
00000000
,
03300000
00000000
00000000
00000000
;

//---------------dance-single - ----------------
#NOTES:
     dance-single:
     :
     Medium:
     13:
     0.608679,0.764025,0.169783,0.113189,0.529563,527.000000,506.000000,21.000000,14.000000,0.000000,0.000000,0.608679,0.764025,0.169783,0.113189,0.529563,527.000000,506.000000,21.000000,14.000000,0.000000,0.000000:
0000
0000
0000
0000
,
0000
0000
0000
0000
,
0000
0000
0000
0000
,
0000
0000
0000
0000
,
0000
0000
0000
0000
,
0010
0000
0000
1000
0000
0000
0001
0000
,
0010
0000
0000
0001
0000
0000
1000
0000
,
0010
0000
1000
0000
0001
0000
0000
1000
,
0001
0100
0000
0000
0001
1000
0100
0000
,
0010
0000
0001
0000
0000
0100
0000
0001
,
0001
0000
1000
0000
0000
0010
0000
1000
,
1000
0000
0001
0000
0000
1000
0000
0010
,
0010
0000
0100
0000
0000
0001
0000
1000
,
1000
0000
0001
0000
0100
0000
0000
0010
,
1000
0001
0000
0000
1000
0000
0001
0000
,
1000
0000
0010
0000
0100
0000
0000
0001
,
1000
0010
0000
0000
1000
0001
0010
0000
,
0100
0000
0100
0000
0001
1000
0001
0000
,
0100
0000
0100
0000
1000
0001
1000
0000
,
0100
0000
0100
0000
0010
1000
0100
0000
,
0010
0000
0010
0000
0010
0001
0100
0000
,
0010
1000
0010
1000
0001
0100
0001
0100
,
0010
1000
0001
0100
0010
1000
0001
1000
,
0001
0000
0100
0000
0010
0000
1000
0000
0001
1000
0001
1000
0001
1000
0001
1000
,
0002
2003
3020
0130
,
0100
0000
0000
0100
0001
0000
0000
0001
0000
0100
0001
0000
0100
0000
0010
0000
,
1000
0000
0000
1000
0010
0000
0000
0010
0000
0100
0010
0000
0100
0000
0001
0000
,
0010
0000
0000
0010
0001
0000
0000
0001
0000
0001
0010
0000
0001
0000
0100
0000
,
0020
0000
0030
2002
0000
3003
0001
1000
,
0010
0000
0000
0010
0100
0000
0000
0100
0000
0001
0100
0000
0001
0000
1000
0000
,
0010
0000
0000
0010
0100
0000
0000
0100
0000
0100
0001
0000
1000
0000
0001
0000
,
0100
0000
0000
0100
0001
0000
0000
0001
0000
0001
1000
0000
0001
0000
0100
0000
,
0001
0100
1000
0100
0001
0010
0100
1000
,
0010
0000
0100
0000
0010
0000
1000
0010
0000
0010
1000
0000
0010
0000
0100
0000
,
0002
0000
0003
0020
0000
0030
0011
0011
,
0010
0000
0000
0010
0001
0000
0000
0001
0000
1000
0001
0000
1000
0000
0010
0000
,
0100
0000
0000
0100
0010
0000
0000
0010
0000
0010
0100
0000
0001
0000
1000
0000
,
0001
0000
0000
0001
1000
0000
0000
0010
0000
1000
0010
0000
1000
0000
0001
0000
,
1000
0000
0000
1000
0001
0000
0000
1000
0000
1000
0010
0000
0100
0000
0010
0000
,
1000
0010
0100
0001
0100
0010
1000
0001
,
0100
0000
0000
0101
0000
0000
0101
0000
0000
1001
0000
0000
0010
0000
1000
0000
,
0001
0000
0000
0010
0000
0000
0100
0000
0000
1000
0000
0000
0001
0000
1000
0000
,
0001
0000
0000
0010
0000
0000
0001
0000
0000
0100
0000
0000
0010
0000
1000
0000
,
1000
0000
0000
0010
0000
0000
0100
0000
0000
0001
0000
0000
1000
0000
0001
0000
,
1000
0000
0000
0001
0000
0000
0100
0000
0000
0001
0000
0000
1000
0000
0010
0000
,
0100
0000
0000
0001
0000
0000
1000
0000
0000
0010
0000
0000
0001
0000
0100
0000
,
0010
0000
0000
1000
0000
0000
0001
0000
0000
0010
0000
0000
0001
0000
0100
0000
,
0001
0000
0000
1000
0000
0000
0010
0000
0000
1000
0000
0000
0100
0000
0001
0000
,
0100
0000
0000
0001
0000
0000
1000
0000
0000
0001
0000
0000
1000
0000
0000
0000
,
0010
0000
0000
0001
0000
0000
0100
0001
0000
0100
0000
0000
0010
0000
1000
0000
,
0010
0000
0000
0100
0000
0000
0001
0010
0000
0001
0000
0000
0010
0000
0001
0000
,
1000
0000
0000
0001
0000
0000
1000
0001
0000
1000
0000
0000
0100
0000
1000
0000
,
0001
0000
0000
1001
0000
0000
1000
0000
0000
1001
0000
0000
0001
0000
0100
0000
,
0010
0000
0000
1000
0000
0000
0001
0000
1000
0000
0000
0000
0001
0000
0010
0000
,
0001
0000
0000
0100
0000
0000
0010
0000
1000
0000
0000
0010
0000
0000
0100
0000
,
0001
0000
0010
0001
0000
0010
0001
0000
1000
0000
0010
1000
0000
0010
1000
0000
,
0002
0203
0020
0330
,
1001
0000
0010
0000
0000
0010
0000
0000
,
0000
0000
0001
0000
0000
0001
0000
0000
,
0100
0000
1000
0000
0000
1000
0000
0000
,
0000
0000
0001
0000
0000
0001
0000
0000
,
0010
0001
0100
0000
0000
0100
0000
0010
,
1000
0000
0010
0000
0000
0010
0000
0100
,
0001
0000
0010
0000
0000
0010
0000
0010
,
0001
0000
1000
0000
0001
0000
1000
0000
0010
0000
0100
0000
0010
0100
0010
0100
,
0010
0110
0101
0110
,
0010
1010
0110
1010
,
0001
1001
0101
1001
,
1000
1001
1100
1001
,
0001
0010
0001
0000
0100
0010
1000
0000
,
0001
1000
0001
0000
1000
0010
0100
0000
,
0001
1000
0010
1000
0100
1000
0001
1000
,
0020
0000
0000
0130
,
0001
0000
0000
0100
0000
0010
0000
1000
0000
0001
0000
0000
1000
0000
0100
0000
,
0000
0000
0010
0000
0001
0000
0000
0010
0000
0001
0000
0000
0100
0000
0001
0000
,
1000
0000
0000
0001
0000
0100
0000
0100
0000
0100
0000
0000
0001
0000
1000
0000
,
0000
0000
0001
0000
0100
0000
0000
0010
0000
1000
0000
0000
0001
0000
0100
0000
,
0010
0000
0000
1000
0000
0100
0000
0010
0000
0001
0000
0000
1000
0000
0001
0000
,
0000
0000
0010
0000
0001
0000
0000
1000
0000
0001
0000
0100
0000
0000
0100
0000
,
0010
0000
0000
1000
0000
1000
0000
0001
0000
0001
0000
0001
0010
0000
0001
0000
,
0000
0000
1000
0000
0001
0000
0000
0100
0000
0001
0000
1000
0001
0000
1000
0000
,
0010
0000
0000
1000
0000
0100
0000
0010
0000
0001
0000
1000
0001
0000
0010
0000
,
0000
0000
1000
0000
0001
0000
0000
1000
0000
0010
0000
0100
0010
0000
0100
0000
,
0001
1000
0000
1000
0000
0010
0000
0010
0000
0100
0000
0000
0001
0000
1000
0000
,
0000
0000
0001
0000
0100
0000
0000
0001
0000
0010
0000
0001
1000
0000
0010
0000
,
1000
0010
0000
0100
0000
0001
0000
0001
0000
0010
0000
0001
0010
0000
0001
0000
,
0000
0000
0010
0000
0001
0000
0000
1000
0000
0001
0000
0100
0001
0000
1000
0000
,
0010
1000
0000
1000
0000
0001
0000
0100
0000
0010
0000
0000
0010
0000
0001
0000
,
0100
0010
1000
0100
0001
0100
1000
0020
,
0200
0000
0000
0000
,
0330
0000
0000
0000
;

//---------------dance-double - ----------------
#NOTES:
     dance-double:
     :
     Easy:
     8:
     0.398471,0.509350,0.145529,0.113189,0.060637,345.000000,327.000000,18.000000,14.000000,0.000000,0.000000,0.398471,0.509350,0.145529,0.113189,0.060637,345.000000,327.000000,18.000000,14.000000,0.000000,0.000000:
00000000
00000000
00000000
00000000
,
00000000
00000000
00000000
00000000
,
00000000
00000000
00000000
00000000
,
00000000
00000000
00000000
00000000
,
00000000
00000000
00000000
00000000
,
00200000
00000000
00000000
00000000
,
00302000
00000000
00000000
00000000
,
00023000
00000000
00000000
00000000
,
00030020
00000000
00000000
00000000
,
00001030
00000000
00000000
00000001
00000000
00001000
00000000
00000010
,
00000000
00001000
00000000
00000000
00000000
00000000
00000100
00000000
,
00010000
00000000
00000000
00001000
00000000
00000000
00010000
00001000
,
00000000
00010000
00000000
00001000
,
00100000
00000000
00000000
00010000
00000000
01000000
00000000
00100000
,
00000000
10000000
00000000
00000000
00100000
00000000
01000000
00000000
,
00001000
00000000
00000000
00010000
00000000
00001000
00010000
00001000
,
00000000
00000000
00000000
00010000
00000000
00000100
00000000
00000000
,
00000010
00000010
00001010
00000011
,
00000100
00000100
00001100
00000101
,
00001000
00001000
00001100
00011000
,
00001000
00001000
00101000
00110000
,
00100000
00010000
00100000
00000000
00010000
00000000
10010000
00000000
,
00100000
10000000
00100000
00000000
10000000
00000000
10010000
00000000
,
00100000
00010000
00100000
00000000
10000000
01000000
10000000
00000000
,
00200000
00000000
00000000
01300000
,
10000000
00000000
00100000
00000000
01000000
00010000
01000000
00000000
,
00100000
00000000
10000000
00000000
00010000
00100000
00010000
00000000
,
00100000
00000000
00001000
00000000
00010000
00001000
00010000
00000000
,
00000100
00000000
00001000
00000000
00000010
00001000
00000100
00000000
,
00000010
00000000
00000010
00000000
00001000
00000001
00001000
00000000
,
00000100
00000000
00000100
00000000
00010000
00001000
00010000
00000000
,
00001000
00000000
00100000
00000000
00010000
01000000
10000000
00000000
,
00200000
00000000
00000000
01300000
,
00010000
00000000
10010000
00000000
00100000
10000000
01000000
00000000
,
00200000
00000000
00000000
00302000
00000000
00000000
00003000
00000000
,
00010000
00000000
00000100
00000000
00001000
00000001
00001000
00000000
,
00000100
00000000
00010000
00000000
00001000
00010000
00001000
00000000
,
00100000
00010000
01000000
10010000
,
00100000
00001000
00010000
00011000
,
00020000
00030000
00002000
00003000
,
00010000
00000000
00000000
00001000
00000000
00000000
00010000
00000000
00000000
00001000
00000000
00000000
00010000
00000000
00000000
00000000
,
00000010
00000000
00000000
00000100
00000000
00000000
00000001
00000000
00000000
00000000
00000000
00000000
00001000
00000000
00000000
00000000
,
00000100
00000000
00000000
00000100
00000000
00000000
00010000
00000000
00000000
00000000
00000000
00000000
00001000
00000000
00000000
00000000
,
00100000
00000000
00000000
00100000
00000000
00000000
00010000
00000000
00000000
00000000
00000000
00000000
01000000
00000000
00000000
00000000
,
00100000
00000000
00000000
00100000
00000000
00000000
10000000
00000000
00000000
00000000
00000000
00000000
00010000
00000000
00000000
00000000
,
00100000
00000000
00000000
00100000
00000000
00000000
00001000
00000000
00000000
00000000
00000000
00000000
00010000
00000000
00000000
00000000
,
00000100
00000000
00000000
00000100
00000000
00000000
00001000
00000000
00000000
00000000
00000000
00000000
00000010
00000000
00000000
00000000
,
00000100
00000000
00000000
00000100
00000000
00000000
00000001
00000000
00000000
00000000
00000000
00000000
00001000
00000000
00000000
00000000
,
00000010
00000000
00000000
00000010
00000000
00000000
00000010
00000000
00000000
00000000
00000000
00000000
00001000
00000000
00000000
00000000
,
00000100
00000000
00010000
00000000
00001000
00000000
00100000
00010000
,
01000000
00000000
00100000
00000000
10000000
00000000
00010000
00100000
,
00001000
00000000
00010000
00000000
00000100
00000000
00001000
00000010
,
00000100
00000001
00001000
00000100
,
00001000
00000000
00000000
00001000
00000000
00000000
00001000
00000000
00000100
00000000
00000000
00000100
00000000
00000000
00000100
00000000
,
00000010
00000000
00000000
00000010
00000000
00000000
00000010
00000000
00000001
00000000
00000000
00000001
00000000
00000000
00000001
00000000
,
00001000
00000100
00000010
00000001
,
00002000
00000000
00000000
00013000
,
00001000
00000000
00010000
00000000
00000000
00010000
00000000
00000000
,
00000000
00000000
01000000
00000000
00000000
01000000
00000000
00000000
,
00000000
00000000
10000000
00000000
00000000
10000000
00000000
00000000
,
00000000
00000000
00100000
00000000
00000000
00100000
00000000
00100000
,
00000000
00000000
00001000
00000000
00000000
00001000
00000000
00000000
,
00000000
00000000
00000100
00000000
00000000
00000100
00000000
00000000
,
00000000
00000000
00000001
00000000
00000000
00000001
00000000
00000000
,
00000000
00000000
00000010
00000000
00000000
00000010
00000000
00000000
,
00001000
00000100
00010000
00001000
,
00100000
00010000
01000000
10000000
,
00100000
00010000
00100000
00001000
,
00010000
00000100
00010000
00001000
,
00011000
00000000
00001010
00000000
,
00011000
00000000
01010000
00000000
,
00010000
00001000
00000100
00000010
,
00000002
00000000
00000000
00001003
,
00000010
00001000
00000100
00000000
00000100
00000000
00000100
00000000
,
00010000
00001000
00010000
00000000
00001000
00000000
00001000
00000000
,
00100000
00010000
00100000
00000000
00010000
00000000
01000000
00000000
,
00100000
10000000
00100000
00000000
01000000
00000000
01000000
00000000
,
00010000
00100000
00010000
00000000
00100000
00000000
00100000
00000000
,
00001000
00010000
00001000
00000000
00010000
00000000
00010000
00000000
,
00000100
00001000
00000100
00000000
00001000
00000000
00001000
00000000
,
00000001
00000000
00000000
00000001
00000000
00000000
00001000
00000000
00000010
00000000
00000000
00000000
00001000
00000000
00000000
00000000
,
00000010
00001000
00000010
00000000
00001000
00000000
00000100
00000000
,
00010000
00000100
00010000
00000000
00001000
00000000
00100000
00000000
,
00010000
01000000
10000000
00000000
00100000
00000000
00100000
00000000
,
10000000
01000000
00010000
00000000
00100000
00000000
00100000
00000000
,
00001000
00010000
00001000
00000000
00010000
00000000
00010000
00000000
,
00000100
00001000
00000010
00000000
00000100
00000000
00000100
00000000
,
00000001
00001000
00000100
00000000
00000100
00010000
00001000
00000000
,
00010000
00001000
00010000
00001000
,
00022000
00000000
00000000
00000000
,
00033000
00000000
00000000
00000000
;

//---------------dance-single - ----------------
#NOTES:
     dance-single:
     :
     Easy:
     8:
     0.405401,0.509350,0.177868,0.137444,0.060637,351.000000,329.000000,22.000000,17.000000,0.000000,0.000000,0.405401,0.509350,0.177868,0.137444,0.060637,351.000000,329.000000,22.000000,17.000000,0.000000,0.000000:
0000
0000
0000
0000
,
0000
0000
0000
0000
,
0000
0000
0000
0000
,
0000
0000
0000
0000
,
0000
0000
0000
0000
,
0020
0000
0000
0000
,
0032
0000
0000
0000
,
0203
0000
0000
0000
,
2300
0000
0000
0000
,
3010
0000
0000
0001
0000
1000
0000
0010
,
0000
1000
0000
0000
0000
0000
0100
0000
,
1000
0000
0000
0010
0000
1000
0001
1000
,
0000
0001
0000
1000
,
0010
0000
0000
1000
0000
0100
0000
0010
,
0000
0001
0000
0000
0010
0000
0100
0000
,
0001
0000
0000
1000
0000
0001
1000
0001
,
0000
0000
0000
1000
0000
0010
0000
0000
,
0100
0100
1100
0101
,
0010
0010
0011
1010
,
0001
0001
0101
1001
,
1000
1000
1100
1001
,
0100
0001
0100
0000
0001
0000
1001
0000
,
0010
1000
0010
0000
1000
0000
1001
0000
,
0010
0001
0010
0000
1000
0100
1000
0000
,
0020
0000
0000
0130
,
1000
0000
0010
0000
0100
0001
0100
0000
,
0010
0000
1000
0000
0001
0010
0001
0000
,
0010
0000
0001
0000
1000
0001
1000
0000
,
0010
0000
0001
0000
0100
0001
1000
0000
,
0010
0000
0010
0000
1000
0001
1000
0000
,
0010
0000
0010
0000
0001
1000
0001
0000
,
0010
0000
0010
0000
0001
0100
1000
0000
,
0020
0000
0000
0130
,
0001
0000
1001
0000
0010
1000
0100
0000
,
0020
0000
0000
0032
0000
0000
1003
0000
,
0001
0000
1000
0000
0010
0100
0010
0000
,
1000
0000
0001
0000
1000
0001
1000
0000
,
0010
0001
0100
1001
,
0010
0001
0100
1000
,
2002
3003
0220
0330
,
0001
0000
0000
0100
0000
0000
0001
0000
0000
0100
0000
0000
0001
0000
0000
0000
,
0010
0000
0000
0100
0000
0000
0001
0000
0000
0000
0000
0000
1000
0000
0000
0000
,
0100
0000
0000
0100
0000
0000
0001
0000
0000
0000
0000
0000
1000
0000
0000
0000
,
0010
0000
0000
0010
0000
0000
0001
0000
0000
0000
0000
0000
0100
0000
0000
0000
,
0010
0000
0000
0010
0000
0000
1000
0000
0000
0000
0000
0000
0001
0000
0000
0000
,
0010
0000
0000
0010
0000
0000
0010
0000
0000
0000
0000
0000
0001
0000
0000
0000
,
0100
0000
0000
0100
0000
0000
0100
0000
0000
0000
0000
0000
0010
0000
0000
0000
,
1000
0000
0000
1000
0000
0000
1000
0000
0000
0000
0000
0000
0001
0000
0000
0000
,
0010
0000
0000
0010
0000
0000
0010
0000
0000
0000
0000
0000
0001
0000
0000
0000
,
0100
0000
0010
0000
1000
0000
0010
0100
,
0001
0000
1000
0000
0010
0000
1000
0010
,
0100
0000
0001
0000
0100
0000
0010
1000
,
0001
0100
1000
0100
,
0001
0000
0000
0001
0000
0000
0001
0000
0010
0000
0000
0010
0000
0000
0010
0000
,
0100
0000
0000
0100
0000
0000
0100
0000
1000
0000
0000
1000
0000
0000
1000
0000
,
0001
0010
0100
1000
,
0002
0000
0000
1003
,
1000
0000
0001
0000
0000
0001
0000
0000
,
0000
0000
0100
0000
0000
0100
0000
0000
,
0000
0000
1000
0000
0000
1000
0000
0000
,
0000
0000
0010
0000
0000
0010
0000
0010
,
0000
0000
0001
0000
0000
0001
0000
0000
,
0000
0000
0010
0000
0000
0010
0000
0000
,
0000
0000
1000
0000
0000
1000
0000
0000
,
0000
0000
0100
0000
0000
0100
0000
0000
,
0001
0010
1000
0001
,
0010
0001
0100
1000
,
0010
0001
0010
0001
,
0100
1000
0010
0001
,
1001
0000
0110
0000
,
1001
0000
0110
0000
,
1000
0100
0010
0001
,
2002
0000
0003
3001
,
0010
1000
0001
0000
0100
0000
0100
0000
,
0001
1000
0001
0000
0010
0000
0010
0000
,
1000
0001
1000
0000
0001
0000
0100
0000
,
0010
1000
0010
0000
0100
0000
0100
0000
,
0001
0010
0001
0000
0010
0000
0010
0000
,
1000
0001
1000
0000
0001
0000
0001
0000
,
1000
0010
1000
0000
0001
0000
0001
0000
,
0100
0000
0000
0100
0000
0000
0001
0000
1000
0000
0000
0000
1001
0000
0000
0000
,
1000
0010
1000
0000
0001
0000
0001
0000
,
1000
0001
1000
0000
0010
0000
0010
0000
,
0001
0100
1000
0000
0010
0000
0010
0000
,
1000
0100
0001
0000
0010
0000
0010
0000
,
1000
0001
1000
0000
0001
0000
0001
0000
,
0001
1000
0001
0000
0100
0000
0100
0000
,
0001
1000
0010
0000
0010
1000
0001
0000
,
1001
0010
0100
1000
,
2002
0000
0000
0000
,
3003
0000
0000
0000
;

//---------------dance-single - ----------------
#NOTES:
     dance-single:
     :
     Beginner:
     5:
     0.224068,0.323801,0.072764,0.000000,0.000000,194.000000,185.000000,9.000000,0.000000,0.000000,0.000000,0.224068,0.323801,0.072764,0.000000,0.000000,194.000000,185.000000,9.000000,0.000000,0.000000,0.000000:
// measure 0
0000
0000
0000
0000
,  // measure 1
0000
0000
0000
0000
,  // measure 2
0000
0000
0000
0000
,  // measure 3
0000
0000
0000
0000
,  // measure 4
0000
0000
0000
0000
,  // measure 5
0010
0000
0000
0000
,  // measure 6
0001
0000
0000
0000
,  // measure 7
0100
0000
0000
0000
,  // measure 8
1000
0000
0000
0000
,  // measure 9
0010
0000
0000
0000
,  // measure 10
0100
0000
0000
0000
,  // measure 11
1000
0000
0000
0000
,  // measure 12
0001
0000
0000
0000
,  // measure 13
1000
0000
0000
0000
,  // measure 14
0010
0000
0000
0000
,  // measure 15
0100
0000
0000
0000
,  // measure 16
0001
0000
0000
0000
,  // measure 17
0100
0100
0100
0000
,  // measure 18
0010
0010
0010
0000
,  // measure 19
0001
0001
0001
0000
,  // measure 20
1000
1000
1000
0000
,  // measure 21
0100
0000
0001
0000
,  // measure 22
0010
0000
1000
0000
,  // measure 23
0010
0010
0010
0010
,  // measure 24
0010
0000
0000
0000
,  // measure 25
1000
0000
0100
0100
,  // measure 26
0100
0000
0001
0001
,  // measure 27
0001
0000
1000
1000
,  // measure 28
1000
0000
0010
0010
,  // measure 29
0010
0000
1000
1000
,  // measure 30
1000
0000
0001
0001
,  // measure 31
0001
0000
1000
1000
,  // measure 32
1000
0000
1001
0000
,  // measure 33
0001
0001
0001
0000
,  // measure 34
0010
0010
0010
0000
,  // measure 35
0100
0100
0100
0000
,  // measure 36
1000
1000
1000
0000
,  // measure 37
0010
0010
0010
0000
,  // measure 38
0001
0001
0001
0000
,  // measure 39
0100
0100
0100
0000
,  // measure 40
1001
0000
0000
0000
,  // measure 41
0010
0000
0000
0100
,  // measure 42
0100
0000
0000
0010
,  // measure 43
0010
0000
0000
0100
,  // measure 44
0100
0000
0000
0001
,  // measure 45
0001
0000
0000
1000
,  // measure 46
1000
0000
0000
0001
,  // measure 47
0001
0000
0000
1000
,  // measure 48
1000
0000
0000
0000
,  // measure 49
0100
0000
1000
0000
,  // measure 50
0001
0000
1000
0000
,  // measure 51
1000
0000
0001
0000
,  // measure 52
0010
0000
0100
0000
,  // measure 53
0001
0000
0010
0000
,  // measure 54
0100
0000
1000
0000
,  // measure 55
0001
0000
0100
0000
,  // measure 56
1001
0000
0000
0000
,  // measure 57
0001
0000
0000
0000
,  // measure 58
0100
0000
0000
0000
,  // measure 59
1000
0000
0000
0000
,  // measure 60
0010
0000
0000
0000
,  // measure 61
0001
0000
0000
0000
,  // measure 62
0010
0000
0000
0000
,  // measure 63
1000
0000
0000
0000
,  // measure 64
0100
0000
0000
0000
,  // measure 65
0001
0001
0001
0000
,  // measure 66
1000
1000
1000
0000
,  // measure 67
0001
0001
0001
0000
,  // measure 68
0100
0100
0100
0000
,  // measure 69
1001
0000
0110
0000
,  // measure 70
1001
0000
0110
0000
,  // measure 71
0010
0010
0010
0010
,  // measure 72
0010
0000
0000
0000
,  // measure 73
0010
0000
0100
0100
,  // measure 74
0000
0001
0001
0001
,  // measure 75
0001
0000
1000
1000
,  // measure 76
0000
0010
0010
0010
,  // measure 77
0010
0000
0100
0100
,  // measure 78
0000
0001
0001
0001
,  // measure 79
0001
0000
1000
1000
,  // measure 80
1000
0000
1001
0000
,  // measure 81
1000
1000
1000
0000
,  // measure 82
0001
0001
0001
0000
,  // measure 83
0010
0010
0010
0000
,  // measure 84
0100
0100
0100
0000
,  // measure 85
1000
1000
1000
0000
,  // measure 86
0001
0001
0001
0000
,  // measure 87
0010
0010
0010
0000
,  // measure 88
0100
0100
0100
0000
,  // measure 89
1001
0000
0000
0000
;
