#TITLE:Impress;
#SUBTITLE:;
#ARTIST:BEMANI Sound Team "SYUNN";
#TITLETRANSLIT:;
#SUBTITLETRANSLIT:;
#ARTISTTRANSLIT:;
#GENRE:;
#CREDIT:;
#BANNER:Impress.png;
#BACKGROUND:Impress-bg.png;
#LYRICSPATH:;
#CDTITLE:;
#MUSIC:Impress.ogg;
#OFFSET:-0.080000;
#SAMPLESTART:60.034000;
#SAMPLELENGTH:12.000000;
#SELECTABLE:YES;
#BPMS:0.000000=132.000000
;
#STOPS:
;
#BGCHANGES:;
#KEYSOUNDS:;
#ATTACKS:;

//---------------dance-single - ----------------
#NOTES:
     dance-single:
     :
     Hard:
     13:
     0.502147,0.566093,0.100717,0.060430,0.518693,349.000000,339.000000,10.000000,6.000000,0.000000,0.000000,0.502147,0.566093,0.100717,0.060430,0.518693,349.000000,339.000000,10.000000,6.000000,0.000000,0.000000:
0000
0000
0000
0000
,
0000
0000
0000
0000
,
0000
0000
0000
0000
,
0010
0010
0010
0010
,
0001
0001
0001
0001
,
0100
0010
0100
0010
0100
0010
0100
0010
,
1000
0001
1000
0001
1000
0001
1000
0001
,
1000
0100
0010
0001
1000
0100
0010
0001
,
1000
0100
0010
0001
1000
0001
1001
0000
,
0010
0000
0000
0001
0100
0000
0001
0000
0010
0000
0000
0001
0100
0000
0001
0000
,
0010
0000
0000
0001
0100
0000
0001
0000
0010
0000
0000
0001
1000
0000
0100
0000
,
1000
0000
0000
0010
0100
0000
0010
0000
1000
0000
0000
0010
0100
0000
0010
0000
,
1000
0000
0000
0010
0100
0000
0010
0000
1000
0000
0000
0001
0100
0000
0001
0000
,
0020
0000
0000
0031
0100
0000
0001
0000
0010
0000
0000
0001
0100
0000
0001
0000
,
0010
0000
0000
0001
0100
0000
0001
0000
0010
0000
0000
0001
0100
0000
0010
0000
,
1000
0000
0000
0100
1000
0000
0001
0000
1000
0000
0000
0100
1000
0000
0001
0000
,
1000
0010
1000
0010
1000
0000
0001
0100
0001
0100
0001
0000
1001
0000
0000
0000
,
0010
0000
1000
0100
0000
1000
0100
0000
1000
0000
0010
0100
0000
0010
0100
0000
,
0001
0000
0100
0010
0000
0100
0010
0000
1000
0000
0010
0100
0000
0010
0100
0000
,
0001
0000
1000
0001
0000
1000
0001
0000
0100
0000
0001
0100
0000
0001
0100
0000
,
0010
0000
1000
0010
0000
1000
0010
0000
0100
0000
0001
0000
0010
0000
0001
0000
,
0100
0000
0010
1000
0000
0010
1000
0000
0100
0000
0001
0100
0000
0001
0100
0000
,
0010
0000
1000
0100
0000
1000
0100
0000
0010
0000
0001
0100
0000
0001
0100
0000
,
0010
0000
1000
0001
0000
1000
0001
0000
0010
0000
0001
1000
0000
0001
1000
0000
,
0010
0000
0100
0010
0000
0100
0010
0000
1000
0000
0100
0010
0000
0001
1000
0000
,
0002
0000
0000
0003
,
0200
0000
0000
0300
,
2000
0000
0000
3000
,
0020
0000
0000
0030
,
0001
0110
1000
0110
,
0001
1010
0100
0011
,
1000
0110
0001
1010
,
0100
0000
0000
0100
0000
0000
0100
0000
0020
0000
0000
0100
0000
0000
0130
0000
,
1001
0000
0000
0001
0000
1000
0001
0000
1000
0000
0000
0001
0000
1000
0001
0000
,
0100
0000
0000
0010
0000
0100
0010
0000
0100
0000
0000
0010
0000
0100
0010
0000
,
1000
0000
0000
0100
0000
0010
0001
0000
1000
0000
0000
0100
0000
0010
0001
0000
,
1000
0000
0000
0010
0000
0100
0001
0000
1000
0000
0000
0010
0000
0100
0001
0000
,
1000
0000
0000
0001
0000
0100
0010
0000
1000
0000
0000
0001
0000
0100
0010
0000
,
1000
0000
0000
0010
0000
0100
0001
0000
1000
0000
0000
0010
0000
0100
0001
0000
,
1000
0000
0000
0001
0000
0100
0001
0000
1000
0000
0000
0001
0000
0100
0001
0000
,
1000
0000
0000
0010
0000
0000
0001
0000
1000
0000
0000
0100
0000
0000
0001
0000
,
1000
0000
0000
0001
0100
0000
0001
0000
1000
0000
0000
0001
0100
0000
0001
0000
,
1000
0000
0000
0010
0100
0000
0010
0000
1000
0000
0000
0010
0100
0000
0001
0000
,
1000
0000
0000
0010
0100
0000
0010
0000
1000
0000
0000
0001
0100
0000
0001
0000
,
1000
0000
0000
0010
0100
0000
0010
0000
1000
0000
0000
0001
0100
0000
0010
0000
,
1000
0000
0100
1000
0000
0100
1000
0000
0010
0000
0100
0010
0000
0100
0010
0000
,
0001
0000
0100
0001
0000
0100
0001
0000
1000
0000
0010
0100
0000
0010
0100
0000
,
0001
0000
1000
0100
0000
0010
0001
0000
0100
0000
0010
0100
0000
0001
1000
0000
,
0001
0000
0010
0100
0000
0100
0010
0000
1000
0000
0000
0001
0000
0000
1001
0000
;

//---------------dance-double - ----------------
#NOTES:
     dance-double:
     :
     Hard:
     13:
     0.483442,0.541480,0.181291,0.060430,0.423012,336.000000,318.000000,18.000000,6.000000,0.000000,0.000000,0.483442,0.541480,0.181291,0.060430,0.423012,336.000000,318.000000,18.000000,6.000000,0.000000,0.000000:
// measure 0
00000000
00000000
00000000
00000000
,  // measure 1
00000000
00000000
00000000
00000000
,  // measure 2
00000000
00000000
00000000
00000000
,  // measure 3
00010000
00010000
00010000
00010000
,  // measure 4
00001000
00001000
00001000
00001000
,  // measure 5
00010000
00001000
00010000
00001000
00010000
00001000
01000000
00010000
,  // measure 6
10000000
00100000
10000000
00100000
10000000
00100000
01000000
00001000
,  // measure 7
00010000
00001000
00010000
00001000
00010000
00000100
00001000
00000010
,  // measure 8
00000100
00000001
00000100
00000001
00001000
00000001
00001001
00000000
,  // measure 9
00000010
00000000
00000000
00001000
00000001
00000000
00001000
00000000
00000010
00000000
00000000
00001000
00000001
00000000
00001000
00000000
,  // measure 10
00000010
00000000
00000000
00001000
00000100
00000000
00001000
00000000
00000010
00000000
00000000
00001000
00000100
00000000
00001000
00000000
,  // measure 11
00000010
00000000
00000000
00010000
00000100
00000000
00010000
00000000
00000010
00000000
00000000
00010000
00000100
00000000
00010000
00000000
,  // measure 12
00000100
00000000
00000000
00010000
00001000
00000000
00010000
00000000
00001000
00000000
00000000
00000000
01010000
00000000
00000000
00000000
,  // measure 13
00200000
00000000
00000000
10300000
00010000
00000000
10000000
00000000
00100000
00000000
00000000
10000000
00010000
00000000
10000000
00000000
,  // measure 14
00100000
00000000
00000000
01000000
00010000
00000000
01000000
00000000
00100000
00000000
00000000
01000000
00010000
00000000
00100000
00000000
,  // measure 15
00001000
00000000
00000000
00010000
00000100
00000000
00010000
00000000
00001000
00000000
00000000
00010000
00000100
00000000
00001000
00000000
,  // measure 16
00000010
00000100
00000010
00000100
00000010
00000000
00001000
00000001
00001000
00000001
00001000
00000000
00001100
00000000
00000000
00000000
,  // measure 17
00000001
00000000
00000000
00000001
00001000
00000000
00000010
00000000
00001000
00000000
00000000
00001000
00000100
00000000
00010000
00000000
,  // measure 18
00001000
00000000
00000000
00001000
01000000
00000000
00100000
00000000
10000000
00000000
00000000
00010000
10000000
00000000
00010000
00000000
,  // measure 19
01000000
00000000
00000000
00001000
00010000
00000000
00001000
00000000
00010000
00000000
00000000
00000100
00001000
00000000
00000010
00000000
,  // measure 20
00000100
00000000
00000000
00000001
00001000
00000000
00000010
00000000
00001000
00000000
00000100
00000000
00010000
00000000
00001000
00000000
,  // measure 21
01000000
00000000
00010000
01000000
00000000
00010000
01000000
00000000
00100000
00000000
10000000
00100000
00000000
10000000
00100000
00000000
,  // measure 22
01000000
00000000
00010000
01000000
00000000
00010000
01000000
00000000
00010000
00000000
00100000
00001000
00000000
00100000
00001000
00000000
,  // measure 23
00010000
00000000
00000100
00001000
00000000
00000100
00001000
00000000
00000001
00000000
00000100
00000010
00000000
00000100
00000010
00000000
,  // measure 24
00001000
00000000
00000100
00000010
00000000
00000100
00000010
00000000
00001000
00000000
00000100
00010000
00000000
00000100
00010000
00000000
,  // measure 25
00002000
00000000
00000000
00003000
,  // measure 26
02000000
00000000
00000000
03000000
,  // measure 27
20000000
00000000
00000000
30000000
,  // measure 28
00200000
00000000
00000000
00300000
,  // measure 29
00001000
00000101
00001000
00010010
,  // measure 30
00001000
01001000
01000000
01100000
,  // measure 31
10000000
01010000
00100000
00011000
,  // measure 32
00010000
00000000
00000000
00010000
00000000
00000000
00010000
00000000
00000200
00000000
00000000
00001000
00000000
00000000
00001300
00000000
,  // measure 33
00000001
00000000
00000000
00001001
00000000
00000000
00000100
00000000
00001000
00000000
00000000
00001100
00000000
00000000
00000100
00000000
,  // measure 34
00010000
00000000
00000000
00011000
00000000
00000000
00001000
00000000
01000000
00000000
00000000
01100000
00000000
00000000
00100000
00000000
,  // measure 35
10000000
00000000
00000000
01000000
00000000
00000000
00010000
00000000
00100000
00000000
00000000
00001000
00000000
00000000
00000100
00000000
,  // measure 36
00001000
00000000
00000000
00000010
00000000
00000000
00000001
00000000
00000100
00000000
00000000
00000010
00000000
00000000
00010000
00000000
,  // measure 37
00000100
00000000
00000000
00011000
00000000
00000000
00010000
00000000
00001000
00000000
00000000
01001000
00000000
00000000
01000000
00000000
,  // measure 38
00100000
00000000
00000000
10010000
00000000
00000000
01000000
00000000
00010000
00000000
00000000
00110000
00000000
00000000
00100000
00000000
,  // measure 39
00001000
00000000
00010000
00001000
00000000
00010000
00000100
00000000
00010000
00000000
00000000
00001000
00000000
00000000
01000000
00000000
,  // measure 40
00100000
00000000
10000000
00010000
00000000
10000000
00010000
00000000
01000000
00000000
00000000
00100000
00000000
00000000
10000000
00000000
,  // measure 41
01000000
00000000
00000000
00010000
00100000
00000000
00010000
00000000
00100000
00000000
00000000
00001000
00010000
00000000
00001000
00000000
,  // measure 42
00010000
00000000
00000000
00000100
00001000
00000000
00000010
00000000
00000100
00000000
00000000
00000001
00001000
00000000
00000001
00000000
,  // measure 43
00001000
00000000
00000100
00001000
00000000
00000100
00001000
00000000
00000100
00000000
00000000
00010000
00000000
00000000
00001000
00000000
,  // measure 44
01000000
00000000
00010000
10000000
00000000
00010000
10000000
00000000
00100000
00000000
00000000
01000000
00000000
00000000
00001000
00000000
,  // measure 45
00010000
00000000
00000100
00010000
00000000
00000100
00010000
00000000
00000010
00000000
00001000
00000001
00000000
00001000
00000001
00000000
,  // measure 46
00001000
00000000
00000100
00010000
00000000
00000100
00010000
00000000
00001000
00000000
01000000
00010000
00000000
01000000
00010000
00000000
,  // measure 47
10000000
00000000
01000000
00100000
00000000
10000000
00010000
00000000
10000000
00000000
00100000
01000000
00000000
00010000
01000000
00000000
,  // measure 48
00100000
00000000
00000000
00001000
00000000
00000000
00010000
00000000
00000010
00000000
00000000
00001000
00000000
00000000
00001001
00000000
;

//---------------dance-double - ----------------
#NOTES:
     dance-double:
     :
     Medium:
     9:
     0.325172,0.344578,0.040287,0.060430,0.302151,226.000000,222.000000,4.000000,6.000000,0.000000,0.000000,0.325172,0.344578,0.040287,0.060430,0.302151,226.000000,222.000000,4.000000,6.000000,0.000000,0.000000:
00000000
00000000
00000000
00000000
,
00000000
00000000
00000000
00000000
,
00000000
00000000
00000000
00000000
,
00100000
00100000
00100000
00100000
,
00001000
00001000
00001000
00001000
,
00100000
00010000
01000000
10000000
,
00100000
10000000
01000000
00001000
,
00010000
00010000
00000010
00000010
,
00001000
00000100
00000010
00001001
,
00000000
00000000
00000000
00000100
00000000
00000000
00000100
00000000
00000000
00000000
00000000
00000100
00000000
00000000
00000100
00000000
,
00000000
00000000
00000000
00000001
00000000
00000000
00000001
00000000
00000000
00000000
00000000
00001000
00000000
00000000
00001000
00000000
,
00000000
00000000
00000000
00000100
00000000
00000000
00000100
00000000
00000000
00000000
00000000
00000010
00000000
00000000
00000010
00000000
,
00000000
00000000
00000000
00010000
00000000
00000000
00010000
00000000
00000000
00000000
00000000
00001000
00000000
00000000
00001000
00000000
,
01000000
00000000
00000000
00100000
00000000
00000000
00100000
00000000
00000000
00000000
00000000
00100000
00000000
00000000
00100000
00000000
,
10000000
00000000
00000000
00010000
00000000
00000000
00010000
00000000
00000000
00000000
00000000
00010000
00000000
00000000
00010000
00000000
,
01000000
00000000
00000000
00001000
00000000
00000000
00001000
00000000
01000000
00000000
00000000
00010000
00000000
00000000
00010000
00000000
,
01000000
00100000
01000000
00100000
01000000
00000000
10010000
00000000
,
00100000
00000000
00000000
00100000
00000000
00000000
00100000
00000000
00001000
00000000
00000000
00001000
00000000
00000000
00001000
00000000
,
00010000
00000000
00000000
00010000
00000000
00000000
00010000
00000000
00000010
00000000
00000000
00000010
00000000
00000000
00000010
00000000
,
00001000
00000000
00000000
00001000
00000000
00000000
00001000
00000000
00000100
00000000
00000000
00000100
00000000
00000000
00000100
00000000
,
00010000
00000000
00000000
00010000
00000000
00000000
00010000
00000000
00001000
00000000
00000000
00000000
01000000
00000000
00000000
00000000
,
00100000
00000000
00000000
00100000
00000000
00000000
00100000
00000000
10000000
00000000
00000000
10000000
00000000
00000000
10000000
00000000
,
00010000
00000000
00000000
00010000
00000000
00000000
00010000
00000000
01000000
00000000
00000000
01000000
00000000
00000000
01000000
00000000
,
00001000
00000000
00000000
00001000
00000000
00000000
00001000
00000000
00010000
00000000
00000000
00010000
00000000
00000000
00010000
00000000
,
00000010
00000000
00000000
00000010
00000000
00000000
00000010
00000000
00000100
00000000
00000000
00000000
00001001
00000000
00000000
00000000
,
00000020
00000000
00000000
00000030
,
00002000
00000000
00000000
00003000
,
00020000
00000000
00000000
00030000
,
02000000
00000000
00000000
03000000
,
10000000
00100000
00010000
00100000
,
10000000
01000000
00010000
01000000
,
00001000
00010000
00000010
00010000
,
00002000
00003000
00020000
00030000
,
00000100
00000000
00000000
00000100
00000000
00000000
00000100
00000000
00000001
00000000
00000000
00000001
00000000
00000000
00000001
00000000
,
00000010
00000000
00000000
00000010
00000000
00000000
00000010
00000000
00001000
00000000
00000000
00001000
00000000
00000000
00001000
00000000
,
00000100
00000000
00000000
00000100
00000000
00000000
00000100
00000000
00010000
00000000
00000000
00010000
00000000
00000000
00010000
00000000
,
00001000
00000000
00000000
00001000
00000000
00000000
00001000
00000000
01000000
00000000
00000000
01000000
00000000
00000000
01000000
00000000
,
00100000
00000000
00000000
00100000
00000000
00000000
00100000
00000000
10000000
00000000
00000000
10000000
00000000
00000000
10000000
00000000
,
01000000
00000000
00000000
01000000
00000000
00000000
01000000
00000000
00010000
00000000
00000000
00010000
00000000
00000000
00010000
00000000
,
00100000
00000000
00000000
00100000
00000000
00000000
00100000
00000000
00001000
00000000
00000000
00001000
00000000
00000000
00001000
00000000
,
00010000
00000000
00000000
00010000
00000000
00000000
00010000
00000000
00000010
00000000
00000000
00000010
00000000
00000000
00000010
00000000
,
00001000
00000000
00000000
00001000
00000000
00000000
00000001
00000000
00001000
00000000
00000000
00001000
00000000
00000000
00000100
00000000
,
00010000
00000000
00000000
00010000
00000000
00000000
00000010
00000000
00010000
00000000
00000000
00010000
00000000
00000000
00001000
00000000
,
01000000
00000000
00000000
01000000
00000000
00000000
00010000
00000000
01000000
00000000
00000000
01000000
00000000
00000000
00100000
00000000
,
10000000
00000000
00000000
10000000
00000000
00000000
00010000
00000000
10000000
00000000
00000000
01000000
00000000
00000000
00100000
00000000
,
00010000
00000000
00000000
00010000
00000000
00000000
00100000
00000000
00001000
00000000
00000000
00001000
00000000
00000000
00010000
00000000
,
00000010
00000000
00000000
00000010
00000000
00000000
00001000
00000000
00000001
00000000
00000000
00000001
00000000
00000000
00000100
00000000
,
00000010
00000000
00000000
00000010
00000000
00000000
00010000
00000000
00001000
00000000
00000000
00001000
00000000
00000000
00100000
00000000
,
00010000
00000000
00000000
00010000
00000000
00000000
01000000
00000000
00100000
00000000
00000000
10000000
00000000
00000000
10010000
00000000
;

//---------------dance-single - ----------------
#NOTES:
     dance-single:
     :
     Medium:
     9:
     0.325172,0.344578,0.040287,0.060430,0.302151,226.000000,222.000000,4.000000,6.000000,0.000000,0.000000,0.325172,0.344578,0.040287,0.060430,0.302151,226.000000,222.000000,4.000000,6.000000,0.000000,0.000000:
0000
0000
0000
0000
,
0000
0000
0000
0000
,
0000
0000
0000
0000
,
0010
0010
0100
0100
,
0001
0001
1000
1000
,
0010
0001
0100
1000
,
0010
1000
0100
0001
,
0010
0010
1000
0001
,
1000
0100
0010
1001
,
0000
0000
0000
0100
0000
0000
0100
0000
0000
0000
0000
0100
0000
0000
0100
0000
,
0000
0000
0000
0001
0000
0000
0001
0000
0000
0000
0000
1000
0000
0000
1000
0000
,
0000
0000
0000
0010
0000
0000
0010
0000
0000
0000
0000
0010
0000
0000
0010
0000
,
0000
0000
0000
0001
0000
0000
0001
0000
0000
0000
0000
1000
0000
0000
1000
0000
,
0001
0000
0000
0010
0000
0000
0010
0000
0000
0000
0000
0010
0000
0000
0010
0000
,
1000
0000
0000
0001
0000
0000
0001
0000
0000
0000
0000
0001
0000
0000
0001
0000
,
1000
0000
0000
0010
0000
0000
0010
0000
1000
0000
0000
0001
0000
0000
0001
0000
,
1000
0001
1000
0001
1000
0000
1001
0000
,
0010
0000
0000
0010
0000
0000
0010
0000
1000
0000
0000
1000
0000
0000
1000
0000
,
0001
0000
0000
0001
0000
0000
0001
0000
0100
0000
0000
0100
0000
0000
0100
0000
,
0001
0000
0000
0001
0000
0000
0001
0000
0010
0000
0000
0010
0000
0000
0010
0000
,
1000
0000
0000
1000
0000
0000
1000
0000
0001
0000
0000
0000
0100
0000
0000
0000
,
0010
0000
0000
0010
0000
0000
0010
0000
1000
0000
0000
1000
0000
0000
1000
0000
,
0100
0000
0000
0100
0000
0000
0100
0000
0001
0000
0000
0001
0000
0000
0001
0000
,
0100
0000
0000
0100
0000
0000
0100
0000
0001
0000
0000
0001
0000
0000
0001
0000
,
0010
0000
0000
0010
0000
0000
0010
0000
1000
0000
0000
0000
1001
0000
0000
0000
,
0020
0000
0000
0030
,
2000
0000
0000
3000
,
0200
0000
0000
0300
,
0002
0000
0000
0003
,
1000
0010
0001
0100
,
1000
0100
0001
0010
,
1000
0100
0010
0001
,
2000
3000
0002
0003
,
0100
0000
0000
0100
0000
0000
0100
0000
0001
0000
0000
0001
0000
0000
0001
0000
,
0010
0000
0000
0010
0000
0000
0010
0000
1000
0000
0000
1000
0000
0000
1000
0000
,
0100
0000
0000
0100
0000
0000
0100
0000
0001
0000
0000
0001
0000
0000
0001
0000
,
1000
0000
0000
1000
0000
0000
1000
0000
0100
0000
0000
0100
0000
0000
0100
0000
,
0010
0000
0000
0010
0000
0000
0010
0000
1000
0000
0000
1000
0000
0000
1000
0000
,
0100
0000
0000
0100
0000
0000
0100
0000
0001
0000
0000
0001
0000
0000
0001
0000
,
0010
0000
0000
0010
0000
0000
0010
0000
1000
0000
0000
1000
0000
0000
1000
0000
,
0001
0000
0000
0001
0000
0000
0001
0000
0010
0000
0000
0010
0000
0000
0010
0000
,
1000
0000
0000
1000
0000
0000
0001
0000
1000
0000
0000
1000
0000
0000
0100
0000
,
0001
0000
0000
0001
0000
0000
0010
0000
0001
0000
0000
0001
0000
0000
1000
0000
,
0010
0000
0000
0010
0000
0000
1000
0000
0001
0000
0000
0001
0000
0000
0100
0000
,
0010
0000
0000
0010
0000
0000
1000
0000
0001
0000
0000
0100
0000
0000
0010
0000
,
1000
0000
0000
1000
0000
0000
0010
0000
0001
0000
0000
0001
0000
0000
0010
0000
,
1000
0000
0000
1000
0000
0000
0100
0000
0001
0000
0000
0001
0000
0000
0100
0000
,
1000
0000
0000
1000
0000
0000
0001
0000
1000
0000
0000
1000
0000
0000
0010
0000
,
0100
0000
0000
0100
0000
0000
0100
0000
0010
0000
0000
1000
0000
0000
1001
0000
;

//---------------dance-single - ----------------
#NOTES:
     dance-single:
     :
     Beginner:
     2:
     0.119422,0.171849,0.000000,0.030215,0.000000,83.000000,83.000000,0.000000,3.000000,0.000000,0.000000,0.119422,0.171849,0.000000,0.030215,0.000000,83.000000,83.000000,0.000000,3.000000,0.000000,0.000000:
0000
0000
0000
0000
,
0000
0000
0000
0000
,
0000
0000
0000
0000
,
0000
0000
0000
0000
,
0000
0000
0000
0000
,
0001
0000
0001
0000
,
1000
0000
1000
0000
,
0010
0010
0010
0010
,
0010
0000
0000
0000
,
0000
0100
0000
0100
,
0000
0010
0000
0010
,
0000
0100
0000
0100
,
0000
0010
0000
0010
,
0000
1000
0000
1000
,
0000
0001
0000
0001
,
0000
1000
0000
1000
,
0000
0001
0000
0001
,
0000
0100
0000
0001
,
0000
0010
0000
1000
,
0000
0100
0000
1000
,
0000
0010
0000
0001
,
0000
1000
0000
0001
,
0000
0100
0000
0010
,
0000
1000
0000
0001
,
0000
1000
0000
0001
,
0002
0000
0000
0000
,
0003
0000
0000
0000
,
2000
0000
0000
0000
,
3000
0000
0000
0000
,
0000
0010
0000
0010
,
0000
0100
0000
0100
,
0000
0001
0000
0001
,
0002
0000
0003
0000
,
1000
0000
1000
0000
,
0001
0000
0001
0000
,
0100
0000
0100
0000
,
0010
0000
0010
0000
,
1000
0000
0010
0000
,
0001
0000
0100
0000
,
0001
0000
0010
0000
,
1000
0000
0100
0000
,
0001
0000
0001
0000
,
1000
0000
1000
0000
,
0010
0000
0001
0000
,
0100
0000
1000
0000
,
0010
0000
0010
0000
,
0100
0000
0100
0000
,
0001
0000
0010
0000
,
0100
0000
1000
1000
;

//---------------dance-double - ----------------
#NOTES:
     dance-double:
     :
     Easy:
     5:
     0.221578,0.245498,0.040287,0.120861,0.000000,154.000000,150.000000,4.000000,12.000000,0.000000,0.000000,0.221578,0.245498,0.040287,0.120861,0.000000,154.000000,150.000000,4.000000,12.000000,0.000000,0.000000:
00000000
00000000
00000000
00000000
,
00000000
00000000
00000000
00000000
,
00000000
00000000
00000000
00000000
,
00000000
00000000
00000000
00000000
,
00000000
00000000
00000000
00000000
,
00100000
00100000
00100000
00100000
,
00001000
00001000
00001000
00001000
,
00010000
00010000
00010000
00010000
,
00022000
00000000
00000000
00033000
,
00010000
00010000
00010000
00001000
,
01000000
01000000
01000000
00010000
,
10000000
10000000
00100000
00100000
,
01000000
01000000
00010000
00100000
,
00001000
00001000
00001000
00010000
,
00000100
00000100
00000100
00001000
,
00000010
00000010
00000100
00000100
,
00000001
00000010
00000100
00001001
,
00000020
00000030
00001000
00000100
,
00000020
00000030
00000001
00000100
,
00020000
00030000
00001000
01000000
,
00020000
00030000
10000000
01000000
,
00100000
00100000
01000000
10010000
,
00100000
00100000
01000000
00001000
,
00010000
00010000
00000100
00001000
,
00000010
00000010
00000100
00001001
,
00000020
00000000
00000000
00000030
,
00002000
00000000
00000000
00003000
,
00020000
00000000
00000000
00030000
,
02000000
00000000
00000000
03000000
,
10000000
00100000
00000000
00100000
,
00000000
01000000
00000000
01000000
,
00000000
00001000
00000000
00010000
,
00002000
00003000
00020000
00030000
,
00000100
00000100
00000001
00000001
,
00000010
00000010
00001000
00001000
,
00000100
00000100
00010000
00010000
,
00001000
00001000
01000000
01000000
,
00100000
00100000
10000000
10000000
,
01000000
01000000
00010000
00010000
,
00100000
00100000
00001000
00001000
,
00010000
00010000
00000010
00000010
,
00001000
00000100
00001000
00000100
,
00010000
00001000
00010000
00001000
,
01000000
00010000
01000000
00010000
,
10000000
00100000
10000000
01000000
,
00010000
00100000
00001000
00010000
,
00000010
00001000
00000001
00000100
,
00000010
00001000
00000100
00010000
,
00001000
00010000
00100000
01000000
;

//---------------dance-single - ----------------
#NOTES:
     dance-single:
     :
     Easy:
     5:
     0.224455,0.294598,0.060430,0.120861,0.000000,156.000000,150.000000,6.000000,12.000000,0.000000,0.000000,0.224455,0.294598,0.060430,0.120861,0.000000,156.000000,150.000000,6.000000,12.000000,0.000000,0.000000:
0000
0000
0000
0000
,
0000
0000
0000
0000
,
0000
0000
0000
0000
,
0000
0000
0000
0000
,
0000
0000
0000
0000
,
0010
0010
0010
0010
,
1000
1000
1000
1000
,
0001
0001
0001
0001
,
2002
0000
0000
3003
,
0001
0001
0001
1000
,
0010
0010
0010
0001
,
1000
1000
0010
0010
,
0100
0100
0001
0010
,
1000
1000
1000
0001
,
0100
0100
0100
1000
,
0001
0001
1000
1000
,
0001
0010
0100
1001
,
0020
0030
1000
0100
,
0020
0030
0001
0100
,
0002
0003
1000
0100
,
2000
3000
0001
0100
,
0010
0010
0100
1001
,
0010
0010
0100
1001
,
0100
0100
0010
1001
,
0010
0010
0100
1001
,
0020
0000
0000
0030
,
2000
0000
0000
3000
,
0200
0000
0000
0300
,
0002
0000
0000
0003
,
1000
0010
0000
0010
,
0000
0100
0000
0100
,
0000
0001
0000
1000
,
0002
0003
2000
3000
,
0100
0100
0001
0001
,
0010
0010
1000
1000
,
0100
0100
0001
0001
,
1000
1000
0100
0100
,
0010
0010
1000
1000
,
0100
0100
0001
0001
,
0010
0010
1000
1000
,
0001
0001
0010
0010
,
1000
0100
1000
0100
,
0001
1000
0001
1000
,
0100
0001
0100
0001
,
1000
0010
1000
0100
,
0001
0010
1000
0001
,
0010
1000
0001
0100
,
0010
1000
0100
0001
,
1000
0001
0010
0100
;

//---------------dance-single - ----------------
#NOTES:
     dance-single:
     :
     Challenge:
     14:
     0.618691,0.713770,0.050359,0.050359,0.765450,430.000000,425.000000,5.000000,5.000000,0.000000,0.000000,0.618691,0.713770,0.050359,0.050359,0.765450,430.000000,425.000000,5.000000,5.000000,0.000000,0.000000:
0000
0000
0000
0000
,
0000
0000
0000
0000
,
0000
0000
0000
0000
,
1001
0001
0001
0001
,
1001
0000
0000
0000
1000
0000
0000
0000
1000
0000
0000
0000
1000
0000
0100
0010
,
0001
0000
0001
0000
0001
0000
0001
0000
0001
0000
0001
0000
0001
0000
0010
0100
,
1000
0000
1000
0000
1000
0000
1000
0000
1000
0000
1000
0000
1000
0000
0100
0010
,
0001
0000
0001
1000
0001
0000
1000
0001
1000
0000
0001
1000
0001
0000
0010
0100
,
1000
0001
1000
0001
1000
0001
1000
0001
1000
0001
1000
0001
1000
0000
0000
0000
,
0110
0000
0000
0001
1000
0000
0100
0000
1000
0000
0000
0001
1000
0000
0100
0000
,
1000
0000
0000
0010
0100
0000
0010
0000
1000
0000
0000
0010
0100
0000
0010
0000
,
1000
0000
0000
0001
0010
0000
0100
0000
1000
0000
0000
0001
0010
0000
0100
0000
,
1000
0000
0000
0010
0100
0000
0001
0000
1000
0010
0100
0001
1000
0000
0010
0000
,
0100
0010
0100
0001
1000
0000
0010
0000
0100
0000
0000
0010
1000
0000
0010
0000
,
0100
0000
0000
0001
0100
0000
0010
0000
0100
0000
0000
0001
0100
0000
0010
0000
,
1000
0000
0000
0001
0010
0000
0100
0000
1000
0000
0000
0100
0010
0000
0001
0000
,
1000
0100
0010
0100
1000
0000
0001
0010
0100
0010
0001
0000
1001
0000
0000
0000
,
0010
0000
1000
0100
1000
0100
0010
0000
0001
0000
1000
0100
1000
0100
0010
0000
,
0001
0000
0010
0100
0010
0100
1000
0000
0001
0000
0010
0100
0010
0100
0010
0000
,
1000
0000
0100
0010
0001
0010
0100
0000
1000
0000
0100
0010
0001
0010
0100
0000
,
1000
0000
0010
0100
0001
0100
0010
0000
1000
0000
0010
0100
0002
0000
0000
0000
,
1003
0000
0100
0010
0000
0001
0010
0000
0001
0000
0100
0010
0000
1000
0100
0000
,
1000
0000
0010
0100
0000
0001
0100
0000
0010
0000
0100
0001
0000
0100
0010
0000
,
1000
0100
1000
0000
0100
0010
0100
0000
0010
0001
0010
0000
0001
0100
0001
0000
,
0010
1000
0010
1000
0001
0100
0001
0100
0010
1000
0100
0010
0001
0010
0100
1000
,
0002
0000
0000
0000
,
2003
0000
0000
0000
,
3020
0000
0000
0000
,
0230
0000
0000
0000
0000
0000
0000
0000
0301
0010
0001
0010
0000
0100
1000
0000
,
0010
0000
0000
1000
0100
0000
0010
0000
0001
0000
0000
1000
0100
0000
0010
0000
,
0001
0000
0000
0010
0100
0000
1000
0000
0001
0000
0000
0010
0100
0000
1000
0000
,
0001
0000
0000
1000
0100
0000
0010
0000
0001
0000
0000
1000
0100
0000
0010
0000
,
0001
0000
1000
0001
0000
1000
0001
0000
0100
0000
0010
1000
0000
0010
1000
0000
,
0001
0000
0000
0001
1000
0010
1000
0000
0001
0000
0000
0001
1000
0010
1000
0000
,
0001
0000
0000
1000
0100
1000
0001
0000
0001
0000
0000
1000
0100
1000
0001
0000
,
1000
0000
0000
0010
0100
0010
1000
0000
1000
0000
0000
0010
0100
0010
1000
0000
,
0001
0000
0000
1000
0100
1000
0010
0000
0001
0000
0000
1000
0100
1000
0010
1000
,
0100
0000
0000
1000
0000
0100
0010
0000
0001
0000
0000
1000
0000
0100
0010
0000
,
0001
0000
0000
1000
0000
0010
0100
0000
0001
0000
0000
1000
0000
0010
0100
0000
,
0001
0000
1000
0010
1000
0010
1000
0000
0001
0000
1000
0100
1000
0100
1000
0000
,
0001
0000
0100
0001
0000
0100
0001
0000
1000
0000
0010
1000
0000
0010
1000
0000
,
0001
0000
0100
0100
0000
0010
1000
0000
0001
0000
0100
0100
0000
0010
1000
0000
,
0001
0000
1000
1000
0000
0100
0010
0000
0001
0000
1000
1000
0000
0100
0010
0000
,
0001
0000
1000
1000
0000
0010
0100
0000
0001
0000
1000
1000
0000
0010
0100
0000
,
0001
0001
0100
0100
0000
0010
1000
0000
0001
0001
0100
0100
0000
0010
1000
0000
,
0001
0010
0100
1000
0000
0100
0010
0000
0001
0010
0100
1000
0000
0100
0010
0000
,
0001
1000
0100
0010
0000
0100
1000
0000
0001
1000
0100
0010
0000
0100
1000
0000
,
0001
0100
0010
1000
0000
0001
1000
0000
0001
1000
0100
0010
0000
0001
1000
0000
,
0010
0000
0000
0010
0000
0000
0100
0000
0001
0000
0000
1000
0000
0000
0110
0000
;

//---------------dance-double - ----------------
#NOTES:
     dance-double:
     :
     Challenge:
     14:
     0.548189,0.713770,0.080574,0.191363,0.669769,381.000000,373.000000,8.000000,19.000000,0.000000,0.000000,0.548189,0.713770,0.080574,0.191363,0.669769,381.000000,373.000000,8.000000,19.000000,0.000000,0.000000:
// measure 0
00000000
00000000
00000000
00000000
,  // measure 1
00000000
00000000
00000000
00000000
,  // measure 2
00000000
00000000
00000000
00000000
,  // measure 3
10010000
10000000
01000000
00010000
,  // measure 4
00001000
00000000
00000100
00000000
00000001
00000100
00001000
00010000
,  // measure 5
01000000
01000000
01000000
01000000
01000000
01000000
00001000
00010000
,  // measure 6
00000100
00000100
00000100
00000100
00000100
00000100
00010000
00001000
,  // measure 7
01000000
00100000
01000000
00100000
01000000
00100000
01000000
00100000
01000000
00100000
01000000
00100000
01000000
00000000
00001000
00000000
,  // measure 8
00010000
00001000
00010000
00001000
00010000
00001000
00010000
00001000
00010000
00001000
00010000
00001000
00020000
00000000
00000000
00000000
,  // measure 9
00030010
00000000
00000000
00000010
00001000
00000000
00000100
00000000
00000010
00000000
00000000
00000010
00000001
00000000
00000100
00000000
,  // measure 10
00000010
00000000
00000000
00000010
00001000
00000000
00000100
00000000
00010000
00000000
00000000
00010000
00001000
00000000
01000000
00000000
,  // measure 11
00100000
00000000
00000000
00100000
10000000
00000000
01000000
00000000
00100000
00000000
00000000
00100000
00010000
00000000
01000000
00000000
,  // measure 12
00100000
00000000
00000000
00100000
10000000
00000000
01000000
00000000
00100000
00000000
00000000
00100000
00001000
00000000
00010000
00000000
,  // measure 13
00000100
00001000
00000100
00001000
00000010
00000000
00000100
00000000
00000001
00000000
00000000
00000001
00000100
00000000
00000010
00000000
,  // measure 14
00001000
00000000
00000000
00001000
00000100
00000000
00000010
00000000
00000001
00000000
00000000
00000001
00000010
00000000
00000100
00000000
,  // measure 15
00001000
00000000
00000000
00001000
00000100
00000000
00010000
00000000
00001000
00000000
00000000
00001000
01000000
00000000
00100000
00000000
,  // measure 16
10000000
01000000
00100000
01000000
10000000
00000000
00010000
00100000
01000000
00100000
00010000
00000000
10010000
00000000
00000000
00000000
,  // measure 17
10000000
00000000
00010000
01000000
00000000
00010000
10000000
00000000
00010000
00000000
00100000
00010000
00000000
00100000
00001000
00000000
,  // measure 18
00010000
00000000
00000100
00001000
00000000
00000100
00010000
00000000
00000100
00000000
00001000
00000100
00000000
00000010
00000001
00000000
,  // measure 19
00000100
00000000
00000001
00000010
00000000
00000100
00001000
00000000
00000100
00000000
00000010
00000001
00000000
00000001
00000010
00000000
,  // measure 20
00000100
00000000
00001000
00000100
00000000
00000100
00001000
00000000
00000010
00000000
00000100
00000001
00000000
00000001
00000100
00000000
,  // measure 21
00000010
00000000
00001000
00000100
00000000
00001000
00000100
00000000
00010000
00000000
00001000
01000000
00000000
00001000
01000000
00000000
,  // measure 22
00010000
00000000
10000000
01000000
00000000
10000000
01000000
00000000
00100000
00000000
00001000
00010000
00000000
00001000
00010000
00000000
,  // measure 23
00000100
00000000
00001000
00000100
00000000
00000010
00000001
00000000
00000100
00000000
00000001
00000010
00000000
00000100
00001000
00000000
,  // measure 24
00000100
00000000
00000001
00000000
00000100
00000000
00010000
00000000
00001000
00000000
01000000
00000000
00010000
01000000
10000000
01000000
,  // measure 25
00020000
00000000
00000000
00000000
,  // measure 26
20030000
00000000
00000000
00000000
,  // measure 27
30020000
00000000
00000000
00000000
,  // measure 28
00032000
00000000
00000000
00000000
00000000
00000000
00000000
00000000
00003100
00000010
00000100
00000010
00000000
00000100
00000010
00000000
,  // measure 29
00001000
00001001
00001000
00011000
,  // measure 30
00010000
10010000
00010000
00011000
,  // measure 31
00001000
00001001
00001000
00011000
,  // measure 32
00100000
00000000
00010000
01000000
00000000
00100000
10000000
00000000
00100000
00000000
10000000
01000000
00000000
00100000
00010000
00000000
,  // measure 33
20000000
00000000
00000000
30100000
00000000
10000000
00100000
00000000
20000000
00000000
00000000
30010000
00000000
10000000
00010000
00000000
,  // measure 34
02000000
00000000
00000000
03001000
00000000
00010000
00001000
00000000
00020000
00000000
00000000
00030100
00000000
00001000
00000100
00000000
,  // measure 35
00002000
00000000
00000000
00003001
00000000
00001000
00000010
00000000
00002000
00000000
00000000
00003001
00000000
00001000
00000100
00000000
,  // measure 36
00020000
00000000
00000000
00031000
00000000
00010000
00000100
00000000
00020000
00000000
00000000
00031000
00000000
00010000
00001000
00100000
,  // measure 37
00002000
00000000
00000000
00103000
00000000
00001000
00100000
00000000
00020000
00000000
00000000
01030000
00000000
00010000
10000000
00000000
,  // measure 38
00020000
00000000
00000000
01030000
00000000
00010000
00100000
00000000
00002000
00000000
00000000
00013000
00000000
00001000
00010000
00000000
,  // measure 39
00000200
00000000
00000000
00010300
00000000
00000100
00001000
00000000
00000200
00000000
00000000
00001300
00000000
00000000
00000010
00000000
,  // measure 40
00000001
00000000
00000000
00000100
00000000
00000000
00001000
00000000
00010000
00000000
00000000
01000000
00000000
00000000
10000000
00000000
,  // measure 41
00100000
10000000
00100000
10000000
00000000
00010000
01000000
00000000
00100000
10000000
00100000
10000000
00000000
00010000
01000000
00000000
,  // measure 42
00001000
00100000
00001000
00100000
00000000
00001000
00010000
00000000
00001000
00100000
00001000
00100000
00000000
00001000
00010000
00000000
,  // measure 43
00000100
00001000
00000100
00001000
00000000
00000001
00001000
00000000
00000100
00001000
00000100
00001000
00000000
00000001
00001000
00000000
,  // measure 44
00000010
00010000
00000010
00010000
00000000
00001000
00010000
00000000
00000010
00000000
00000000
00010000
00000000
00000000
00001000
00000000
,  // measure 45
01000000
01000000
00010000
00010000
00000000
10000000
01000000
00000000
00100000
00100000
00010000
00010000
00000000
10000000
01000000
00000000
,  // measure 46
00100000
00000000
00000000
00001000
00000000
00000000
00010000
00000000
00000100
00000000
00000000
00001000
00000000
00000000
00000100
00000000
,  // measure 47
00000010
00000001
00000010
00000001
00000000
00000000
00000100
00000000
00001000
00000000
00000000
00010000
00000000
00000000
01000000
00000000
,  // measure 48
10000000
00000000
00000000
00100000
00000000
00000000
00010000
00000000
00001000
00000000
00000000
00000100
00000000
00000000
00000001
00000000
;
