#TITLE:I'm Giving It All (2015 Dance Mix);
#SUBTITLE:;
#ARTIST:GRJ Project;
#TITLETRANSLIT:;
#SUBTITLETRANSLIT:;
#ARTISTTRANSLIT:;
#GENRE:;
#CREDIT:;
#BANNER:I'm Giving It All (2015 Dance Mix).png;
#BACKGROUND:I'm Giving It All (2015 Dance Mix)-bg.png;
#LYRICSPATH:;
#CDTITLE:;
#MUSIC:I'm Giving It All (2015 Dance Mix).ogg;
#OFFSET:1.778999;
#SAMPLESTART:70.759041;
#SAMPLELENGTH:14.222221;
#LASTBEATHINT:1.755345;
#SELECTABLE:YES;
#DISPLAYBPM:135.000000;
#BPMS:0.000000=135.199997
,20.000000=134.929993
,48.000000=136.000000
,52.000000=135.000000
,66.000000=140.000000
,67.500000=135.199997
,74.000000=134.990005
,130.000000=135.199997
,143.000000=135.000000
,259.000000=133.000000
;
#STOPS:
;
#BGCHANGES:;
#KEYSOUNDS:;
#ATTACKS:;

//---------------dance-single - ----------------
#NOTES:
     dance-single:
     :
     Hard:
     12:
     0.536359,0.613543,0.208122,0.133198,0.216447,451.000000,426.000000,25.000000,16.000000,0.000000,0.000000,0.536359,0.613543,0.208122,0.133198,0.216447,451.000000,426.000000,25.000000,16.000000,0.000000,0.000000:
0000
0000
0000
0000
,
0000
0000
0000
0000
,
0000
0000
0000
0000
,
0000
0000
0000
0000
,
0000
0000
0000
0000
,
0020
0000
0032
0000
,
2000
0000
3003
0000
,
0020
0000
2030
0000
,
0002
0000
0000
0000
3003
0000
0000
1000
,
0100
0010
0100
0010
1000
0100
0010
0001
,
1000
1000
0001
0010
0100
1000
0100
0010
,
0001
1000
0100
1000
0001
0000
1000
0100
,
0020
0000
0031
0100
0101
0000
1100
0000
,
0010
0010
1000
0100
0010
0001
0010
0100
,
1000
1000
0001
0010
0100
1000
0100
0010
,
0001
0001
1000
0100
1000
0001
0001
0000
,
0110
1001
0220
0330
,
1000
0100
0010
0001
1000
0001
1000
0001
,
0010
0000
0100
0000
1000
0000
0100
0000
0010
0000
0000
0010
0100
0000
0001
0000
,
1000
0010
0100
0001
0100
0001
1000
0010
,
0100
0010
0200
0000
0301
0010
0100
1000
,
0001
0010
0001
0010
0001
1000
0100
1000
,
0010
0000
0100
0000
0010
0000
0100
0000
0010
0000
0000
0010
1000
0000
0010
0000
,
0100
0010
0100
0010
1000
0100
0010
0001
,
1000
0001
0110
1001
,
0010
0000
0000
1000
0010
0000
1000
0000
0001
0100
0000
0100
0001
0000
0100
0000
,
0010
0000
0000
0100
0010
0000
0100
0000
0001
1000
0000
1000
0001
0000
1000
0000
,
0100
0000
0000
0010
0100
0000
0010
0000
0100
0000
0000
0001
0100
0000
0001
0000
,
1000
0000
0000
0100
1000
0000
0010
0000
0100
0000
0001
0000
1001
0000
0001
0000
,
1000
0000
0000
0100
1000
0000
0100
0000
0010
0001
0000
0001
0010
0000
0001
0000
,
0100
0000
0000
0010
0100
0000
0010
0000
1000
0010
0000
0010
1000
0000
0001
0000
,
1000
0000
0000
1000
0100
0000
0010
0000
0001
0000
0000
0001
0010
0000
0100
0000
,
1000
0000
0001
0000
1000
0010
1000
0000
0001
0100
0001
0100
0001
0000
1000
0000
,
1001
1001
0000
0000
0010
0000
0010
1000
,
0010
0100
0010
1000
0001
0000
1001
1000
,
0100
0010
0001
1000
0001
0000
0010
0100
,
0020
0000
1030
0010
0100
0000
1000
0010
,
0110
0110
0000
0000
0010
0000
0100
0001
,
1000
0001
0100
0010
1000
0000
1000
0100
,
0010
0001
0010
0001
1000
0000
0110
0000
,
1001
0000
1010
0000
0101
0000
0010
1000
,
0001
0000
0000
0001
1000
0000
0010
0000
0100
0000
0001
0000
1000
0000
0100
0000
,
0010
0000
0000
0010
0001
0000
0100
0000
1000
0000
0100
0000
0001
0000
1000
0000
,
0100
0000
0000
0100
1000
0000
0010
0000
1000
0000
0100
0000
0010
0000
0001
0000
,
0100
0000
0000
0100
0010
0000
1000
0000
0001
0000
0010
0000
0100
0000
1000
0000
,
0001
0000
0000
0001
0010
0000
0001
0000
1000
0000
0010
0000
0001
0000
0010
0000
,
1000
0000
0000
1000
0010
0000
1000
0000
0100
0000
0010
0000
0001
0000
0100
0000
,
0010
0100
0001
0010
0100
1000
0001
0000
,
0011
1100
0110
1001
,
1000
0000
0010
1000
0010
0000
1000
0000
0100
0000
0010
0000
0001
0000
0100
0000
,
0010
0000
0100
0010
0100
0000
0001
0000
1000
0000
0001
0000
1000
0000
0000
0000
,
0001
0000
0010
0001
0010
0000
0001
0000
0100
0000
0010
0000
0010
0000
0100
0000
,
0001
0000
1000
0001
1000
0000
0010
0000
1000
0000
0100
0000
0010
0000
0000
0000
,
0001
0000
0100
0010
0100
0000
0001
0000
1000
0000
0010
0000
1000
0000
0100
0000
,
1000
0000
0001
1000
0001
0000
0100
0000
0010
0000
1000
0000
0100
0000
0000
0000
,
0010
0000
0001
0000
0100
0001
0100
0000
0010
0000
0010
0000
0010
0000
1000
0000
,
2002
0000
3003
0000
1000
0001
1001
0000
,
1000
0010
0000
0010
1000
0000
0001
0000
0100
0000
0000
0100
0010
0000
1000
0000
,
0001
0100
0000
0100
0001
0000
0100
0000
0010
0000
0000
0010
1000
0000
0000
0000
,
1000
0100
0000
0100
0010
0000
0100
0000
0001
0000
0000
0001
0100
0000
0000
0000
,
0001
0010
0000
0010
0100
0000
0010
0000
1000
0000
0000
0000
1001
0000
0000
0000
,
1000
0100
0000
0100
0010
0000
0100
0000
1000
0000
0001
0000
0010
0000
0100
0000
,
1000
0010
0000
0010
1000
0000
0001
0000
0100
0000
0001
0000
0100
0000
0010
0000
,
1000
0010
0000
0010
0100
0000
0001
0000
1000
0000
0010
0000
0100
0000
0001
0000
,
2000
0001
0001
3001
,
2002
0000
0000
0000
,
0000
0000
0000
0000
,
3003
0000
0000
0000
;

//---------------dance-single - ----------------
#NOTES:
     dance-single:
     :
     Medium:
     8:
     0.380565,0.446213,0.283046,0.166497,0.016650,320.000000,286.000000,34.000000,20.000000,0.000000,0.000000,0.380565,0.446213,0.283046,0.166497,0.016650,320.000000,286.000000,34.000000,20.000000,0.000000,0.000000:
0000
0000
0000
0000
,
0000
0000
0000
0000
,
0000
0000
0000
0000
,
0000
0000
0000
0000
,
0000
0000
0000
0000
,
0200
0000
0320
0000
,
0230
0000
0300
0000
,
0002
0000
2003
0000
,
3002
0000
0000
0000
0003
0000
0000
1000
,
0001
1000
0000
0000
0000
0000
0000
0010
,
0100
0010
0100
0010
0000
0000
0000
1000
,
0001
1000
0001
1000
0000
0000
0010
0000
,
2000
0000
0000
0001
0002
0000
3003
0000
,
0010
0100
0000
0000
0000
0000
0000
0001
,
0010
0001
0010
0001
0000
0000
0000
1000
,
0100
1000
0100
1000
0000
0000
0010
0000
,
1100
0110
0011
0000
,
0010
1000
0010
1000
0010
0000
0100
0000
,
0001
0000
0010
0000
0001
0000
1000
0001
,
1000
0001
1000
0001
1000
0000
0010
0000
,
0100
0000
0001
1000
0001
1000
0001
0000
,
1000
0100
1000
0100
1000
0000
0010
0000
,
0100
0000
0001
0000
1000
0000
0010
0100
,
0010
0100
0010
0100
0010
0000
1000
0000
,
0002
0000
0000
1000
1003
0000
1001
0000
,
0010
0000
0000
0010
1000
0000
0000
0000
0001
0000
0000
0000
0101
0000
0000
0000
,
1000
0000
0000
1000
0010
0000
0000
0000
0100
0000
0000
0000
0101
0000
0000
0000
,
0010
0000
0000
0010
0100
0000
0000
0000
1000
0000
0000
0000
1001
0000
0000
0000
,
0100
0000
0000
0100
0010
0000
0000
0000
1000
0000
0000
0000
1001
0000
0000
0000
,
0001
0100
0001
0100
0010
0000
1000
0000
,
0100
0010
0100
0000
0001
0000
1000
0001
,
1000
0001
1000
0000
0010
0000
0100
0000
,
0002
0000
0000
1000
1003
0000
1001
0000
,
0010
0100
0000
0000
0010
0000
0010
0000
,
1000
0001
1000
0001
0000
0000
0100
0000
,
0010
0100
0010
0100
0000
0000
1001
0000
,
2000
0000
0000
0001
3001
0000
1001
0000
,
0001
0010
0001
0000
0001
0000
0001
0000
,
1000
0100
1000
0100
1000
0000
1000
0000
,
0010
0100
0010
0100
0010
0000
0010
0000
,
1010
0101
1001
0000
,
1000
0001
1000
0000
0010
0000
0100
0010
,
0100
0010
0100
0010
0100
0000
0001
0000
,
1000
0100
1000
0100
1000
0000
0010
0000
,
0002
0000
0000
0100
0103
0000
1001
0000
,
1000
0010
1000
0010
1000
0000
0001
0000
,
0010
0001
0010
0001
0010
0000
0001
0000
,
0100
0010
0100
0010
0100
0000
0010
0000
,
1001
0110
2002
3003
,
1000
0100
1000
0000
0101
0000
1001
0000
,
0001
0010
0001
0000
1100
0000
0101
0000
,
1000
0010
1000
0000
0101
0000
0110
0000
,
0010
1000
0100
0000
1100
0000
0011
0000
,
0100
0010
0100
0001
0100
0000
1001
0000
,
0100
0010
1000
0010
0100
0000
1001
0000
,
1000
0100
0010
0100
1000
0000
0001
0000
,
2002
0000
3003
1001
,
1000
0100
1000
0100
1000
0000
0010
0000
,
0100
0001
0100
0000
0010
0100
0010
0000
,
1000
0000
1000
0010
1000
0000
0001
0000
,
0100
0000
0000
0010
0100
0000
1001
0000
,
0001
0010
0001
0010
0001
0000
0100
0000
,
1000
0010
1000
0000
0010
1000
0010
0000
,
0100
0000
1000
0001
0010
0000
0100
0000
,
2002
0000
3003
0110
,
2002
0000
0000
0000
,
0000
0000
0000
0000
,
3003
0000
0000
0000
;

//---------------dance-single - ----------------
#NOTES:
     dance-single:
     :
     Easy:
     5:
     0.250935,0.334660,0.133198,0.166497,0.000000,211.000000,195.000000,16.000000,20.000000,0.000000,0.000000,0.250935,0.334660,0.133198,0.166497,0.000000,211.000000,195.000000,16.000000,20.000000,0.000000,0.000000:
// measure 0
0000
0000
0000
0000
,  // measure 1
0000
0000
0000
0000
,  // measure 2
0000
0000
0000
0000
,  // measure 3
0000
0000
0000
0000
,  // measure 4
0000
0000
0000
0000
,  // measure 5
1000
0000
0001
0000
,  // measure 6
0200
0000
0300
0000
,  // measure 7
0001
0000
1000
0000
,  // measure 8
0200
0000
0300
0000
,  // measure 9
2000
0000
3001
0000
,  // measure 10
0001
1000
0001
0000
,  // measure 11
1000
0001
1000
0000
,  // measure 12
0020
0000
0130
0000
,  // measure 13
0002
0000
1003
0000
,  // measure 14
1000
0001
1000
0000
,  // measure 15
0010
0100
0010
0000
,  // measure 16
1000
1000
1000
0000
,  // measure 17
0001
0010
0001
0010
,  // measure 18
0001
0100
1000
0100
,  // measure 19
0001
1000
0001
1000
,  // measure 20
0010
1000
0100
0001
,  // measure 21
1000
0100
1000
0100
,  // measure 22
0010
0001
0100
1000
,  // measure 23
0010
0100
0010
0100
,  // measure 24
2000
0000
0002
3003
,  // measure 25
0010
0100
0010
0100
,  // measure 26
0001
0010
0100
1000
,  // measure 27
0100
0010
0100
0010
,  // measure 28
1000
0100
0010
0001
,  // measure 29
1000
0100
0010
0001
,  // measure 30
0100
1000
0100
0001
,  // measure 31
0010
1000
0010
0001
,  // measure 32
0200
0000
0310
0110
,  // measure 33
1001
0000
0000
0000
,  // measure 34
0002
0003
2000
3000
,  // measure 35
0001
1000
0001
0000
,  // measure 36
2000
0000
0002
3003
,  // measure 37
0010
0000
0000
0000
,  // measure 38
2000
3000
0002
0003
,  // measure 39
1000
0001
1000
0000
,  // measure 40
0010
0010
0110
0000
,  // measure 41
1000
1000
1000
0100
,  // measure 42
0001
0001
0001
0100
,  // measure 43
1000
1000
1000
0010
,  // measure 44
0001
0001
0001
0010
,  // measure 45
1000
1000
0100
0001
,  // measure 46
1000
1000
0010
0001
,  // measure 47
0100
0100
0100
0010
,  // measure 48
1001
1001
1001
0000
,  // measure 49
0001
1000
0001
1000
,  // measure 50
0100
0010
0001
0100
,  // measure 51
0010
0100
0010
1000
,  // measure 52
0100
0010
0001
0100
,  // measure 53
1000
0100
1000
0100
,  // measure 54
0010
0001
0010
0001
,  // measure 55
0100
1000
0100
1000
,  // measure 56
2002
0000
3003
0010
,  // measure 57
0000
1001
1000
0100
,  // measure 58
0010
0001
0110
1001
,  // measure 59
0001
0010
0100
1000
,  // measure 60
0010
0100
1001
0110
,  // measure 61
1000
0010
0001
0100
,  // measure 62
1000
0010
0110
1001
,  // measure 63
1000
0100
0010
0001
,  // measure 64
2002
0000
0000
3003
,  // measure 65
2002
0000
0000
0000
,  // measure 66
0000
0000
0000
0000
,  // measure 67
3003
0000
0000
0000
;

//---------------dance-single - ----------------
#NOTES:
     dance-single:
     :
     Beginner:
     3:
     0.134387,0.195218,0.008325,0.041624,0.000000,113.000000,112.000000,1.000000,5.000000,0.000000,0.000000,0.134387,0.195218,0.008325,0.041624,0.000000,113.000000,112.000000,1.000000,5.000000,0.000000,0.000000:
// measure 0
0000
0000
0000
0000
,  // measure 1
0000
0000
0000
0000
,  // measure 2
0000
0000
0000
0000
,  // measure 3
0000
0000
0000
0000
,  // measure 4
0000
0000
0000
0000
,  // measure 5
0010
0000
0000
0000
,  // measure 6
0100
0000
0000
0000
,  // measure 7
1000
0000
0000
0000
,  // measure 8
0001
0000
0000
0000
,  // measure 9
1000
0000
0000
0000
,  // measure 10
0001
0000
0000
0000
,  // measure 11
0100
0000
0100
0000
,  // measure 12
0100
0000
0000
0000
,  // measure 13
0001
0000
0000
0000
,  // measure 14
1000
0000
0000
0000
,  // measure 15
0010
0000
0010
0000
,  // measure 16
0010
0010
0010
0000
,  // measure 17
1000
0000
1000
0000
,  // measure 18
0001
0000
0001
0000
,  // measure 19
1000
0000
1000
0000
,  // measure 20
0001
0000
0001
0001
,  // measure 21
0001
0000
0100
0000
,  // measure 22
0010
0000
1000
0000
,  // measure 23
0010
0000
0100
0000
,  // measure 24
0001
0000
0000
1000
,  // measure 25
0000
1000
1000
0000
,  // measure 26
0000
0001
0001
0000
,  // measure 27
0000
0100
0100
0000
,  // measure 28
0000
0010
0010
0010
,  // measure 29
0000
1000
1000
0000
,  // measure 30
0000
0001
0001
0000
,  // measure 31
0000
1000
1000
0000
,  // measure 32
0001
0001
0001
0000
,  // measure 33
1000
0000
0000
0000
,  // measure 34
0001
0000
0000
0000
,  // measure 35
0100
0000
0000
0000
,  // measure 36
0010
0000
0000
0000
,  // measure 37
1000
0000
0000
0000
,  // measure 38
0001
0000
0000
0000
,  // measure 39
0100
0000
0100
0000
,  // measure 40
0100
0100
0100
0000
,  // measure 41
0001
0000
0001
0000
,  // measure 42
1000
0000
1000
0000
,  // measure 43
0001
0000
1000
0000
,  // measure 44
0002
0000
0003
0000
,  // measure 45
1000
0000
1000
0000
,  // measure 46
0001
0000
0001
0000
,  // measure 47
1000
1000
1000
0000
,  // measure 48
0001
0001
0001
0000
,  // measure 49
1000
0000
0100
0000
,  // measure 50
0001
0000
0100
0000
,  // measure 51
1000
0000
0010
0000
,  // measure 52
0001
0000
0010
0000
,  // measure 53
1000
0000
0100
0000
,  // measure 54
0010
0000
0001
0000
,  // measure 55
0100
0000
0010
0010
,  // measure 56
0020
0000
0030
0000
,  // measure 57
0010
0000
0010
0000
,  // measure 58
0001
0000
0100
0000
,  // measure 59
0010
0000
0010
0000
,  // measure 60
1000
0000
0100
0000
,  // measure 61
0001
0000
0001
0000
,  // measure 62
1000
0000
0100
0000
,  // measure 63
1000
0000
1000
1000
,  // measure 64
2000
0000
3000
0000
,  // measure 65
2002
0000
0000
0000
,  // measure 66
0000
0000
0000
0000
,  // measure 67
3003
0000
0000
0000
;
