#TITLE:ハイ*ビスカス ft. Kanae Asaba;
#SUBTITLE:;
#ARTIST:Xceon;
#TITLETRANSLIT:Hibiscus ft. Kanae Asaba;
#SUBTITLETRANSLIT:;
#ARTISTTRANSLIT:;
#GENRE:;
#CREDIT:;
#BANNER:Hibiscus ft. Kanae Asaba.png;
#BACKGROUND:Hibiscus ft. Kanae Asaba-bg.png;
#LYRICSPATH:;
#CDTITLE:;
#MUSIC:Hibiscus ft. Kanae Asaba.ogg;
#OFFSET:-0.033000;
#SAMPLESTART:45.119972;
#SAMPLELENGTH:12.000000;
#SELECTABLE:YES;
#BPMS:0.000000=157.000000
;
#STOPS:
;
#BGCHANGES:0.000=Hibiscus ft. Kanae Asaba.avi=1.000=0=0=0=StretchNoLoop====,
99999=-nosongbg-=1.000=0=0=0 // don't automatically add -songbackground-
;
#KEYSOUNDS:;
#ATTACKS:;

//---------------dance-single - ----------------
#NOTES:
     dance-single:
     :
     Hard:
     12:
     0.549685,0.606737,0.031539,0.244429,0.350874,488.000000,484.000000,4.000000,31.000000,0.000000,0.000000,0.549685,0.606737,0.031539,0.244429,0.350874,488.000000,484.000000,4.000000,31.000000,0.000000,0.000000:
0000
0000
0000
0000
,
0000
0000
0000
0000
,
0000
0000
0000
0000
,
0000
0000
0000
0000
,
0000
0000
0000
0000
0000
0000
1000
0001
,
0010
0000
0000
0000
0001
0000
0001
0200
0000
0000
0301
0000
1000
0000
0010
0000
,
1000
0000
0100
0000
1000
0000
0010
0000
0100
0000
0000
0000
0001
0000
1000
0001
,
0000
0000
0000
0000
1000
0000
0001
1000
0000
0000
0000
0000
0010
0000
0010
0000
,
2000
0000
0000
0100
0000
0000
3100
0000
0020
0000
0000
0001
0000
0000
0031
0000
,
0100
0000
0010
0000
1000
0000
0010
1000
0010
0000
1000
0000
0100
0000
1000
0000
,
0001
0000
1000
0000
0010
0000
0100
0010
0100
0000
0001
0000
0001
0000
1000
0000
,
0010
0000
0010
0000
1000
0000
0001
0100
0001
0000
0100
0000
0001
0000
1000
0000
,
0001
0000
0100
0000
0100
0000
0010
0000
1000
0000
1000
0100
0000
0000
0010
0000
,
0001
0000
1000
0000
1000
0000
0010
1000
0010
0000
1000
0000
0001
0000
0100
0000
,
0001
1000
0010
1000
0010
0100
0001
0100
,
0010
0000
0000
0001
0000
0000
0100
0000
0001
0000
0000
0001
0000
0000
1000
0000
,
0010
0000
0000
0010
0000
0000
1000
0000
0001
0000
0000
0001
0000
0001
0100
0000
,
0010
0000
0000
0010
0000
0000
1000
0000
0001
0000
1000
0000
0100
0000
0010
0000
,
0001
0000
0010
0000
0001
0000
0100
0000
0001
0000
0000
0010
0000
0000
0001
0000
,
0200
0000
0000
0000
0300
0000
0010
1000
0020
0000
0000
0000
0100
0000
0000
0000
,
0230
0001
0001
1300
,
0010
0000
0000
1000
0000
0000
0010
0000
0200
0000
0000
0000
0001
0000
0000
0000
,
0301
0000
0000
0000
1000
0000
0001
0000
0100
0000
0000
0001
0000
0000
1000
0000
,
2000
0000
0000
0000
3000
0000
0001
0100
0002
0000
0000
0000
0000
0000
0000
0000
,
0023
0032
0203
0310
,
1000
0000
0000
1000
0000
0000
0100
0000
0010
0000
0000
0010
0000
0000
0001
0000
,
0100
0000
0000
0100
0000
0000
0010
0000
1000
0000
0000
1000
0000
0000
0010
0000
,
1000
0000
0000
1000
0000
0000
0001
0000
0100
0000
0000
0100
0000
0000
0001
0000
,
1000
0010
1000
0010
0100
0001
1000
0010
,
0200
0000
0000
0000
0020
0330
0001
1000
,
0100
0000
0000
0000
1000
0000
1000
0010
0000
0000
0100
0000
0001
0000
1000
0000
,
0001
0000
0000
0001
0000
0000
0100
0000
0010
0000
0000
0010
0000
0000
1000
0000
,
0001
0000
0000
0000
1000
0000
1000
0010
0000
0000
0100
0000
0001
0000
1000
0000
,
0001
0000
0000
0100
0000
0000
0100
0000
0001
0000
0000
1000
0000
0000
0010
0000
,
1000
0000
0000
0000
1000
0000
1000
0010
0000
0000
1000
0000
0001
0000
1000
0000
,
0100
0000
1000
0000
0010
0000
1000
0000
0001
0000
0000
0000
1000
0000
0010
1000
,
0000
0000
0000
0000
0001
0000
0100
0001
0000
0000
0000
0000
1000
0000
0001
0000
,
2000
0000
0000
0010
0000
0000
0010
0000
3010
0000
0000
0000
0100
0000
0001
0000
,
1000
0000
0000
0000
0010
0000
1000
0010
0000
0000
0100
0000
0001
0000
0100
0000
,
0010
0000
0010
1000
0000
0010
1000
0000
0010
0000
0100
0010
0000
0100
0010
0000
,
1000
0000
0000
0000
0001
0000
0010
0001
0000
0000
1000
0000
0010
0000
1000
0000
,
0001
0000
0000
0001
0000
0000
0100
0000
0010
0000
0100
0010
0000
0100
0010
0000
,
1000
0000
0000
0000
0010
0000
0100
0010
0000
0000
0100
0000
0001
0000
1000
0000
,
0001
0000
0100
0000
0001
0000
0100
0000
0002
0000
0000
0000
1003
0000
1000
0010
,
0000
0000
0000
0000
0010
0000
0010
0100
0000
0000
0000
0000
0100
0000
0001
0000
,
2000
0000
0000
0010
0000
0000
3010
0000
0200
0000
0000
0001
0000
0000
0301
0000
,
1000
0010
0100
0001
,
1000
0100
0001
0010
,
1000
0001
0010
0100
,
1000
0000
0010
0000
0100
0000
0001
1000
,
0010
0000
0010
1000
0001
0000
2000
0000
,
3001
0010
0001
0000
0100
0000
0010
1000
,
0010
0000
0100
0001
0100
0000
0020
0000
,
1030
0001
0100
0010
1000
0000
0001
0100
,
0010
0000
0000
0000
1000
0000
1000
0010
0000
0000
1000
0000
0010
0000
0100
0000
,
0010
0000
1000
0000
0001
0000
0100
0000
0010
0000
0000
0000
0001
0000
0000
0010
,
0000
0000
0000
0000
0010
0000
0000
0100
0000
0000
0000
0000
1000
0000
0001
0000
,
1000
0000
1000
0010
0000
1000
0010
0000
0100
0000
0010
0000
1000
0000
0001
1000
,
0000
0000
0000
0000
0001
0000
1000
0001
0000
0000
0000
0000
0100
0000
0010
0000
,
1000
0000
0100
1000
0000
0100
1000
0000
0001
0000
0100
0001
0000
0100
0001
0000
,
2000
0000
0002
3003
,
2200
3300
0022
0033
,
1001
0000
0101
0000
0010
1000
0001
1000
,
0010
0000
0000
1000
0000
0000
0100
0000
0010
0000
0000
0001
0000
0000
0100
0000
,
0010
0000
0000
0000
0001
0000
1000
0001
0000
0000
1000
0000
0010
0000
0100
0000
,
0010
0000
0010
1000
0000
0000
0001
0000
1000
0000
1000
0001
0000
0000
0100
0000
,
0001
0000
0000
0000
1000
0000
1000
0010
0000
0000
0100
0000
0001
0000
0100
0000
,
0010
0000
0100
0000
0001
0000
1000
0000
0010
0000
0000
0000
1000
0000
0010
1000
,
0000
0000
0000
0000
0001
0000
0100
0001
0000
0000
0000
0000
1000
0000
0001
0000
,
2000
0000
0000
0010
0000
0000
0010
0000
3010
0000
0000
0000
1000
0000
0001
1000
,
0000
0000
0000
0000
0010
0000
1000
0010
0000
0000
1000
0000
0001
0000
1000
0000
,
0010
0000
0100
0010
0000
0010
0100
0000
0001
0000
1000
0001
0000
0001
1000
0000
,
0010
0000
0000
0000
1000
0000
0010
1000
0000
0000
0001
0000
0100
0000
0010
0000
,
1000
0000
0001
0100
0000
0100
0010
0000
0100
0000
0001
1000
0000
1000
0001
0000
,
1000
0000
0000
0000
0001
0000
0100
0010
0000
0000
0010
0000
1000
0000
0100
0000
,
0010
0000
0001
0000
0100
0000
0010
0000
0100
0000
0000
0000
0001
0000
0001
0100
,
0000
0000
0010
0000
1000
0000
1000
0010
0000
0000
0000
0000
0100
0000
0001
0100
,
0002
0000
0000
1000
0000
0000
1003
0000
2000
0000
0000
0000
3001
0000
1000
0010
,
0000
0000
0000
0000
1000
0000
0001
0100
0000
0000
0000
0000
0010
0000
2000
0000
,
0002
0000
0000
0000
,
0000
0000
0000
0000
,
3003
0000
0000
0000
;

//---------------dance-double - ----------------
#NOTES:
     dance-double:
     :
     Hard:
     12:
     0.528283,0.542870,0.007885,0.126157,0.283853,469.000000,468.000000,1.000000,16.000000,0.000000,0.000000,0.528283,0.542870,0.007885,0.126157,0.283853,469.000000,468.000000,1.000000,16.000000,0.000000,0.000000:
00000000
00000000
00000000
00000000
,
00000000
00000000
00000000
00000000
,
00000000
00000000
00000000
00000000
,
00000000
00000000
00000000
00000000
,
00000000
00000000
00000000
00000000
00000000
00000000
00010000
00100000
,
00001000
00000000
00001000
00010000
00000010
00000000
00000010
00001000
,
00000001
00000000
00001000
00000000
00000100
00000000
00010000
00000000
00001000
00000000
00000000
00000000
00001000
00000000
00001000
00010000
,
00000000
00000000
00000000
00000000
00010000
00000000
00010000
00000010
00000000
00000000
00000000
00000000
00001000
00000000
00000010
00000000
,
00001000
00000000
00000000
00000100
00000000
00000000
00000010
00000000
00001000
00000000
00000000
00000001
00000000
00000000
00000100
00000000
,
00000010
00001000
00000100
00010000
00001000
00010000
00000100
00010000
,
00001000
01000000
00010000
01000000
00010000
10000000
00100000
01000000
,
00010000
00100000
00010000
00100000
00001000
00010000
00000100
00010000
,
00000010
00001000
00000100
00001000
00000001
00000010
00000100
00001000
,
00000010
00001000
00000100
00001000
00000100
00010000
00001000
00010000
,
00000100
00010000
00001000
00100000
00001000
01000000
00100000
10000000
,
00010000
00010000
00100000
00000000
00001000
00001000
00010000
00000000
,
00000100
00001000
00000010
00000100
00000002
00000000
00001003
00000000
,
00000010
00000000
00000000
00000010
00000000
00000000
00001000
00000000
00000002
00000000
00000000
00000000
00000103
00000000
00000000
00000000
,
00000010
00000000
00001000
00000100
00010000
00000000
00010000
00001000
,
01000000
00000000
00000000
00000000
00000000
00000000
00010000
01000000
00020000
00000000
00000000
00000000
10030000
00000000
00000000
00000000
,
10000000
00100000
01000000
00000000
01000000
00010000
00100000
00000000
,
00100000
00000000
00000000
00100000
00000000
00000000
00010000
00000000
20000000
00000000
00000000
00000000
30100000
00000000
00000000
00000000
,
01000000
00010000
00100000
00010000
01000000
00000000
00001000
00010000
,
00000200
00000000
00000000
00000000
00000300
00000000
00001000
00000100
00002000
00000000
00000000
00000000
00000000
00000000
00000000
00000000
,
00003010
00000100
00000001
00000000
00000001
00001000
00000100
00000000
,
00000100
00000000
00000000
00001000
00000000
00000000
00000100
00000000
00000100
00000000
00000000
00010000
00000000
00000000
00001000
00000000
,
00001000
00000000
00000000
01000000
00000000
00000000
00100000
00000000
00100000
00000000
10000000
00000000
00010000
00000000
01000000
00000000
,
00100000
00000000
00000000
01000000
00000000
00000000
00010000
00000000
00010000
00000000
00000000
00100000
00000000
00000000
00001000
00000000
,
00002000
00000000
00000000
00000000
00023000
00000000
00000000
00000000
00030200
00000000
00000000
00000000
00001300
00000000
00000010
00001000
,
00000002
00000000
00000000
00000000
00000000
00000000
00001003
00000010
,
00000100
00000000
00000000
00000000
00000001
00000000
00000100
00000001
00000000
00000000
00001000
00000000
00000010
00000000
00001000
00000000
,
00000100
00000000
00000000
00001000
00000000
00000000
00010000
00000000
00001000
00000000
00000000
00100000
00000000
00000000
00010000
00000000
,
00001000
00000000
00000000
00000000
00100000
00000000
00100000
00010000
00000000
00000000
01000000
00000000
00100000
00000000
10000000
00000000
,
00010000
00000000
00000000
01000000
00000000
00000000
10000000
00000000
00100000
00000000
00000000
01000000
00000000
00000000
00100000
00000000
,
10000000
00000000
00000000
00000000
00100000
00000000
10000000
00100000
00000000
00000000
10000000
00000000
00010000
00000000
00100000
00000000
,
00010000
00000000
00000000
00010000
00000000
00000000
00100000
00000000
00001000
00000000
00000000
00000000
00001000
00000000
00010000
00001000
,
00000000
00000000
00000000
00000000
00010000
00000000
00000100
00010000
00000000
00000000
00000000
00000000
00000100
00000000
00001000
00000000
,
00000010
00000000
00000000
00000010
00000000
00000000
00001000
00000000
00000001
00000000
00000000
00000001
00000000
00000000
00001000
00000000
,
00000010
00000000
00000000
00000000
00001000
00000000
00001000
00000100
00000000
00000000
00001000
00000000
00000100
00000000
00010000
00000000
,
00001000
00000000
00000000
00010000
00000000
00000000
00001000
00000000
00100000
00000000
00000000
00010000
00000000
00000000
01000000
00000000
,
00100000
00000000
00000000
00000000
10000000
00000000
00100000
10000000
00000000
00000000
00100000
00000000
01000000
00000000
00010000
00000000
,
00010000
00000000
00000000
00100000
00000000
00000000
00100000
00000000
00001000
00000000
00000000
00001000
00000000
00000000
00010000
00000000
,
00000010
00000000
00000000
00000000
00001000
00000000
00000001
00001000
00000000
00000000
00000010
00000000
00001000
00000000
00000100
00000000
,
00010000
00000000
00001000
00000000
00010000
00000000
00000100
00000000
00010000
00000000
00000000
00000000
00001000
00000000
00001000
00100000
,
00000000
00000000
00000000
00000000
00100000
00000000
00100000
00010000
00000000
00000000
00000000
00000000
00010000
00000000
01000000
00000000
,
00100000
00000000
00000000
00100000
00000000
00000000
10000000
00000000
00010000
00000000
00000000
00010000
00000000
00000000
10000000
00000000
,
00100000
10000000
00100000
00010000
,
00001000
00000010
00000001
00000010
,
00000001
00000100
00001000
00010000
,
00100000
00000000
01000000
00000000
10000000
00000000
00100000
10000000
,
00010000
00000000
00000000
00000000
10000000
00000000
01000000
10000000
00000000
00000000
00100000
00000000
01000000
00000000
00100000
00000000
,
10000000
00000000
00010000
00000000
00100000
00000000
00010000
01000000
,
00010000
00000000
00000000
00000000
00100000
00000000
00100000
00010000
00000000
00000000
00000000
00000000
00100000
00000000
00000000
00000000
,
00001000
00000000
00010000
00000000
00000010
00000000
00001000
00000100
,
00000010
00000000
00000000
00000000
00000001
00000000
00000100
00000001
00000000
00000000
00000100
00000000
00000010
00000000
00001000
00000000
,
00000010
00000000
00001000
00000000
00000100
00000000
00000100
00000000
00010000
00000000
00000000
00000000
00010000
00000000
00010000
00001000
,
00000000
00000000
00000000
00000000
00001000
00000000
00001000
00100000
00000000
00000000
00000000
00000000
00100000
00000000
00010000
00000000
,
01000000
00000000
00000000
01000000
00000000
00000000
00010000
00000000
10000000
00000000
00000000
00000000
00100000
00000000
00100000
01000000
,
00000000
00000000
00000000
00000000
00010000
00000000
00010000
00100000
00000000
00000000
00000000
00000000
00001000
00000000
00001000
00010000
,
00000000
00000000
00000000
00000100
00000000
00000000
00001000
00000000
00000010
00000000
00001000
00000010
00000000
00001000
00000010
00000000
,
00000200
00000000
00000020
00000300
,
00020000
00000030
00002000
00033000
,
00011000
00000000
00000000
00000000
00100000
00000000
00001000
00100000
00000000
00000000
00001000
00000000
00010000
00000000
00000100
00000000
,
00010000
00000000
00000010
00000000
00001000
00000000
00000001
00000000
00000100
00000000
00000000
00000000
00000010
00000000
00001000
00000010
,
00000000
00000000
00000000
00000000
00001000
00000000
00000010
00001000
00000000
00000000
00000001
00000000
00001000
00000000
00000100
00000000
,
00010000
00000000
00001000
00000000
01000000
00000000
00010000
00000000
10000000
00000000
00000000
00000000
00100000
00000000
10000000
00010000
,
00000000
00000000
00000000
00000000
10000000
00000000
00100000
01000000
00000000
00000000
00010000
00000000
00100000
00000000
00001000
00000000
,
00010000
00000000
00000010
00000000
00000100
00000000
00000010
00000000
00001000
00000000
00000000
00000000
00000001
00000000
00000001
00001000
,
00000000
00000000
00000000
00000000
00000100
00000000
00000100
00010000
00000000
00000000
00000000
00000000
00001000
00000000
00100000
00000000
,
00010000
00000000
00010000
10000000
00000000
10000000
00010000
00000000
01000000
00000000
01000000
00000000
00010000
00000000
00100000
00000000
,
00001000
00000000
00000000
00000000
00001000
00000000
00010000
00001000
00000000
00000000
00010000
00000000
00000100
00000000
00001000
00000000
,
00000010
00000000
00000100
00000010
00000000
00000100
00000010
00000000
00001000
00000000
00000010
00000000
00001000
00000000
00000100
00000000
,
00010000
00000000
00000000
00000000
00001000
00000000
00010000
00001000
00000000
00000000
00010000
00000000
00001000
00000000
00100000
00000000
,
00010000
00000000
01000000
00010000
00000000
01000000
00010000
00000000
10000000
00000000
00000000
00000000
00100000
00000000
01000000
00000000
,
00010000
00000000
00000000
00000000
00100000
00000000
00010000
00100000
00000000
00000000
00010000
00000000
00100000
00000000
00001000
00000000
,
00010000
00000000
00000000
00000100
00000000
00000000
00001000
00000000
00000001
00000000
00000000
00000000
00000010
00000000
00000100
00000001
,
00000000
00000000
00000000
00000000
00001000
00000000
00000100
00010000
00000000
00000000
00000000
00000000
00001000
00000000
00100000
00000000
,
00010000
00000000
01000000
00010000
00000000
01000000
00010000
00000000
10000000
00000000
00100000
00000000
10000000
00000000
00100000
01000000
,
00000000
00000000
00000000
00000000
00010000
00000000
00100000
00010000
00000000
00000000
00000000
00000000
00100000
00000000
00002000
00000000
,
00020000
00000000
00000000
00000000
,
00000000
00000000
00000000
00000000
,
00033000
00000000
00000000
00000000
;

//---------------dance-double - ----------------
#NOTES:
     dance-double:
     :
     Medium:
     8:
     0.385230,0.479003,0.134042,0.323278,0.011827,342.000000,325.000000,17.000000,41.000000,0.000000,0.000000,0.385230,0.479003,0.134042,0.323278,0.011827,342.000000,325.000000,17.000000,41.000000,0.000000,0.000000:
00000000
00000000
00000000
00000000
,
00000000
00000000
00000000
00000000
,
00000000
00000000
00000000
00000000
,
00000000
00000000
00000000
00000000
,
00000000
00000000
00000000
00000000
,
00200000
00320000
00032000
02003000
,
03020000
00000000
20030000
00000000
30200000
00000000
01300000
00010000
,
01000000
00000000
00010000
10000000
00010000
00000000
10000000
00100000
,
20000000
30020000
00230000
00300000
,
00100000
00010000
00100000
00000000
00001000
00010000
00001000
00000000
,
00010000
00000100
00001000
00000000
00000010
00001000
00000100
00000000
,
00001000
00000010
00001000
00000000
00000001
00000100
00000001
00000000
,
00001000
00000000
00000100
00000000
00010000
00000000
00000000
00000000
00001000
00000000
00000000
00001000
00000000
00000000
00000000
00000000
,
00010000
00001000
00010000
00000000
00001000
00100000
00010000
00000000
,
00010000
01000000
00010000
00000000
01000000
00100000
10000000
00000000
,
00100000
01000000
00010000
00000000
10000000
00100000
10000000
00000000
,
00010000
10000000
01100000
10010000
,
00100000
00000000
00000000
00100000
00000000
00000000
00000000
00000000
20000000
00000000
00000000
00000000
00000000
00000000
00000000
00000000
,
30000000
00000000
00000000
00010000
00100000
00000000
00001000
00000000
,
00010000
00000000
00000000
00010000
00000200
00000000
00000000
00000000
,
00001300
00000010
00000100
00000001
,
00001000
00000000
00000000
00001000
00000000
00000000
00000000
00000000
00000200
00000000
00000000
00000000
00000000
00000000
00000000
00000000
,
00010300
00000000
00001000
00010000
00001000
00000000
00100000
00000000
,
00020000
00000000
00030000
01000000
00200000
00000000
00000000
00000000
,
10300000
00010000
00100000
00001000
,
00020000
00000000
00030000
00010000
00000100
00000000
00001000
00000000
,
00000010
00000000
00000100
00000000
00000001
00000000
00001000
00000100
,
00001000
00000100
00010000
00001000
,
00200000
00010000
00010000
00310000
,
20000000
00000000
01000000
00000000
31000000
00000000
00100000
01000000
,
00100000
10000000
00010000
00100000
,
00001000
00000000
00010000
00000000
00000010
00000000
00001000
00000001
,
00001000
00000100
00010000
00001000
,
00100000
00000000
00010000
00000000
01000000
00000000
00100000
10000000
,
00100000
01000000
00010000
00100000
,
00010000
00001000
00010000
00001000
,
00000100
00000000
00001000
00000010
00001000
00000000
00000001
00000100
,
00000002
00000000
00001000
00000000
00001003
00000000
00001000
00000010
,
00001000
00000100
00010000
00001000
,
00100000
00000000
00010000
01000000
00010000
00000000
10000000
00100000
,
10000000
00010000
00100000
00001000
,
00010000
00001000
00010000
00000010
,
00001000
00000000
00000001
00000100
00000001
00000000
00001000
00000010
,
00001000
00000000
00000100
00000000
00001000
00000000
00010000
00001000
,
00010000
00000000
00001000
00100000
00010000
00000000
00010000
10000000
,
02000000
03200000
20300000
30010000
,
00200000
00300000
00020000
00030000
,
00000200
00000300
00000002
00000003
,
00000020
00000030
00002000
00003000
,
00020000
00000000
00000000
00000000
00030000
00000000
10000000
00010000
,
01000000
00100000
01000000
00010000
,
00100000
00001000
00010000
00000100
,
00000100
00001000
00000010
00000100
,
00000001
00000001
00001000
00000100
,
00001001
00000100
00010000
00001000
,
00100000
00000000
00010000
00000000
01000000
00000000
00100000
10000000
,
00010000
00000000
00100000
00010000
10000000
00000000
00100000
00000000
,
02200000
00000000
00000000
00000000
03300000
00000000
10000000
00010000
,
00100000
00000000
00100000
00001000
00010000
00000000
00010000
00000000
,
00022000
00000000
00000000
00033000
,
00020000
00000000
00030200
00000000
,
00002300
00000000
00003020
00000000
,
00000130
00000000
00001001
00000000
00000010
00001000
00000010
00000000
,
00001000
00000000
00000100
00000000
00010000
00000000
00001000
00010000
,
00001000
01000000
00010000
10000000
,
00010000
00100000
00010000
00100000
00010000
00000000
00110000
00000000
,
01000000
00001000
00010000
00000100
,
00001000
00000010
00001000
00000010
00001000
00000000
00000001
00000000
,
00000101
00001000
00001100
00000010
,
00000110
00001000
00010000
00001000
,
00011000
00000000
00010000
00001000
00100000
00000000
00100000
00010000
,
10000000
00000000
01100000
00000000
10010000
00000000
01000000
00100000
,
10000000
00000000
10000000
00010000
00100000
00000000
00110000
00000000
,
01010000
00000000
01000000
00010000
00100000
00000000
00110000
00000000
,
01010000
00100000
00001000
00010000
,
00000100
00001000
00000001
00000000
00001000
00000000
00000010
00001000
,
00000100
00000000
00000100
00000000
00010000
00000000
00001000
00010000
,
00200000
00310000
02000000
13000000
,
01000000
00000000
00010000
00100000
00001000
00000000
00020000
00000000
,
00002000
00000000
00000000
00000000
,
00000000
00000000
00000000
00000000
,
00033000
00000000
00000000
00000000
;

//---------------dance-single - ----------------
#NOTES:
     dance-single:
     :
     Medium:
     8:
     0.391988,0.479003,0.181351,0.331162,0.011827,348.000000,325.000000,23.000000,42.000000,0.000000,0.000000,0.391988,0.479003,0.181351,0.331162,0.011827,348.000000,325.000000,23.000000,42.000000,0.000000,0.000000:
0000
0000
0000
0000
,
0000
0000
0000
0000
,
0000
0000
0000
0000
,
0000
0000
0000
0000
,
0000
0000
0000
0000
,
0020
0032
0203
2300
,
3020
0000
2030
0000
3002
0000
0103
0001
,
0100
0000
0001
1000
0001
0000
1000
0010
,
2000
3002
0023
0030
,
0010
0001
0010
0000
0001
1000
0001
0000
,
0100
0010
0100
0000
0001
0000
1001
0000
,
0100
0001
0100
0000
0010
1000
0010
0000
,
0100
0000
0001
0000
1000
0000
0000
0000
0010
0000
0000
0010
0000
0000
0000
0000
,
0001
1000
0001
0000
1000
0001
0100
0000
,
0001
0100
0001
0000
0100
0001
1000
0000
,
0010
0100
0001
0000
1000
0010
1000
0000
,
0001
1000
0110
1001
,
0010
0000
0000
0010
0000
0000
0000
0000
2000
0000
0000
0000
0000
0000
0000
0000
,
3000
0000
0000
0001
0010
0000
0100
0000
,
1000
0000
0000
0001
0200
0000
0000
0000
,
0310
1000
0100
0001
,
1000
0000
0000
1000
0000
0000
0000
0000
0200
0000
0000
0000
0000
0000
0000
0000
,
0301
0000
1000
0001
1000
0000
0010
0000
,
0002
0000
0003
0100
0020
0000
0000
0000
,
1030
0001
0010
0100
,
2000
0000
3000
1000
0010
0000
0100
0000
,
0001
0000
0100
0000
0010
0000
1000
0001
,
1000
0001
0100
0010
,
0200
0001
0001
0301
,
2002
0000
0000
0000
3003
0000
0010
0100
,
0010
1000
0001
0010
,
0001
1000
0001
0000
1000
0001
1000
0000
,
0010
0100
0001
1000
,
0010
0100
0010
0000
0100
0000
0010
1000
,
0010
0100
0001
0010
,
0001
1000
0001
0000
1000
0001
1000
0000
,
0010
0100
1001
0100
,
0020
0000
1000
0000
1030
0000
1000
0010
,
1000
0100
0010
0100
,
0010
0000
0001
1000
0001
0000
1000
0010
,
1000
0001
0010
0100
,
1000
0000
0001
0000
1001
0000
0010
1000
,
0010
0000
1000
0100
1000
0000
0010
0000
,
0100
0000
0001
0000
1000
0000
0001
1000
,
0001
0000
1000
0100
1000
0000
0001
0000
,
0200
0320
2030
3001
,
0020
0030
0002
0003
,
0200
0300
2000
3000
,
0002
0003
0020
0030
,
0200
0000
0000
0000
0300
0000
1000
0001
,
0100
0010
0100
0001
,
0010
0001
1000
0010
,
0010
1000
0010
0100
,
0001
0001
1000
0100
,
1001
0100
0001
1000
,
0010
0000
0100
0000
0001
0000
0010
0001
,
1000
0000
0010
1000
0001
0000
0010
0000
,
0022
0000
0000
0000
0033
0000
1000
0001
,
0010
0000
0010
0001
1000
0000
1001
0000
,
0220
0000
0000
0330
,
0002
0000
0200
0303
,
2000
0000
0200
3300
,
1001
0000
0110
0000
0010
1000
0010
0000
,
0100
0000
0001
0000
0010
0000
1000
0001
,
1000
0100
0001
1000
,
0001
0010
0001
0010
0001
0000
0011
0000
,
0100
0001
0010
0001
,
0100
0010
0100
0010
0100
0000
0010
0000
,
1010
0100
0101
0010
,
0110
1000
0001
1000
,
1001
0000
0001
1000
0010
0000
0010
1000
,
0001
0000
0110
0000
1001
0000
0100
0010
,
1000
0000
1000
0001
0010
0000
0011
0000
,
0101
0000
0100
0001
0010
0000
0011
0000
,
0101
0000
0010
1000
0001
0000
0001
0100
,
0010
0000
1000
0000
0001
0000
1000
0010
,
0100
0000
0100
0001
1000
0000
1000
0001
,
0020
0031
0200
0310
,
1000
0000
0001
0010
0100
0000
0002
0000
,
2000
0000
0000
0000
,
0000
0000
0000
0000
,
3003
0000
0000
0000
;

//---------------dance-double - ----------------
#NOTES:
     dance-double:
     :
     Easy:
     5:
     0.229786,0.319335,0.078848,0.220775,0.000000,204.000000,194.000000,10.000000,28.000000,0.000000,0.000000,0.229786,0.319335,0.078848,0.220775,0.000000,204.000000,194.000000,10.000000,28.000000,0.000000,0.000000:
00000000
00000000
00000000
00000000
,
00000000
00000000
00000000
00000000
,
00000000
00000000
00000000
00000000
,
00000000
00000000
00000000
00000000
,
00000000
00000000
00000000
00000000
,
00100000
00000000
00100000
00000000
,
00010000
00000000
00010000
00000000
,
00001000
00000000
00001000
00000000
,
00020000
00000000
00000000
00030000
,
00001000
00010000
00001000
00010000
,
00000100
00001000
00000001
00000000
,
00000100
00001000
00000100
00001000
,
00000100
00010000
00001000
00000000
,
00100000
00100000
00010000
01000000
,
10000000
01000000
00010000
00000000
,
00100000
00000000
00001000
00000000
,
00010000
00000000
00022000
00033000
,
00010000
00010000
00002000
00003000
,
00200000
00300000
00010000
01000000
,
00100000
00000000
20000000
30000000
,
00020000
00030000
00200000
00300000
,
00100000
00001000
00020000
00030000
,
00002000
00003000
00010000
00000100
,
00002000
00003000
00000002
00000003
,
00000010
00000100
00000010
00000100
,
00001001
00000000
00000100
00000000
,
00010000
00001000
00010000
00000000
,
00011000
00000000
00100000
00000000
,
00010000
01000000
10000000
00000000
,
10000000
00100000
00010000
00000000
,
00100000
00000000
00001000
00000000
,
00010000
00001000
00010000
00000000
,
00000100
00000000
00001000
00000000
,
00000001
00000100
00001000
00000000
,
00000010
00000000
00010000
00000000
,
00001000
00010000
00001000
00010000
,
00001000
00000000
00100000
00000000
,
02000000
00000000
03000000
00100000
,
10010000
00000000
01000000
00010000
,
00100000
00100000
10010000
00000000
,
00100000
00000000
00001000
00010000
,
00000100
00000100
00001001
00000000
,
00000010
00000000
00001000
00000100
,
00010000
00010000
00011000
00000000
,
00100000
00000000
01000000
00000000
,
10010000
00000000
00000000
00000000
,
00100000
00000000
00000000
00000000
,
00001000
00000000
00000000
00000000
,
00010000
00000000
00000000
00000000
,
00000020
00000000
00000000
00000000
,
00000130
00000000
00000001
00000000
,
00001000
00000000
00010000
00000000
,
00001000
00000000
00100000
00000000
,
00010000
00000000
01000000
00000000
,
00100000
10000000
00100000
00000000
,
01000000
00010000
01000000
00000000
,
00020000
00030000
00200000
00300000
,
02000000
00000000
03000000
00000000
,
20000000
30000000
00200000
00300000
,
00002000
00000000
00000000
00000000
,
00023000
00000000
00000000
00000000
,
00030200
00000000
00002000
00003300
,
00000000
00000010
00001000
00000001
,
00000100
00000100
00000100
00010000
,
00001000
00001000
00100000
00100000
,
00010000
01000000
10000000
00100000
,
00100000
01000000
01000000
10000000
,
01000000
00010000
00100000
00001000
,
00001000
00010000
00010000
00000100
,
00000200
00000000
00000300
00000010
,
00001001
00000100
00000100
00001000
,
00010000
00001000
00010000
00001000
,
00100000
00100000
00010000
01000000
,
00100000
00100000
10010000
00000000
,
10000000
00100000
10000000
00100000
,
01000000
00010000
01000000
00001000
,
00020000
00030000
00002000
00003000
,
00020000
00000000
00030000
00000010
,
00000100
00000000
00001000
00000000
,
00000002
00000000
00000000
00000000
,
00000000
00000000
00000000
00000000
,
00000003
00000000
00000000
00000000
;

//---------------dance-single - ----------------
#NOTES:
     dance-single:
     :
     Easy:
     5:
     0.235418,0.351269,0.102503,0.346932,0.000000,209.000000,196.000000,13.000000,44.000000,0.000000,0.000000,0.235418,0.351269,0.102503,0.346932,0.000000,209.000000,196.000000,13.000000,44.000000,0.000000,0.000000:
// measure 0
0000
0000
0000
0000
,  // measure 1
0000
0000
0000
0000
,  // measure 2
0000
0000
0000
0000
,  // measure 3
0000
0000
0000
0000
,  // measure 4
0000
0000
0000
0000
,  // measure 5
0010
0000
0001
0000
,  // measure 6
0100
0000
1000
0000
,  // measure 7
0100
0000
0010
0000
,  // measure 8
2002
0000
0000
3003
,  // measure 9
1000
1000
0001
0001
,  // measure 10
1000
0001
1000
0001
,  // measure 11
0100
0100
0010
0010
,  // measure 12
1000
0100
0010
0001
,  // measure 13
1000
1000
0001
0001
,  // measure 14
1000
0001
1000
0001
,  // measure 15
0200
0300
0020
0030
,  // measure 16
2000
3000
0002
0003
,  // measure 17
2000
3000
0002
0003
,  // measure 18
0020
0030
0100
1000
,  // measure 19
0002
0003
2000
3000
,  // measure 20
0010
0100
0001
1000
,  // measure 21
0002
0003
0200
0300
,  // measure 22
2000
3000
0010
1000
,  // measure 23
0200
0300
0002
0003
,  // measure 24
0010
0100
0010
0000
,  // measure 25
0100
0000
0001
0000
,  // measure 26
1000
1000
1000
0000
,  // measure 27
0010
1000
0010
0100
,  // measure 28
0020
0000
0000
0030
,  // measure 29
0200
0000
0300
0001
,  // measure 30
0010
0001
0010
0001
,  // measure 31
1000
0100
0010
0001
,  // measure 32
1000
0100
1000
0100
,  // measure 33
0001
0010
0100
1000
,  // measure 34
0010
0010
0001
0100
,  // measure 35
0010
0010
1000
0100
,  // measure 36
1001
0000
0110
0000
,  // measure 37
2002
0000
3003
0000
,  // measure 38
0010
0001
0100
0010
,  // measure 39
1000
0001
1001
0000
,  // measure 40
1000
0010
1000
0100
,  // measure 41
0010
0001
1001
0000
,  // measure 42
0020
0030
0200
0300
,  // measure 43
0001
1000
0001
1000
,  // measure 44
0020
0030
0200
0300
,  // measure 45
2002
0000
0000
3003
,  // measure 46
0010
0000
0001
0000
,  // measure 47
0100
0000
1000
0000
,  // measure 48
0010
0000
0001
0000
,  // measure 49
0100
0000
1000
0000
,  // measure 50
0010
0000
0100
0000
,  // measure 51
0020
0000
0030
0000
,  // measure 52
0100
0000
0010
0000
,  // measure 53
0200
0000
0300
0000
,  // measure 54
1001
0000
0001
0000
,  // measure 55
1000
0000
0001
0000
,  // measure 56
0100
0000
0010
0000
,  // measure 57
2002
0000
3003
0000
,  // measure 58
0010
0000
0100
0000
,  // measure 59
2002
0000
0000
3003
,  // measure 60
0020
0000
0000
0000
,  // measure 61
0200
0300
0200
0300
,  // measure 62
0130
0001
1000
0001
,  // measure 63
1000
0100
0010
0001
,  // measure 64
0100
0100
0010
0000
,  // measure 65
0001
0010
0100
1000
,  // measure 66
0001
0100
0010
0110
,  // measure 67
1000
0010
0100
0110
,  // measure 68
0001
0000
1000
0000
,  // measure 69
2002
0000
0000
3003
,  // measure 70
0020
0000
0130
0100
,  // measure 71
0001
0001
1000
0000
,  // measure 72
0200
0000
0310
0010
,  // measure 73
1000
1000
0001
0000
,  // measure 74
2000
0000
3100
0100
,  // measure 75
0010
0001
0100
0010
,  // measure 76
2000
3000
0002
0003
,  // measure 77
0200
0000
0000
0300
,  // measure 78
0001
0000
1000
0000
,  // measure 79
0020
0000
0000
0000
,  // measure 80
0000
0000
0000
0000
,  // measure 81
0030
0000
0000
0000
;

//---------------dance-single - ----------------
#NOTES:
     dance-single:
     :
     Beginner:
     2:
     0.144180,0.223535,0.023654,0.078848,0.000000,128.000000,125.000000,3.000000,10.000000,0.000000,0.000000,0.144180,0.223535,0.023654,0.078848,0.000000,128.000000,125.000000,3.000000,10.000000,0.000000,0.000000:
// measure 0
0000
0000
0000
0000
,  // measure 1
0000
0000
0000
0000
,  // measure 2
0000
0000
0000
0000
,  // measure 3
0000
0000
0000
0000
,  // measure 4
0000
0000
0000
0000
,  // measure 5
0010
0000
0000
0000
,  // measure 6
0100
0000
0000
0000
,  // measure 7
0010
0000
0010
0000
,  // measure 8
0020
0000
0030
0000
,  // measure 9
1000
0000
0001
0000
,  // measure 10
1000
0000
1000
0000
,  // measure 11
0001
0000
1000
0000
,  // measure 12
0001
0000
0001
0000
,  // measure 13
0100
0000
0100
0000
,  // measure 14
0100
0000
0100
0000
,  // measure 15
0010
0000
0010
0000
,  // measure 16
0010
0000
0010
0000
,  // measure 17
1000
0000
0000
0000
,  // measure 18
0001
0000
1000
0000
,  // measure 19
0001
0000
0000
0000
,  // measure 20
0010
0000
0100
0000
,  // measure 21
0010
0000
0000
0000
,  // measure 22
1000
0000
0001
0000
,  // measure 23
1000
0000
0000
0000
,  // measure 24
0010
0000
0100
0000
,  // measure 25
0010
0000
0000
0000
,  // measure 26
1000
0000
0000
0000
,  // measure 27
0100
0000
0010
0000
,  // measure 28
0020
0000
0030
0000
,  // measure 29
0200
0000
0300
0000
,  // measure 30
0001
0000
0001
0000
,  // measure 31
0001
0000
0001
0000
,  // measure 32
1000
0000
1000
0000
,  // measure 33
1000
0000
1000
0000
,  // measure 34
0010
0000
0010
0000
,  // measure 35
0100
0000
0100
0000
,  // measure 36
0010
0000
0100
0000
,  // measure 37
0020
0000
0030
0000
,  // measure 38
1000
0000
0001
0000
,  // measure 39
1000
0000
0001
0000
,  // measure 40
1000
0000
1000
0000
,  // measure 41
0001
0000
0001
0000
,  // measure 42
0100
0000
0100
0000
,  // measure 43
0010
0000
0010
0000
,  // measure 44
1000
0000
0001
0000
,  // measure 45
2002
0000
0000
3003
,  // measure 46
0010
0000
0000
0000
,  // measure 47
0001
0000
0000
0000
,  // measure 48
0100
0000
0000
0000
,  // measure 49
1000
0000
0000
0000
,  // measure 50
0010
0000
0000
0000
,  // measure 51
1000
0000
0000
0000
,  // measure 52
0100
0000
0000
0000
,  // measure 53
0001
0000
0000
0000
,  // measure 54
1000
0000
0001
0000
,  // measure 55
1000
0000
0001
0000
,  // measure 56
0100
0000
0100
0000
,  // measure 57
0200
0000
0000
0300
,  // measure 58
0010
0000
0010
0000
,  // measure 59
0020
0000
0030
0000
,  // measure 60
2000
0000
3000
0000
,  // measure 61
0001
0000
1000
0000
,  // measure 62
0000
0001
0000
0001
,  // measure 63
0000
0001
0001
0000
,  // measure 64
1000
0000
1000
0000
,  // measure 65
1000
1000
1000
0000
,  // measure 66
0010
0000
0010
0000
,  // measure 67
0010
0010
0010
0000
,  // measure 68
0100
0000
0010
0000
,  // measure 69
1001
0000
0000
0000
,  // measure 70
0001
0000
0100
0000
,  // measure 71
0010
0000
1000
0000
,  // measure 72
0010
0000
0100
0000
,  // measure 73
0001
0000
1000
0000
,  // measure 74
0001
0000
0010
0000
,  // measure 75
0100
0000
1000
0000
,  // measure 76
0010
0000
0100
0000
,  // measure 77
1001
0000
0000
0000
,  // measure 78
0010
0000
0100
0000
,  // measure 79
0020
0000
0000
0000
,  // measure 80
0000
0000
0000
0000
,  // measure 81
0030
0000
0000
0000
;
