#TITLE:HEISEI;
#SUBTITLE:;
#ARTIST:BEMANI Sound Team "dj TAKA";
#TITLETRANSLIT:;
#SUBTITLETRANSLIT:;
#ARTISTTRANSLIT:;
#GENRE:;
#CREDIT:;
#BANNER:HEISEI.png;
#BACKGROUND:HEISEI-bg.png;
#LYRICSPATH:;
#CDTITLE:;
#MUSIC:HEISEI.ogg;
#OFFSET:1.581001;
#SAMPLESTART:88.418999;
#SAMPLELENGTH:12.631577;
#LASTBEATHINT:1.471869;
#SELECTABLE:YES;
#BPMS:0.000000=152.000000
;
#STOPS:
;
#BGCHANGES:4.000=HEISEI.avi=1.000=1=0=0=StretchNoLoop==CrossFade==,
99999=-nosongbg-=1.000=0=0=0 // don't automatically add -songbackground-
;
#KEYSOUNDS:;
#ATTACKS:;

//---------------dance-single - ----------------
#NOTES:
     dance-single:
     :
     Hard:
     12:
     0.507718,0.587527,0.057722,0.321594,0.152551,431.000000,424.000000,7.000000,39.000000,0.000000,0.000000,0.507718,0.587527,0.057722,0.321594,0.152551,431.000000,424.000000,7.000000,39.000000,0.000000,0.000000:
// measure 0
0000
0000
0000
0000
,  // measure 1
0000
0000
0000
0000
,  // measure 2
0000
0000
0000
0000
,  // measure 3
0000
0000
0000
0000
,  // measure 4
0000
0000
0000
0000
,  // measure 5
2000
0000
3001
0100
,  // measure 6
0020
0000
0000
0000
1030
0000
0001
1000
,  // measure 7
0001
0000
0000
0001
0000
1000
0100
0010
,  // measure 8
0001
0000
1000
0010
0000
0010
0100
0000
,  // measure 9
0001
0000
0001
0100
0000
1000
0010
0000
,  // measure 10
1000
0000
1000
0001
0000
0100
0010
0000
,  // measure 11
0001
0000
0100
0010
0000
1000
0100
0000
,  // measure 12
1000
0000
0010
0100
0000
0001
1000
0000
,  // measure 13
0001
0010
0001
0100
0000
0100
0010
0000
,  // measure 14
1000
0010
1000
0100
0000
0010
0001
0000
,  // measure 15
0100
0000
0000
1000
0000
0000
0001
0000
0100
0000
0000
0100
0000
0000
0010
0000
,  // measure 16
2000
3002
0203
0320
,  // measure 17
1030
0000
0001
0000
1000
0000
0001
0000
1000
0000
0010
1000
0000
1000
0010
0000
,  // measure 18
0100
0000
0001
0000
1000
0000
0001
0000
0100
0000
0010
0100
0000
0100
0010
0000
,  // measure 19
1000
0000
0100
0000
1000
0000
0010
0000
1000
0000
0010
1000
0000
1000
0010
0000
,  // measure 20
0100
0000
0001
0000
0100
0000
0010
0000
0100
0000
0001
0100
0000
0100
0001
0000
,  // measure 21
1000
0000
0100
0000
0010
0000
0001
0000
0100
0000
0010
1000
0000
1000
0010
0000
,  // measure 22
0100
0000
0001
0000
1000
0000
0100
0000
0010
0000
0001
0010
0000
0010
0001
0000
,  // measure 23
0100
0010
0100
0010
1000
0001
1000
0001
,  // measure 24
1000
0100
0010
0001
0100
0010
0100
0000
,  // measure 25
0001
0000
1000
0000
0010
0000
1000
0000
0001
0000
1000
0010
1000
0000
0001
0000
,  // measure 26
0100
0000
0010
0000
0100
0000
0001
0000
0100
0000
0010
1000
0010
0000
0000
0000
,  // measure 27
1000
0000
0001
0000
0100
0000
0001
0000
0100
0000
0001
1000
0001
0000
1000
0000
,  // measure 28
0010
0100
0001
0100
0010
1000
0001
0010
,  // measure 29
0100
0000
0000
0000
1000
0000
0010
0000
1000
0000
0010
1000
0010
0000
1000
0000
,  // measure 30
0001
0000
0000
0000
1000
0000
0010
0000
1000
0000
0001
1000
0001
0000
1000
0000
,  // measure 31
0001
0000
0000
1000
0000
0000
0100
0000
1000
0000
0000
0010
0000
0000
0100
0000
,  // measure 32
0001
1000
0001
1000
0010
0100
0010
1000
,  // measure 33
0002
0000
0000
0023
0000
0000
0031
0100
,  // measure 34
0010
1000
0010
1000
0001
0010
0100
1000
,  // measure 35
0020
0000
0000
0200
0000
0000
0330
0000
,  // measure 36
0002
0000
0000
1000
0000
0000
1003
0000
,  // measure 37
0020
0000
0000
1000
0000
0000
0130
0001
,  // measure 38
1000
0010
1000
0010
0100
0001
0100
0010
,  // measure 39
2000
0000
0000
0001
0000
0000
3001
0000
,  // measure 40
0020
0000
0000
0001
0000
0000
0130
0010
,  // measure 41
2000
0000
0000
0002
0000
0000
3003
1000
,  // measure 42
0010
1000
0100
0010
0001
0100
0001
0010
,  // measure 43
0200
0000
0000
2300
0000
0000
3010
0000
,  // measure 44
0200
0000
0000
0302
0000
0000
0013
0001
,  // measure 45
2000
0000
0000
3020
0000
0000
0130
0001
,  // measure 46
1000
0001
0010
0001
1000
0100
0010
0001
,  // measure 47
0200
0000
0000
0320
0000
0000
0130
0000
,  // measure 48
0002
0000
2003
3020
,  // measure 49
0230
0000
0000
0300
,  // measure 50
0002
0023
0230
2300
,  // measure 51
3020
0000
0000
2030
,  // measure 52
0002
0000
0000
3003
,  // measure 53
1000
0010
1000
0000
0000
0000
0001
0100
0001
0000
0000
0000
1000
0000
0000
0000
,  // measure 54
0001
0010
0001
0000
0000
0000
1000
0100
1000
0000
0000
0000
0010
0000
0000
0000
,  // measure 55
1000
0000
1000
0001
0000
0001
0100
0000
,  // measure 56
0010
1000
0000
0010
1000
0000
0001
1000
0000
0001
1000
0000
0010
0000
1000
0000
,  // measure 57
0001
0000
1001
0000
0001
1000
0010
1000
,  // measure 58
0100
0000
1001
0000
1000
0010
0100
0001
,  // measure 59
1000
0000
0011
0000
1000
0010
1000
0001
,  // measure 60
1000
0000
0001
1000
0010
1000
0100
0010
,  // measure 61
0001
0000
1000
0001
1000
0010
0100
0001
,  // measure 62
1000
0000
0000
0000
0001
0000
0010
0000
0010
0000
0000
0000
0001
0000
0100
0001
,  // measure 63
0100
0000
0000
0000
0010
0000
1000
0010
1000
0000
0000
0001
0000
0000
0100
0000
,  // measure 64
0010
0010
1000
0001
0001
1000
1001
0000
,  // measure 65
0001
0010
0100
1000
0010
0010
1000
0100
,  // measure 66
0010
0010
0001
0100
0010
1000
1000
0001
,  // measure 67
2000
0000
3001
0010
0100
1000
0010
0100
,  // measure 68
0002
0000
0000
0000
1003
0000
0010
0000
0100
0000
0001
0100
0001
0000
1000
0000
,  // measure 69
0010
0000
0000
0000
1000
0000
0100
0000
0010
0000
0001
0100
0001
0000
0100
0000
,  // measure 70
0010
0000
0000
0000
1000
0000
0001
0000
0000
0000
0001
0000
1000
0000
0010
1000
,  // measure 71
0001
0000
0000
0000
0100
0000
0010
1000
0010
0000
0000
1000
0000
0000
0100
0000
,  // measure 72
0010
0001
1000
0100
0010
0001
1001
0000
,  // measure 73
1000
0010
0100
0001
0001
0100
0010
1000
,  // measure 74
2002
0000
0000
3003
,  // measure 75
0110
0000
0000
0000
;

//---------------dance-double - ----------------
#NOTES:
     dance-double:
     :
     Hard:
     12:
     0.462954,0.556605,0.041230,0.354578,0.086583,393.000000,388.000000,5.000000,43.000000,0.000000,0.000000,0.462954,0.556605,0.041230,0.354578,0.086583,393.000000,388.000000,5.000000,43.000000,0.000000,0.000000:
00000000
00000000
00000000
00000000
,
00000000
00000000
00000000
00000000
,
00000000
00000000
00000000
00000000
,
00000000
00000000
00000000
00000000
,
00000000
00000000
00000000
00000000
,
00200000
00000000
00000000
00000000
00301000
00000000
00010000
00000100
,
00002000
00000000
00000000
00000010
00000000
00000000
00000000
00000000
,
00003001
00000000
00000000
00000001
00000000
00000001
00000100
00000010
,
00001000
00000000
00001000
00000100
00000000
00000100
00010000
00000000
,
00002000
00000000
00000000
00100000
00000000
00000000
00103000
00000000
,
00020000
00000000
00000000
01000000
00000000
00000000
01030000
00000000
,
20000000
00000000
00000000
00100000
00000000
00000000
30010000
00000000
,
02000000
00000000
00000000
00010000
00000000
00000000
03100000
00000000
,
00020000
00000000
00000000
00100000
00000000
00000000
01030000
00000000
,
00002000
00000000
00000000
00010000
00000000
00000000
00013000
00000000
,
00000200
00000000
00000000
00000000
00000000
00000000
00001300
00000000
00000010
00000000
00000000
00000100
00000000
00000000
00000001
00000000
,
00002000
00003020
00000230
00000302
,
00000103
00000010
00001000
00000010
00000100
00000001
00001000
00000100
,
00010000
00001000
00010000
00001000
00100000
00010000
01000000
00100000
,
10000000
00100000
10000000
00100000
01000000
00010000
00100000
00001000
,
00010000
00001000
00010000
00000100
00001000
00000100
00000010
00000001
,
00001000
00000000
00000100
00000000
00000010
00000000
00000001
00000000
00001000
00000000
00000000
00000100
00000000
00000000
00010000
00000000
,
00001000
00000000
00100000
00000000
00010000
00000000
01000000
00000000
00100000
00000000
00000000
10000000
00000000
00000000
00010000
00000000
,
00100000
00000000
00001000
00000000
00100000
00000000
00001000
00000000
00010000
00000000
00000000
00000100
00000000
00000000
00001000
00000000
,
00000010
00000100
00000001
00001000
00000100
00010000
00001000
00000000
,
00200000
00000000
00010000
00000000
00310000
00000000
00000000
00000000
10000000
00000000
00000000
00100000
00000000
00000000
01000000
00000000
,
00020000
00000000
00100000
00000000
00130000
00000000
00000000
00000000
00100000
00000000
00000000
00001000
00000000
00000000
00010000
00000000
,
00000200
00000000
00001000
00000000
00001300
00000000
00000000
00000000
00000010
00000000
00000000
00001000
00000000
00000000
00000100
00000000
,
00000010
00000000
00000001
00000000
00000100
00000000
00000010
00000000
00001000
00000000
00000000
00000100
00000000
00000000
00010000
00000000
,
00001000
00000000
00100000
00000000
00010000
00000000
01000000
00000000
00100000
00000000
00000000
10000000
00000000
00000000
00010000
00000000
,
00100000
00000000
00001000
00000000
00010000
00000000
00000010
00000000
00001000
00000000
00000000
00000001
00000000
00000000
00000100
00000000
,
00000010
00000000
00000000
00001000
00000000
00000000
00000100
00001000
00000100
00000000
00000000
00010000
00000000
00000000
00001000
00000000
,
00100000
00010000
01000000
00010000
10000000
00010000
00100000
00001000
,
00020000
00000000
00000000
00030200
00000000
00000000
00001300
00000010
,
00000100
00000001
00001000
00000100
00000010
00000001
00001000
00000100
,
00020000
00000000
00000000
00001000
00000000
00000000
00032000
00000000
,
00100000
00000000
00000000
00100000
00000000
00000000
00103000
00010000
,
02000000
00000000
00000000
00200000
00000000
00000000
03300000
10000000
,
01000000
00100000
00010000
00100000
00001000
00010000
00000100
00001000
,
00000020
00000000
00000000
00000230
00000000
00000000
00000301
00000000
,
00000002
00000000
00000000
00002003
00000000
00000000
00003100
00010000
,
00002000
00000000
00000000
00203000
00000000
00000000
00310000
01000000
,
00010000
00100000
00010000
10000000
00010000
01000000
00100000
10000000
,
00020000
00000000
00000000
00100000
00000000
00000000
00130000
00000000
,
00002000
00000000
00000000
00010000
00000000
00000000
00013000
00000000
,
00000020
00000000
00000000
00001000
00000000
00000000
00001030
00000001
,
00001000
00000100
00000010
00000001
00001000
00000100
00010000
00001000
,
00200000
00000000
00000000
00010000
00000000
00000000
01300000
00000000
,
00200000
00000000
10000000
01300000
,
20000000
00000000
00000000
30000000
,
00020000
00230000
00302000
00023000
,
00030020
00000000
00000000
00000230
,
00000002
00000000
00000000
00000303
,
00000010
00000001
00000100
00000010
00001000
00000100
00010000
00000000
,
00001000
00100000
00010000
01000000
00100000
10000000
01000000
00000000
,
10000000
10000000
10000000
00100000
00100000
00100000
01000000
00000000
,
00010000
10000000
00000000
00010000
10000000
00000000
00010000
00100000
00000000
00010000
00100000
00000000
00010000
00000000
00100000
00000000
,
00001000
00000000
00011000
00000000
00010000
00000100
00001000
00000010
,
00000100
00000000
00001001
00000000
00000010
00001000
00000100
00010000
,
00001000
00000000
00101000
00000000
00100000
00010000
01000000
00100000
,
10000000
00000000
10000000
00010000
00100000
00010000
01000000
00001000
,
00010000
00000000
00010000
00000100
00001000
00000100
00010000
00000100
,
00001000
00000000
00000000
00000000
00000010
00000000
00000100
00000000
00000001
00000000
00000000
00000000
00001000
00000000
00000001
00001000
,
00000001
00000000
00000000
00000000
00001000
00000000
00000100
00001000
00000100
00000000
00010000
00000000
00001000
00000000
00010000
00000000
,
00001000
00100000
00010000
10000000
01000000
00100000
00010000
00010000
,
00100000
00000000
00001000
00010000
00001000
00010000
00000100
00001000
,
00000100
00000000
00001000
00000010
00001000
00000001
00000100
00000010
,
00001000
00000000
00000100
00010000
00001000
00010000
00000100
00010000
,
00001000
00000000
00001000
00100000
00010000
01000000
00100000
10000000
,
01000000
00100000
00010000
01000000
00000000
00001000
00100000
00001000
,
00010000
00001000
00100000
00001000
00000000
00010000
00000100
00001000
,
00000100
00000000
00000000
00001000
00000000
00000000
00000010
00000000
00000100
00000000
00000000
00000001
00000000
00000000
00001000
00000000
,
00000100
00000000
00010000
00001000
01000000
00000000
10010000
00000000
,
10000000
01000000
00100000
00010000
00100000
00001000
00010000
00000100
,
00020000
00000000
00000020
00030030
,
00011000
00000000
00000000
00000000
;

//---------------dance-double - ----------------
#NOTES:
     dance-double:
     :
     Medium:
     9:
     0.309814,0.371070,0.024738,0.280364,0.000000,263.000000,260.000000,3.000000,34.000000,0.000000,0.000000,0.309814,0.371070,0.024738,0.280364,0.000000,263.000000,260.000000,3.000000,34.000000,0.000000,0.000000:
00000000
00000000
00000000
00000000
,
00000000
00000000
00000000
00000000
,
00000000
00000000
00000000
00000000
,
00000000
00000000
00000000
00000000
,
00000000
00000000
00000000
00000000
,
20000000
00000000
30100000
00010000
,
02000000
00000000
03020000
00000000
,
00130000
00000000
00001000
00010000
,
00000020
00000000
00002030
00000000
,
00003001
00000000
00000000
00000100
00000000
00000000
00000010
00001000
,
00000010
00000000
00000000
00001000
00000000
00000000
00000100
00010000
,
00000100
00000000
00000000
00010000
00000000
00000000
00001000
00100000
,
00001000
00000000
00000000
00100000
00000000
00000000
00010000
01000000
,
00100000
00000000
00000000
10000000
00000000
00000000
00100000
01000000
,
00100000
00000000
00000000
01000000
00000000
00000000
00010000
00100000
,
00010000
00000000
00000000
00000000
00100000
00000000
00000000
00001000
,
00020000
00000000
00002000
00033000
,
00010000
00000000
00000100
00000000
00001000
00000010
00000100
00000000
,
00000001
00000000
00001000
00000000
00000100
00001000
00000100
00000000
,
00001000
00000000
00000100
00000000
00010000
00001000
00010000
00000000
,
00001000
00000000
00100000
00000000
00010000
01000000
00100000
00000000
,
10000000
00010000
00100000
00001000
,
00010000
00000000
00000010
00000000
00001000
00000010
00001000
00000000
,
00000001
00000100
00000010
00001000
,
00000200
00000000
00020000
00030300
,
00001000
00010000
00001000
00100000
,
00110000
01000000
00100000
10000000
,
10010000
00100000
00001000
00010000
,
00000100
00000000
00001000
00000000
00000010
00001000
00000010
00001000
,
00000010
00000100
00000001
00001000
,
00000100
00010000
00001000
00100000
,
00010000
00000000
01000000
00000000
00100000
00000000
10000000
00010000
,
10000000
00100000
01000000
00001000
,
00020000
00000000
00000000
00000100
00000000
00000000
00030100
00000000
,
00001000
00000010
00000100
00000001
,
00000200
00000000
00000000
00000010
00000000
00000000
00000310
00000000
,
00002000
00000000
00000000
00000100
00000000
00000000
00003100
00000000
,
00000200
00000000
00000000
00010000
00000000
00000000
00010300
00000000
,
00001000
00100000
00010000
01000000
,
00200000
00000000
00000000
10000000
00000000
00000000
10300000
00000000
,
00020000
00000000
00000000
10000000
00000000
00000000
10030000
00000000
,
00200000
00000000
00000000
02000000
00000000
00000000
03300000
00000000
,
01000000
00001000
00010000
00000100
,
00002000
00000000
00000000
00000002
00000000
00000000
00003003
00000000
,
00000020
00000000
00000000
00002000
00000000
00000000
00003030
00000000
,
00000200
00000000
00000000
00020000
00000000
00000000
00030300
00000000
,
00010000
00001000
00100000
00010000
,
20000000
00000000
00000000
00020000
00000000
00000000
30030000
00000000
,
00200000
00000000
00302000
00023000
,
00030020
00000000
00000000
00000030
,
00001000
00000001
00000100
00000010
,
00002000
00000000
00000000
00003200
,
00020300
00000000
00000000
00030000
,
00001000
00000000
00000000
00001000
00000000
00000000
00100000
00000000
,
00010000
00000000
00000000
00010000
00000000
00000000
10000000
00000000
,
00010000
00000000
00100000
00010000
00000000
00100000
00010000
00000000
,
00100000
00001000
00010000
00000010
,
00001000
00000000
00000001
00000100
00000001
00000000
00001000
00000000
,
00000100
00000000
00010000
00000100
00010000
00000000
00001000
00000000
,
00100000
00000000
00010000
01000000
00010000
00000000
01000000
00000000
,
00100000
10000000
00010000
00100000
,
00001000
00000000
00010000
00001000
00010000
00000000
00000100
00000000
,
00001000
00000000
00000010
00000100
00000010
00000000
00001000
00000000
,
00000002
00000000
00000003
00000000
00001000
00000000
00000100
00010000
,
00000100
00010000
00001000
00100000
,
00010000
00000000
10000000
00000000
00010000
00100000
00010000
00000000
,
10000000
00000000
00010000
00000000
00100000
00001000
00100000
00000000
,
00001000
00000000
00010000
00000000
00000010
00001000
00000010
00000000
,
00001000
00000000
00000001
00000000
00000100
00000000
00000010
00001000
,
00000100
00000000
00001000
00000000
00000100
00000000
00010000
00001000
,
00100000
00000000
00010000
00000000
01000000
00000000
00100000
10000000
,
00010000
00100000
00001000
00010000
,
00000010
00001000
00000001
00000100
,
00000010
00001000
00000100
00010000
,
00002000
00000000
00000000
00003000
,
00011000
00000000
00000000
00000000
;

//---------------dance-single - ----------------
#NOTES:
     dance-single:
     :
     Medium:
     9:
     0.308636,0.463837,0.090706,0.371070,0.000000,262.000000,251.000000,11.000000,45.000000,0.000000,0.000000,0.308636,0.463837,0.090706,0.371070,0.000000,262.000000,251.000000,11.000000,45.000000,0.000000,0.000000:
// measure 0
0000
0000
0000
0000
,  // measure 1
0000
0000
0000
0000
,  // measure 2
0000
0000
0000
0000
,  // measure 3
0000
0000
0000
0000
,  // measure 4
0000
0000
0000
0000
,  // measure 5
2000
0000
3001
0100
,  // measure 6
0010
0000
0000
1000
0000
0000
0001
0000
,  // measure 7
0001
0000
0000
0001
0000
0000
0100
0000
,  // measure 8
1000
0000
0000
1000
0000
0000
0100
0000
,  // measure 9
1001
0000
0000
1000
0000
0000
0010
0000
,  // measure 10
0100
0000
0000
0100
0000
0000
0001
0000
,  // measure 11
1000
0000
0000
1000
0000
0000
0001
0000
,  // measure 12
0100
0000
0000
0100
0000
0000
0001
0000
,  // measure 13
1000
0000
0000
0010
0000
0000
1000
0000
,  // measure 14
0001
0000
0000
0100
0000
0000
0001
0000
,  // measure 15
1000
0000
0000
0000
1000
0000
0000
0001
,  // measure 16
2000
0000
0002
3003
,  // measure 17
1000
0000
0010
0000
0100
0000
0001
1000
,  // measure 18
0001
0000
1000
0000
0010
0000
0100
0001
,  // measure 19
0100
0000
0010
0000
1000
0000
0001
0100
,  // measure 20
0001
1000
0010
0100
,  // measure 21
1001
0000
0010
0000
0100
0000
0001
0010
,  // measure 22
0001
0000
0100
0000
0010
0000
1000
0100
,  // measure 23
1000
0000
0010
0000
0100
0000
0001
1000
,  // measure 24
0002
0000
2003
3000
,  // measure 25
0010
0000
0100
0000
0001
0000
1000
0001
,  // measure 26
1000
0000
0010
0000
0100
0000
0001
1000
,  // measure 27
0001
0000
1000
0000
0100
0000
0010
0001
,  // measure 28
0010
0000
0001
0000
0100
0001
0100
0000
,  // measure 29
0001
0000
1000
0000
0010
0000
1000
0010
,  // measure 30
1000
0000
0001
0000
0100
0000
0010
1000
,  // measure 31
0010
0000
0100
0001
,  // measure 32
1001
0000
0220
0330
,  // measure 33
0002
0000
0000
0023
0000
0000
0030
0000
,  // measure 34
0010
0010
0001
0100
,  // measure 35
0020
0000
0000
0200
0000
0000
0330
0000
,  // measure 36
0002
0000
0000
2000
0000
0000
3003
0000
,  // measure 37
0020
0000
0000
2000
0000
0000
3030
0000
,  // measure 38
1000
0000
1000
0000
0100
0000
0000
0001
,  // measure 39
2000
0000
0000
0002
0000
0000
3003
0000
,  // measure 40
0020
0000
0000
0002
0000
0000
0033
0000
,  // measure 41
2000
0000
0000
0002
0000
0000
3003
0000
,  // measure 42
0010
0001
0100
0010
,  // measure 43
0200
0000
0000
2300
0000
0000
3000
0000
,  // measure 44
0200
0000
0000
0302
0000
0000
0003
0000
,  // measure 45
2000
0000
0000
0020
0000
0000
3030
0000
,  // measure 46
1000
0010
0100
0001
,  // measure 47
0200
0000
0000
0020
0000
0000
0330
0000
,  // measure 48
2000
0000
3001
0100
,  // measure 49
0002
0000
0000
0003
,  // measure 50
1000
0100
0010
0001
,  // measure 51
2000
0000
0000
3010
,  // measure 52
0200
0000
0000
0300
,  // measure 53
0001
0000
1000
0001
0000
0000
1000
0000
,  // measure 54
0001
0000
1000
0010
0000
0000
0100
0000
,  // measure 55
0001
0000
0000
1000
0000
0000
0100
0000
,  // measure 56
0010
0000
1000
0001
0000
0010
0001
0000
,  // measure 57
1000
0000
0001
0000
1000
0001
0100
0001
,  // measure 58
1000
0010
0100
0001
,  // measure 59
1000
0000
0010
0000
0100
0001
0100
0010
,  // measure 60
0100
0000
0001
0000
1000
0010
1000
0010
,  // measure 61
1000
0000
0000
0000
0001
0100
0001
0100
,  // measure 62
0001
0000
0000
1000
0000
0000
0010
0000
,  // measure 63
0101
0000
1000
0100
,  // measure 64
0010
0000
0001
0100
0000
0100
0010
0000
,  // measure 65
1000
0000
0101
0000
1000
0010
0100
0001
,  // measure 66
1000
0000
1001
0000
0001
0100
0010
1000
,  // measure 67
0010
0000
0100
0000
0001
1000
0010
1000
,  // measure 68
0001
0000
0100
0000
0010
1000
0010
0000
,  // measure 69
0200
0000
0302
2003
,  // measure 70
3020
0000
0230
0302
,  // measure 71
1003
0000
0000
0001
0100
0000
0010
0000
,  // measure 72
2002
3003
0220
0330
,  // measure 73
1000
0000
0100
0000
0010
0100
0010
0000
,  // measure 74
2002
0000
0000
3003
,  // measure 75
1001
0000
0000
0000
;

//---------------dance-double - ----------------
#NOTES:
     dance-double:
     :
     Easy:
     5:
     0.207328,0.278302,0.065968,0.404054,0.000000,176.000000,168.000000,8.000000,49.000000,0.000000,0.000000,0.207328,0.278302,0.065968,0.404054,0.000000,176.000000,168.000000,8.000000,49.000000,0.000000,0.000000:
00000000
00000000
00000000
00000000
,
00000000
00000000
00000000
00000000
,
00000000
00000000
00000000
00000000
,
00000000
00000000
00000000
00000000
,
00000000
00000000
00000000
00000000
,
00100000
00000000
00001000
00000000
,
00010000
00000000
00000010
00000000
,
00010000
00000000
00001000
00000000
,
01000000
00000000
00010000
00000000
,
20000000
00000000
00000000
30000000
,
00020000
00000000
00000000
00030000
,
00200000
00000000
00000000
00300000
,
00002000
00000000
00000000
00003000
,
00020000
00000000
00000000
00030000
,
00000020
00000000
00000000
00000030
,
00002000
00000000
00000000
00003000
,
00000002
00000000
00002000
00003003
,
00000010
00000010
00000001
00000100
,
00000010
00000010
00001000
00000100
,
00010000
00010000
00001000
00100000
,
00010000
00010000
10000000
00100000
,
01000000
01000000
00010000
10000000
,
01000000
01000000
00010000
10000000
,
00100000
00001000
00010000
00000010
,
00002000
00000000
00000002
00003003
,
00000001
00000000
00001000
00000100
,
00010000
00000000
00001000
00100000
,
00010000
00000000
01000000
10000000
,
01000000
00000000
00010000
00100000
,
00002000
00000000
00013000
00000010
,
00002000
00000000
00003010
00010000
,
00002000
00000000
00103000
00010000
,
10000000
00000000
01100000
00000000
,
20000000
00000000
30000000
00000000
,
00010000
00100000
00001000
00000000
,
00020000
00000000
00030000
00000000
,
00002000
00000000
00003000
00000000
,
00020000
00000000
00030000
00000000
,
00000010
00001000
00000001
00000000
,
00000200
00000000
00000300
00000000
,
00000020
00000000
00000030
00000000
,
00002002
00000000
00003003
00000000
,
00000010
00001000
00000100
00010000
,
00022000
00000000
00033000
00000000
,
00100000
00010000
01000000
00100000
,
20020000
00000000
30030000
00000000
,
00100000
00010000
01000000
00001000
,
00022000
00000000
00033000
00000000
,
00010000
00000010
00001000
00000100
,
00000020
00000000
00000030
00000000
,
00000001
00000000
00001000
00000000
,
00000200
00000000
00000300
00000000
,
00020000
00000000
00030000
00000000
,
00000000
00000000
00000000
00000000
,
00000000
00000000
00000000
00000000
,
00002000
00000000
00020000
00033000
,
00001000
00100000
00010000
01000000
,
00200000
00300000
10000000
01000000
,
00200000
00300000
00010000
01000000
,
00002000
00003000
00010000
00000010
,
00002000
00003000
00000010
00001000
,
00000100
00000010
00000001
00001000
,
00000100
00010000
00001000
01000000
,
00020000
00030000
20000000
30000000
,
00100000
01000000
20020000
30030000
,
00100000
00001000
00020000
00030000
,
00000010
00010000
00002000
00003000
,
00010000
00000100
00010000
00001000
,
01000000
00001000
00010000
00000100
,
00002000
00000000
00000001
00000010
,
00003200
00000000
00010000
00001000
,
00020300
00000000
00001000
00000000
,
00032000
00000000
00100000
00000000
,
00103000
00010000
01000000
00010000
,
00022000
00000000
00033000
00000000
,
00011000
00000000
00000000
00000000
;

//---------------dance-single - ----------------
#NOTES:
     dance-single:
     :
     Easy:
     5:
     0.234422,0.340147,0.131936,0.329840,0.000000,199.000000,183.000000,16.000000,40.000000,0.000000,0.000000,0.234422,0.340147,0.131936,0.329840,0.000000,199.000000,183.000000,16.000000,40.000000,0.000000,0.000000:
0000
0000
0000
0000
,
0000
0000
0000
0000
,
0000
0000
0000
0000
,
0000
0000
0000
0000
,
0000
0000
0000
0000
,
0010
0000
0001
1000
,
0001
0000
1000
0000
,
0010
0000
0100
0100
,
0100
0000
0001
0000
,
2000
0000
3000
0000
,
0002
0000
0003
0000
,
0200
0000
0300
0000
,
0020
0000
0030
0000
,
2000
0000
3100
0010
,
0002
0000
0103
0010
,
2000
0000
3001
0010
,
0200
0000
0020
0330
,
1001
0010
0010
0001
,
1000
0001
1000
0001
,
1001
0100
0100
0001
,
1000
0001
1000
0001
,
0010
0100
0010
1001
,
0100
0010
0100
1001
,
0010
0001
0100
1000
,
2002
3003
0010
0100
,
0002
0000
0103
0010
,
2000
0000
3010
0100
,
0002
0000
1003
0100
,
0020
0000
0031
0100
,
0200
0000
0310
1000
,
2000
0000
3010
0100
,
0001
0000
1001
0000
,
0110
0000
1000
0100
,
0020
0000
0030
0000
,
0001
0100
0010
1000
,
0002
0000
0003
1000
,
0002
0000
0003
1000
,
0200
0000
0300
0000
,
1000
0010
0100
0001
,
2000
0000
3000
0010
,
2000
0000
3000
0001
,
2002
0000
3003
0000
,
0010
0001
0100
0010
,
2002
0000
3003
0000
,
0220
0000
0330
0000
,
2002
0000
3003
0000
,
0010
1000
0001
0100
,
0020
0000
0000
0000
,
0200
0000
0330
0000
,
0002
0000
0003
0000
,
1000
0000
0001
0000
,
2000
0000
3000
0000
,
0002
0000
0003
0000
,
0000
0000
0000
0000
,
0000
0000
0000
0000
,
0010
0000
0100
0000
,
0010
0100
0010
1001
,
1000
0100
1000
0001
,
0100
0001
1000
0100
,
0001
0100
1000
0001
,
0100
0001
1000
0010
,
0001
0010
0001
1000
,
0010
1000
0001
0010
,
1000
0010
0001
0100
,
0020
0000
0200
0330
,
0001
0100
0001
0100
,
1000
0100
1000
0100
,
0001
0010
0001
0010
,
1000
0010
1000
0010
,
0001
0000
0100
0000
,
1000
0000
0010
0000
,
0001
0000
1000
0001
,
1001
0000
0110
0000
,
1000
0100
0010
0001
,
2002
0000
0000
3003
,
1001
0000
0000
0000
;

//---------------dance-single - ----------------
#NOTES:
     dance-single:
     :
     Beginner:
     2:
     0.114266,0.154612,0.008246,0.189658,0.000000,97.000000,96.000000,1.000000,23.000000,0.000000,0.000000,0.114266,0.154612,0.008246,0.189658,0.000000,97.000000,96.000000,1.000000,23.000000,0.000000,0.000000:
0000
0000
0000
0000
,
0000
0000
0000
0000
,
0000
0000
0000
0000
,
0000
0000
0000
0000
,
0000
0000
0000
0000
,
0010
0000
0000
0000
,
0001
0000
0000
0000
,
0100
0000
0000
0000
,
1000
0000
0000
0000
,
0002
0000
0003
0000
,
0001
0000
0000
0000
,
2000
0000
3000
0000
,
1000
0000
0000
0000
,
0020
0000
0030
0000
,
0010
0000
0000
0000
,
0200
0000
0300
0000
,
0100
0000
0000
0000
,
1000
0000
1000
0000
,
1000
0000
1000
0000
,
0001
0000
0001
0000
,
0001
0000
0001
0000
,
1000
0000
1000
0000
,
0001
0000
0001
0000
,
0100
0000
0100
0000
,
0200
0000
0300
0000
,
0002
0000
0003
0000
,
2000
0000
3000
0000
,
0002
0000
0003
0000
,
2000
0000
3000
0000
,
0020
0000
0030
0000
,
0200
0000
0300
0000
,
0010
0000
0010
0000
,
0010
0000
0000
0000
,
0020
0000
0030
0000
,
1000
0000
1000
0000
,
2000
0000
3000
0000
,
0002
0000
0003
0000
,
2000
0000
3000
0000
,
0100
0000
0100
0000
,
0200
0000
0300
0000
,
0002
0000
0003
0000
,
0020
0000
0030
0000
,
0100
0000
0100
0000
,
0200
0000
0300
0000
,
0020
0000
0030
0000
,
2000
0000
3000
0000
,
0001
0000
0001
0000
,
0002
0000
0000
0000
,
0003
0000
0000
0000
,
1000
0000
0000
0000
,
0001
0000
0000
0000
,
1000
0000
0000
0000
,
0001
0000
0000
0000
,
0000
0000
0000
0000
,
0000
0000
0000
0000
,
0010
0000
0000
0000
,
0010
0000
0010
0000
,
1000
0000
1000
0000
,
0001
0000
0001
0000
,
1000
0000
1000
0000
,
0001
0000
0001
0000
,
0010
0000
0100
0000
,
0010
0000
0100
0000
,
0010
0000
0010
0000
,
0200
0000
0300
0000
,
0001
0000
1000
0000
,
0001
0000
1000
0000
,
0010
0000
0100
0000
,
1000
0000
0001
0000
,
0100
0000
0100
0000
,
0010
0000
0010
0000
,
1000
0000
0001
0000
,
1000
0000
0001
0000
,
1000
0000
0001
0000
,
0000
0000
0000
0000
,
1001
0000
0000
0000
;
