#TITLE:ハードベース・フェスタ;
#SUBTITLE:;
#ARTIST:かめりあ feat. ななひら;
#TITLETRANSLIT:HARDBASS FESTA;
#SUBTITLETRANSLIT:;
#ARTISTTRANSLIT:Camellia feat. Nanahira;
#GENRE:beatmaniaIIDX;
#CREDIT:;
#BANNER:HARDBASS FESTA.png;
#BACKGROUND:HARDBASS FESTA-bg.png;
#LYRICSPATH:;
#CDTITLE:;
#MUSIC:HARDBASS FESTA.ogg;
#OFFSET:-0.183000;
#SAMPLESTART:59.423504;
#SAMPLELENGTH:13.670887;
#SELECTABLE:YES;
#BPMS:0.000000=158.000000
;
#STOPS:
;
#BGCHANGES:;
#KEYSOUNDS:;
#ATTACKS:;

//---------------dance-single - ----------------
#NOTES:
     dance-single:
     :
     Hard:
     13:
     0.648935,0.746275,0.583220,0.386075,0.246431,553.000000,482.000000,71.000000,47.000000,0.000000,0.000000,0.648935,0.746275,0.583220,0.386075,0.246431,553.000000,482.000000,71.000000,47.000000,0.000000,0.000000:
0000
0000
0000
0000
,
0000
0000
0000
0000
,
0000
0000
0000
0000
,
0000
0000
0000
0000
,
0000
0000
0000
0000
,
1000
0000
0010
0000
1000
0000
0010
0000
0100
0000
0000
0100
0000
0000
0100
0000
,
0000
0001
0100
1000
0000
1000
0100
0001
,
0000
0000
0001
0000
0001
0000
1000
0000
0010
0000
0000
0010
0000
0000
1001
0000
,
0000
0001
0100
0010
1000
0000
0101
0000
,
1000
0000
1000
0001
0000
0000
0100
0000
0100
0000
0010
0100
0000
0000
0001
0000
,
0001
0000
1000
0001
0000
0000
1000
0000
1000
0000
0010
1000
0000
0000
0010
0000
,
1000
1000
0100
0100
0010
0010
0001
0001
,
1000
0000
0100
0000
0010
0000
0001
0000
1000
0010
1000
0000
0001
0100
0001
0000
,
1001
1000
1000
0000
1001
0001
0001
0000
,
1001
0110
1001
0110
,
1000
0000
0001
0000
1000
0000
0010
0000
1000
0100
0000
0100
1000
0000
0010
0000
,
0100
0000
0001
0000
0100
0000
0010
0000
0100
0001
0000
0001
1000
0000
0010
0000
,
1000
0000
0100
0000
0010
0000
0001
0000
1000
0010
0000
0010
1000
0000
0001
0000
,
0100
0000
0000
0010
0000
0000
1000
0000
0001
0000
0100
0000
0010
0000
0000
0000
,
1000
0000
0100
0000
1000
0000
0100
0000
1000
0010
0000
0010
1000
0000
0001
0000
,
0100
0000
0001
0000
0010
0000
0001
0000
0010
0001
0000
0001
0100
0000
0010
0000
,
1000
0100
0010
0001
0100
0100
0110
0000
,
0002
0203
0320
1030
,
2002
0000
0000
0000
3003
0000
0010
0000
0000
1000
0000
0000
0100
0000
0000
0010
0000
0000
0001
0000
0000
0100
0000
0000
,
0101
0000
0000
0000
0101
0000
0000
0000
1001
0000
0000
1001
0000
0000
1000
0000
,
0010
0100
0010
0100
0001
0010
0100
1000
,
0010
0000
0000
0000
0110
0000
0000
0000
1010
0000
0000
1010
0000
0000
1000
0000
,
0002
0000
0003
0000
0000
0000
0100
0000
0000
0010
0000
0000
1000
0000
0000
0001
0000
0000
0100
0000
0000
0010
0000
0000
,
1000
0000
0100
0000
0010
0000
0001
0000
1000
0010
0000
0010
1000
0000
0001
0000
,
0100
0010
0100
0010
1000
0100
0010
0001
,
1000
0000
0001
0000
1000
0001
0000
0000
0101
0000
0000
2002
0000
0000
3003
0000
,
0010
0000
0000
0000
0110
0000
0000
0000
0001
0000
0000
1001
0000
0000
1000
0000
,
0001
0010
0100
2000
0000
3001
1001
0000
,
0100
0000
0000
0000
0110
0000
0000
0000
1000
0000
0000
1001
0000
0000
0001
0000
,
0000
0000
1000
0001
1000
0000
0001
1000
0001
0000
0000
0000
1001
0000
0000
0000
,
0010
0000
0010
1000
0000
0000
0001
0000
0001
0000
0010
0001
0000
0000
1000
0000
,
1000
0000
0001
1000
0000
0000
0001
0000
0001
0000
1000
0001
0000
0000
1000
0000
,
0100
1000
0100
0010
0001
0010
0001
1000
,
0100
0000
0010
0000
0001
0000
1000
0000
0001
1000
0001
1000
0001
1000
0001
0000
,
1010
0010
0010
0000
0101
0100
0100
0000
,
0110
1001
0110
1001
,
1000
0000
0001
0000
0001
0000
0100
0000
0010
0000
0010
1000
0000
0000
0001
0000
,
0010
0001
1000
0100
1000
0010
0010
0100
,
0000
0000
0001
0000
0100
0000
0010
0000
0100
0000
0001
0100
0000
0000
0010
0000
,
0010
1000
0100
0010
0001
0001
1000
0000
,
0001
0000
0100
0000
0010
0000
0100
0000
0001
0000
0001
1000
0000
0000
0010
0000
,
0010
1000
0100
0010
0010
0001
0100
0010
,
0000
0000
0001
0000
1000
0000
0001
0000
1000
0000
1000
0010
0000
0000
0100
0000
,
0100
0001
1000
0010
0110
0000
1001
0000
,
2200
3300
0202
0303
2020
3030
0022
0033
,
2200
3300
0022
0033
0100
0010
1000
0000
,
0001
0100
0001
0100
1000
0100
1000
0100
,
0001
0100
1000
0100
0001
0000
1001
0000
,
2200
3300
0022
0033
2020
3030
0202
0303
,
2200
3300
0220
0330
0022
0033
1001
0000
,
0001
0010
0001
0010
1000
0010
1000
0010
,
0001
0010
1000
0010
0001
0000
1001
0000
,
0020
0000
0000
0000
0000
0000
0000
0000
1030
0000
0000
1000
0000
0000
0001
0000
,
0100
0000
0000
0000
0110
0000
0000
0000
1000
0000
0000
0001
0000
0000
1000
0000
,
0010
0000
0100
0010
0000
0000
1000
0000
1000
0000
0001
1000
0000
0000
0010
0000
,
0110
0000
0000
0000
1001
0000
0000
0000
0101
0000
0000
0101
0000
0000
0100
0000
,
0010
0000
1000
0010
0000
0000
0100
0000
0100
0000
0000
0000
1001
0000
0000
0000
,
0001
0000
1000
0001
0000
0000
1000
0000
0001
0000
0000
0000
1001
0000
0000
0000
,
0010
1000
2020
3030
0010
0001
0022
0033
,
0100
0010
0100
0000
0010
0100
0010
0000
1000
0001
1000
0001
1000
0001
1000
0000
,
1010
0010
0010
0000
0101
0100
0100
0000
,
0011
1100
0110
1001
,
0001
0100
0001
0100
1000
0100
1000
0100
,
0001
0000
0010
0000
0100
0000
1001
0000
0000
0000
0110
0000
1000
0000
0010
0100
,
0010
1000
0100
0010
0001
0100
0220
0330
,
0001
0100
0000
0100
0010
0000
1000
0000
0001
0000
0011
0000
0000
0000
1001
0000
,
2002
0000
3003
0000
1000
0000
0001
0000
1000
0010
1000
0000
0010
1000
0010
0000
,
1000
0000
0100
0000
0010
0000
0001
0000
0100
0010
0100
0000
0010
0000
0000
0000
,
1000
0000
0001
0000
1000
0000
0100
0000
0010
0001
0010
0000
0001
0010
0001
0000
,
0200
0000
0010
0310
,
2002
0000
0000
0000
,
0000
0000
0000
0000
,
0000
0000
0000
0000
,
0000
0000
0000
0000
,
3003
0000
0000
0000
;

//---------------dance-double - ----------------
#NOTES:
     dance-double:
     :
     Hard:
     13:
     0.612557,0.681381,0.624292,0.098572,0.201252,522.000000,446.000000,76.000000,12.000000,0.000000,0.000000,0.612557,0.681381,0.624292,0.098572,0.201252,522.000000,446.000000,76.000000,12.000000,0.000000,0.000000:
00000000
00000000
00000000
00000000
,
00000000
00000000
00000000
00000000
,
00000000
00000000
00000000
00000000
,
00000000
00000000
00000000
00000000
,
00000000
00000000
00000000
00000000
,
10000000
00010000
10000000
00010000
01000000
00100000
01000000
00100000
,
10000000
01000000
00100000
00010000
00000000
00100000
00001000
00010000
,
00000000
00001000
00010000
00001000
00010000
00000100
00000000
00001000
,
00000000
00000001
00000010
00000100
00001000
00000000
00000010
00000000
,
00001001
00000000
00000000
00001001
00000000
00000000
00000000
00000000
00001100
00000000
00000000
00001100
00000000
00000000
00000000
00000000
,
00011000
00000000
00000000
00011000
00000000
00000000
00000000
00000000
10010000
00000000
00000000
10010000
00000000
00000000
00000000
00000000
,
10000000
01000000
00100000
00010000
00100000
00001000
00010000
00001000
,
00010000
00000000
00000100
00000000
00001000
00000000
00000010
00000000
00000100
00000010
00000100
00000010
00000100
00000010
00000100
00000000
,
00000110
00000000
00001001
00000000
,
00001001
00011000
10010000
01100000
,
00100000
00000000
10000000
00000000
01000000
00000000
00100000
00000000
00001000
00010000
00000000
00010000
00001000
00000000
00010000
00000000
,
00000100
00000000
00001000
00000000
00000010
00000000
00000100
00000000
00000001
00001000
00000000
00001000
00000001
00000000
00001000
00000000
,
00000100
00000000
00010000
00000000
00001000
00000000
00100000
00000000
00010000
00100000
00000000
00100000
00010000
00000000
01000000
00000000
,
00100000
10000000
01000000
00100000
00010000
00000000
00011000
00000000
,
00010000
00000000
00000100
00000000
00001000
00000000
00000010
00000000
00000100
00000001
00000000
00000001
00000100
00000000
00000010
00000000
,
00001000
00000000
00000100
00000000
00010000
00000000
00001000
00000000
00001000
00100000
00000000
00100000
00010000
00000000
01000000
00000000
,
00100000
00000000
10000000
00010000
00100000
00000000
00110000
00000000
,
00100000
00001000
00010000
00000000
00011000
00000000
00101000
00000000
,
02000000
00000000
03100000
10000000
01000000
00100000
00010000
00001000
,
00010000
00000000
00000000
00000000
00011000
00000000
00000000
00000000
00000100
00000000
00000000
00001000
00000000
00000000
00001010
00000000
,
00001000
00000100
00000010
00000001
00001000
00000100
00010000
00001000
,
00011000
00000000
00000000
00000000
00001000
00000000
00000000
00000000
00101000
00000000
00000000
00100000
00000000
00000000
00010000
00000000
,
02000000
00000000
03100000
10000000
01000000
00100000
00010000
00100000
,
00002000
00000000
00000000
00000000
00013000
00000000
00000000
00000000
00010000
00000000
00000000
00001000
00000000
00000000
00010000
00000000
,
00000100
00001000
00000100
00000010
00000001
00001000
00000100
00010000
,
00001000
00000000
00000000
00000000
00011000
00000000
00000000
00000000
00010000
00000000
00000000
00011000
00000000
00000000
00000000
00000000
,
00001000
00000000
00100000
00000000
00010000
00000000
00000000
00000000
10010000
00000000
00000000
10010000
00000000
00000000
10000000
00000000
,
00100000
01000000
00010000
10010000
00000000
00100000
00100000
00000000
,
00001000
00000000
00010000
00000000
00000100
00000000
00000000
00000000
00001001
00000000
00000000
00001001
00000000
00000000
00000010
00000000
,
00001000
00000000
00000100
00001000
00000100
00000000
00010000
00000100
00010000
00000000
00001000
00000000
00100000
00000000
00000000
00000000
,
00010000
00000000
01000000
00010000
00000000
00000000
10000000
00000000
10000000
00000000
00100000
10000000
00000000
00000000
00010000
00000000
,
00010000
00000000
00100000
00010000
00000000
00000000
00100000
00000000
00100000
00000000
00001000
00100000
00000000
00000000
00001000
00000000
,
00010000
00000100
00001000
00000001
00001000
00000100
00000010
00000001
,
00001000
00000000
00000100
00000000
00010000
00000000
00001000
00000000
00010000
00001000
00010000
00001000
00010000
00001000
00010000
00000000
,
00011000
00000000
10010000
00000000
,
00011000
00001010
00011000
00101000
,
00010000
00000000
00001000
00000000
00010000
00000000
00000100
00000000
00010000
00000000
00000010
00001000
00000000
00001000
00000010
00000000
,
00001000
00000001
00000100
00000010
00001000
00000100
00010000
00001000
,
00100000
00000000
00010000
00000000
01000000
00000000
00100000
00000000
10000000
00000000
00010000
10000000
00000000
10000000
00010000
00000000
,
00100000
00001000
00010000
00000100
00001000
00000010
00001010
00000000
,
00000001
00000000
00000100
00000000
00000010
00000000
00001000
00000000
00000100
00000000
00010000
00000100
00000000
00000100
00010000
00000000
,
00001000
00100000
00010000
01000000
00100000
10000000
01000000
00100000
,
00001000
00000000
00010000
00000000
00000100
00000000
00010000
00000000
00001000
00000000
00010000
00001000
00000000
00000000
00010000
00000000
,
00000100
00001000
00000010
00000100
00001001
00000000
00000110
00000000
,
00001100
00011000
00110000
01010000
,
00100000
10000000
01000000
00100000
00110000
00000000
01010000
00000000
,
10000000
01000000
10000000
01000000
00010000
01000000
00010000
01000000
,
10000000
01000000
00010000
01000000
10000000
00000000
10100000
00000000
,
00110000
00110000
00011000
00011000
,
00001010
00001001
00001100
00000011
,
00001000
00000010
00001000
00000010
00000001
00000010
00000001
00000010
,
00001000
00000010
00000001
00000010
00000100
00000000
00001000
00000000
,
00022000
00000000
00000000
00033000
,
00100000
00000000
00100000
00000000
00100000
00000000
00000000
00000000
10010000
00000000
00000000
10010000
00000000
00000000
00000000
00000000
,
20020000
00000000
00000000
30030000
,
00100000
00000000
00001000
00000000
00010000
00000000
00000000
00000000
00001000
00000000
00000000
00001000
00000000
00000000
00000000
00000000
,
00010000
00000000
00000000
00011000
00000000
00000000
01000000
00000000
01000000
00000000
00000000
00000000
10010000
00000000
00000000
00000000
,
01000000
00000000
00000000
01000000
00000000
00000000
00001000
00000000
00010000
00000000
00000000
00000000
00010100
00000000
00000000
00000000
,
00001000
00000100
00001010
00000000
00000001
00000100
00001010
00000000
,
00001000
00000000
00000100
00000000
00000010
00000000
00000001
00000000
00001000
00000001
00001000
00000001
00001000
00000001
00001000
00000000
,
00001001
00000000
00011000
00000000
,
10010000
01010000
00110000
10010000
,
10000000
00100000
10000000
00100000
01000000
01000000
01100000
00000000
,
00010000
00100000
00001000
00010000
00000000
00011000
00011000
00000000
,
00010000
00000100
00001000
00000100
00000010
00000001
00002002
00003003
,
00000010
00000000
00000000
00000010
00000000
00000000
00001000
00000000
00000100
00000000
00000110
00000000
00000000
00000000
00001001
00000000
,
00001001
00000000
00000010
00001000
00000100
00010000
00001000
00000000
,
00100000
00010000
10000000
01000000
00100000
00001000
00010000
00000000
,
00001000
00000000
00001000
00000000
00010000
00000000
00000100
00000000
00001000
00000010
00001000
00000010
00001000
00000000
00000001
00000000
,
00001000
00000000
00000000
00000000
00000200
00000000
00010300
00001000
,
00022000
00000000
00000000
00000000
,
00000000
00000000
00000000
00000000
,
00000000
00000000
00000000
00000000
,
00000000
00000000
00000000
00000000
,
00033000
00000000
00000000
00000000
;

//---------------dance-double - ----------------
#NOTES:
     dance-double:
     :
     Medium:
     8:
     0.444749,0.584041,0.648935,0.172502,0.016429,379.000000,300.000000,79.000000,21.000000,0.000000,0.000000,0.444749,0.584041,0.648935,0.172502,0.016429,379.000000,300.000000,79.000000,21.000000,0.000000,0.000000:
00000000
00000000
00000000
00000000
,
00000000
00000000
00000000
00000000
,
00000000
00000000
00000000
00000000
,
00000000
00000000
00000000
00000000
,
00000000
00000000
00000000
00000000
,
00100000
01000000
00100000
01000000
00100000
00000000
10000000
00000000
,
00010000
00100000
00010000
00100000
00010000
00000000
00100000
00000000
,
00001000
00010000
00000010
00001000
,
00000001
00000100
00000001
00000100
00000010
00000000
00001000
00000000
,
00002200
00003300
00000022
00000033
,
00002002
00003003
00000220
00000330
,
00000101
00001100
00000101
00001100
,
00000010
00000100
00000010
00000100
00000010
00000100
00000010
00000000
,
00001001
00000000
00011000
00000000
,
00010000
00100000
01000000
10010000
,
00100000
00000000
10000000
00000000
00010000
00100000
00010000
00000000
,
00100000
00000000
00001000
00000000
00010000
00000100
00010000
00000000
,
00000010
00000000
00001000
00000000
00000001
00000100
00000010
00000000
,
00001000
00000101
00001000
00000101
,
00001000
00000000
00000010
00000000
00010000
00001000
00010000
00000000
,
00001000
00000000
00100000
00000000
00010000
01000000
00100000
00000000
,
10100000
00000000
01010000
00000000
00100000
00001000
00010000
00000000
,
00020000
00000000
00031000
00011000
,
00020000
00000000
00030100
00000000
00001000
00000010
00000100
00000000
,
00000001
00000000
00000000
00000000
00001001
00000000
00000000
00000000
00000010
00000000
00000000
00000010
00000000
00000000
00000000
00000000
,
00001000
00000000
00001100
00000000
00000100
00010000
00001000
00000000
,
00010000
00000000
00000000
00000000
00011000
00000000
00000000
00000000
00001000
00000000
00000000
00001000
00000000
00000000
00000000
00000000
,
00200000
00000000
00310000
00000000
01000000
00100000
10000000
00000000
,
00010000
00000000
00010000
00000000
00100000
00001000
00100000
00000000
,
00001000
00010000
00000010
00001000
,
00000101
00001001
00000220
00000330
,
00001001
00000000
00000000
00000000
00001000
00000100
00001000
00000000
,
00000010
00000010
00000010
00001001
,
00000100
00000000
00010000
00000000
00001000
00010000
00001000
00000000
,
00000000
00001000
00010000
00001000
00010000
00000000
00001000
00000000
,
00100000
00010000
00100000
00000000
01000000
10000000
01000000
00000000
,
00100000
00010000
00100000
00000000
00001000
00010000
00001000
00000000
,
00011000
00011000
01010000
01010000
,
11000000
01100000
00110000
00011000
,
00010010
00000000
01001000
00000000
,
00010100
00010100
00101000
00101000
,
00000000
00000000
00100000
00000000
00010000
01000000
10000000
00000000
,
00100000
10000000
01000000
00010000
,
00100000
00000000
00001000
00000000
00010000
00000100
00001000
00000000
,
00000010
00000001
00000101
00001010
,
00000010
00000000
00001000
00000000
00000100
00010000
00001000
00000000
,
00010000
00001000
00100000
01010000
,
00100000
10000000
01000000
00000000
00100000
00010000
00000000
01000000
,
00000000
00100000
10000000
00000000
01010000
00000000
10100000
00000000
,
11000000
11000000
00110000
00110000
,
00101000
00101000
00010100
00010100
,
00001000
00000100
00001000
00000000
00000001
00000010
00000001
00000000
,
00001000
00000100
00001000
00000000
00001100
00000000
00011000
00000000
,
00110000
00110000
10010000
10010000
,
01010000
01010000
00100000
00011000
,
00010000
00000100
00010000
00000000
00000100
00000000
00001000
00000010
,
00000000
00000100
00000001
00000000
00001001
00000000
00000110
00000000
,
00002002
00000000
00000000
00003003
,
00000100
00000000
00000000
00000000
00010000
00000000
00000000
00000000
00001000
00000000
00000000
00001000
00000000
00000000
00000000
00000000
,
20020000
00000000
00000000
30030000
,
01000000
00000000
00000000
00000000
00001000
00000000
00000000
00000000
00010000
00000000
00000000
00010000
00000000
00000000
00000000
00000000
,
00011000
00000000
00001000
00001001
,
00001000
00000000
00010000
00011000
,
01000000
01010000
01000000
11000000
,
01010000
01010000
00101000
00101000
,
00011000
00000000
10010000
00000000
,
00011000
00011000
00011000
00000000
,
00010000
00000000
00000100
00000000
00001000
00000100
00000010
00000000
,
00000001
00000000
00000100
00000000
00000010
00000100
00001000
00000000
,
00000100
00000000
00010000
00000000
00001000
00100000
00010000
00000000
,
01000000
00000000
00100000
00000000
10000000
00010000
00000000
10000000
,
00010000
00000000
00100000
00000000
00001000
00010000
00001000
00000000
,
00010000
00000000
00000010
00000000
00001000
00000001
00001000
00000000
,
00000010
00001000
00000010
00000000
00001000
00000100
00001000
00000000
,
00000200
00000000
00020000
00030300
,
00022000
00000000
00000000
00000000
,
00000000
00000000
00000000
00000000
,
00000000
00000000
00000000
00000000
,
00000000
00000000
00000000
00000000
,
00033000
00000000
00000000
00000000
;

//---------------dance-single - ----------------
#NOTES:
     dance-single:
     :
     Medium:
     8:
     0.427147,0.551594,0.558577,0.328574,0.000000,364.000000,296.000000,68.000000,40.000000,0.000000,0.000000,0.427147,0.551594,0.558577,0.328574,0.000000,364.000000,296.000000,68.000000,40.000000,0.000000,0.000000:
// measure 0
0000
0000
0000
0000
,  // measure 1
0000
0000
0000
0000
,  // measure 2
0000
0000
0000
0000
,  // measure 3
0000
0000
0000
0000
,  // measure 4
0000
0000
0000
0000
,  // measure 5
0010
0000
0010
0000
1000
0010
1000
0000
,  // measure 6
0001
0100
1000
0100
,  // measure 7
0001
0000
0001
0000
1000
0010
1000
0000
,  // measure 8
0010
0100
0001
1000
,  // measure 9
2002
3003
0220
0330
,  // measure 10
2200
3300
0022
0033
,  // measure 11
1000
1010
0001
0101
,  // measure 12
1000
0001
1000
0001
1000
0001
1000
0000
,  // measure 13
0110
0000
1001
0000
,  // measure 14
0110
0110
1001
1001
,  // measure 15
1000
0000
0001
0000
1000
0001
1000
0000
,  // measure 16
0001
0000
1000
0000
0001
1000
0001
0000
,  // measure 17
0100
0000
0010
0000
0100
0100
0100
0000
,  // measure 18
0010
0010
0010
0000
0100
0000
1001
0000
,  // measure 19
0001
0000
0010
0000
1000
0100
1000
0000
,  // measure 20
0010
0000
0001
0000
1000
0100
1000
0000
,  // measure 21
0010
0001
0100
1000
,  // measure 22
0010
0100
0010
0000
2002
0000
3003
0000
,  // measure 23
0000
0000
0100
0000
0001
1000
0100
0000
,  // measure 24
0010
0010
2002
3003
,  // measure 25
0010
0000
0100
0000
0001
1000
0100
0000
,  // measure 26
0100
0100
2002
3003
,  // measure 27
0000
0000
0011
0000
1000
0010
1000
0000
,  // measure 28
0001
0000
0100
0000
1000
0100
1000
0000
,  // measure 29
0010
0001
0100
1000
,  // measure 30
0020
0000
0200
0330
,  // measure 31
0001
0100
1000
1000
,  // measure 32
0001
0100
0001
1000
0000
0001
1000
0000
,  // measure 33
0010
0001
0010
1000
,  // measure 34
0000
0010
0100
0010
0100
0000
1001
0000
,  // measure 35
2200
3300
0022
0033
,  // measure 36
0220
0330
2002
3003
,  // measure 37
1100
0011
1100
0011
,  // measure 38
1000
0001
1000
0001
1000
0001
1000
0000
,  // measure 39
0110
0000
1001
0000
,  // measure 40
1100
0110
0011
0110
,  // measure 41
1000
0010
1000
0000
0001
0000
0100
0000
,  // measure 42
0001
0010
0001
0000
1000
0100
1000
0000
,  // measure 43
0001
0000
0100
0000
1000
0010
0100
0000
,  // measure 44
0001
0100
0010
0000
1000
0000
1001
0000
,  // measure 45
0010
0000
0100
0000
0001
0100
0001
0000
,  // measure 46
1000
0100
1000
0000
0010
0100
0010
0000
,  // measure 47
1000
1010
0100
0101
,  // measure 48
1000
0100
0010
0000
0001
0000
1001
0000
,  // measure 49
0020
0100
0100
0130
,  // measure 50
0001
0100
0001
0000
1000
0100
1000
0000
,  // measure 51
0010
0100
0010
0000
1000
0001
1000
0000
,  // measure 52
0101
1100
0011
1010
,  // measure 53
0200
0010
0010
0310
,  // measure 54
1000
0010
1000
0000
0001
0010
0001
0000
,  // measure 55
1000
0100
1000
0000
0001
0100
0001
0000
,  // measure 56
0010
1000
0010
1000
0010
0000
0100
0000
,  // measure 57
2002
0000
0000
3003
,  // measure 58
0110
1001
0220
0330
,  // measure 59
2002
0000
0000
3003
,  // measure 60
1100
0011
0220
0330
,  // measure 61
0101
0000
1100
0010
,  // measure 62
0101
0000
1010
0100
,  // measure 63
1001
0010
1001
0100
,  // measure 64
1100
0011
0110
1001
,  // measure 65
0020
0030
0200
0300
,  // measure 66
0101
1100
0011
1010
,  // measure 67
0001
0100
0001
0000
1000
0100
1000
0000
,  // measure 68
0001
0010
0100
0000
1000
0100
0010
0000
,  // measure 69
0001
0000
0100
0000
1000
0010
0100
0000
,  // measure 70
1001
0100
0011
1010
,  // measure 71
0100
0000
0001
0000
1000
0001
1000
0000
,  // measure 72
0010
1000
0100
0000
0010
0001
0100
0000
,  // measure 73
0001
1000
0110
1000
,  // measure 74
2002
0000
0000
3003
,  // measure 75
2002
0000
0000
0000
,  // measure 76
0000
0000
0000
0000
,  // measure 77
0000
0000
0000
0000
,  // measure 78
0000
0000
0000
0000
,  // measure 79
3003
0000
0000
0000
;

//---------------dance-single - ----------------
#NOTES:
     dance-single:
     :
     Beginner:
     4:
     0.184236,0.259574,0.057501,0.065715,0.000000,157.000000,150.000000,7.000000,8.000000,0.000000,0.000000,0.184236,0.259574,0.057501,0.065715,0.000000,157.000000,150.000000,7.000000,8.000000,0.000000,0.000000:
0000
0000
0000
0000
,
0000
0000
0000
0000
,
0000
0000
0000
0000
,
0000
0000
0000
0000
,
0000
0000
0000
0000
,
0010
0000
1000
0000
,
0001
0000
0100
0000
,
0001
0000
1000
0000
,
0010
0000
0100
0000
,
1001
0000
0000
0000
,
0000
0000
0000
0000
,
1000
0000
1000
0000
,
1000
1000
1000
0000
,
0001
0000
0001
0000
,
0001
0001
0001
0000
,
1000
0000
1000
0000
,
0001
0000
0001
0000
,
0100
0000
0100
0000
,
0010
0000
0010
0000
,
0001
0000
1000
0000
,
0001
0000
1000
0000
,
0010
0000
0100
0000
,
0010
0000
0100
0000
,
0000
0000
0001
0000
,
1000
1000
1000
0000
,
0001
0000
1000
0000
,
0001
0001
0001
0000
,
0000
0000
0100
0000
,
0100
0100
0100
0000
,
0010
0000
0010
0000
,
0020
0000
0030
0000
,
0001
0000
1000
0000
,
0001
0001
0001
0000
,
1000
0000
0001
0000
,
1000
1000
1000
0000
,
0010
0000
0100
0000
,
1000
0000
0001
0000
,
1000
0000
1000
0000
,
0001
0001
0001
0000
,
1000
0000
0001
0000
,
0100
0100
0100
0000
,
1000
1000
1000
0000
,
0001
0000
1000
0000
,
0001
0001
0001
0000
,
0100
0000
0010
0000
,
0010
0010
0010
0000
,
0100
0000
0100
0000
,
0001
0000
1000
0000
,
0010
0010
0010
0000
,
0020
0000
0030
0000
,
0001
0000
1000
0000
,
0010
0010
0010
0000
,
0100
0000
0010
0000
,
0200
0000
0300
0000
,
1000
0000
0001
0000
,
1000
1000
1000
0000
,
0010
0010
0010
0000
,
1001
0000
0000
0000
,
0010
0010
0010
0000
,
1001
0000
0000
0000
,
0100
0100
0100
0000
,
1000
0000
0100
0000
,
0010
0000
0001
0000
,
1000
0000
0001
0000
,
2002
0000
0000
3003
,
1001
0000
1001
0000
,
0001
0001
0001
0000
,
0001
0000
1000
0000
,
0001
0000
1000
0000
,
0010
0000
0100
0000
,
0010
0010
0000
0010
,
0010
0000
1000
0000
,
0100
0000
0001
0000
,
1000
1000
1000
0000
,
0020
0000
0030
0000
,
2002
0000
0000
0000
,
0000
0000
0000
0000
,
0000
0000
0000
0000
,
0000
0000
0000
0000
,
3003
0000
0000
0000
;

//---------------dance-double - ----------------
#NOTES:
     dance-double:
     :
     Easy:
     5:
     0.308625,0.389361,0.303931,0.295717,0.000000,263.000000,226.000000,37.000000,36.000000,0.000000,0.000000,0.308625,0.389361,0.303931,0.295717,0.000000,263.000000,226.000000,37.000000,36.000000,0.000000,0.000000:
00000000
00000000
00000000
00000000
,
00000000
00000000
00000000
00000000
,
00000000
00000000
00000000
00000000
,
00000000
00000000
00000000
00000000
,
00000000
00000000
00000000
00000000
,
00100000
00100000
00001000
00001000
,
00010000
00010000
00000010
00000010
,
00001000
00000100
00000010
00000001
,
00001000
00000100
00020000
00030000
,
00002000
00003000
00200000
00300000
,
00020000
00030000
20000000
30000000
,
00100000
00100000
01000000
01000000
,
10000000
00010000
10000000
00010000
,
10010000
00000000
01100000
00000000
,
10010000
10010000
10010000
00000000
,
10000000
00100000
01000000
00010000
,
00100000
00001000
00010000
00000010
,
00001000
00000100
00000010
00000001
,
00002000
00003000
00000010
00000100
,
00000001
00000001
00001000
00001000
,
00000100
00010000
00001000
00100000
,
00010000
00010000
01000000
01000000
,
00100000
10000000
20020000
30030000
,
00100000
00001000
00010000
00010000
,
00000010
00010000
00001000
00001000
,
01000000
00010000
00100000
00100000
,
00001000
00010000
00000200
00000300
,
00001000
00000010
00000001
00000010
,
00001000
00000100
00010000
00001000
,
00010000
00001000
00100000
00010000
,
20020000
30030000
02200000
03300000
,
10010000
00000000
00000000
00000000
,
00100000
00001000
00010000
00000010
,
00001001
00000000
00000000
00000000
,
00000010
00010000
00001000
00100000
,
10010000
00000000
01100000
00000000
,
10010000
00000000
00110000
00000000
,
00100000
00001000
00010000
00000100
,
00001000
00000010
00000100
00000001
,
00001001
00000000
00000110
00000000
,
00001001
00001001
00001001
00000000
,
00000010
00001000
00000100
00000010
,
00000001
00000100
00000010
00000010
,
00000001
00000100
00000010
00001000
,
00000100
00010000
00001000
00011000
,
00010000
00001000
01000000
00010000
,
10000000
00100000
01000000
00010000
,
00100000
00001000
00010000
00010000
,
00000010
00010000
00001000
00011000
,
00002000
00000000
00000000
00003000
,
00100000
00010000
01000000
10000000
,
20020000
00000000
00000000
30030000
,
00100000
00001000
00010000
00000100
,
00002002
00000000
00000000
00003003
,
00000010
00001000
00000100
00010000
,
00022000
00033000
00022000
00033000
,
00001000
00100000
00010000
01000000
,
20020000
00000000
00000000
30030000
,
00100000
00100000
00001000
00010000
,
00022000
00000000
00000000
00033000
,
00000010
00000010
00010000
00001000
,
00000200
00000300
00000020
00000030
,
00002000
00003000
00000002
00000003
,
00001010
00000000
00000101
00000000
,
00000010
00000010
00000010
00000010
,
00002002
00003003
00000220
00000330
,
00001001
00001001
00001001
00000000
,
00000010
00001000
00000100
00010000
,
00001000
01000000
00010000
00100000
,
01000000
10000000
00100000
01000000
,
00010000
10000000
00000000
01100000
,
01100000
00000000
10000000
01000000
,
00010000
00100000
00001000
00010000
,
00000100
00001000
00000010
00000001
,
00001000
00000100
00010000
00000000
,
00022000
00000000
00000000
00000000
,
00000000
00000000
00000000
00000000
,
00000000
00000000
00000000
00000000
,
00000000
00000000
00000000
00000000
,
00033000
00000000
00000000
00000000
;

//---------------dance-single - ----------------
#NOTES:
     dance-single:
     :
     Easy:
     5:
     0.295717,0.389361,0.320360,0.262860,0.000000,252.000000,213.000000,39.000000,32.000000,0.000000,0.000000,0.295717,0.389361,0.320360,0.262860,0.000000,252.000000,213.000000,39.000000,32.000000,0.000000,0.000000:
// measure 0
0000
0000
0000
0000
,  // measure 1
0000
0000
0000
0000
,  // measure 2
0000
0000
0000
0000
,  // measure 3
0000
0000
0000
0000
,  // measure 4
0000
0000
0000
0000
,  // measure 5
0010
0010
1000
0001
,  // measure 6
1000
0100
0001
0100
,  // measure 7
1000
1000
0001
0001
,  // measure 8
0010
0100
2002
3003
,  // measure 9
1001
0000
0110
0000
,  // measure 10
1001
0000
0110
0000
,  // measure 11
1000
0100
0010
0001
,  // measure 12
1000
1000
0001
0001
,  // measure 13
0110
0000
1001
0000
,  // measure 14
0110
0110
1001
0000
,  // measure 15
1000
0001
1000
0100
,  // measure 16
0010
0001
0100
0100
,  // measure 17
0001
0010
0100
1000
,  // measure 18
0010
0010
0100
1001
,  // measure 19
0001
0010
1000
1000
,  // measure 20
1000
0010
0001
0001
,  // measure 21
0100
0010
1000
0001
,  // measure 22
0100
0010
2002
3003
,  // measure 23
0000
1000
0100
0001
,  // measure 24
2002
0000
0000
3003
,  // measure 25
0001
0010
0100
1000
,  // measure 26
2002
0000
0000
3003
,  // measure 27
0000
0010
0100
1000
,  // measure 28
0001
0100
1000
1000
,  // measure 29
0010
0001
0100
1000
,  // measure 30
0020
0000
0200
0330
,  // measure 31
2002
0000
3003
0000
,  // measure 32
0001
0100
1000
0100
,  // measure 33
2002
0000
3003
0000
,  // measure 34
1000
0010
0001
0010
,  // measure 35
1001
0000
0110
0000
,  // measure 36
1001
0000
0110
0000
,  // measure 37
1000
1000
0001
0001
,  // measure 38
1000
0100
0010
0001
,  // measure 39
1001
0000
0110
0000
,  // measure 40
1000
0100
0010
1001
,  // measure 41
0000
1000
0001
0100
,  // measure 42
0001
0001
1000
1000
,  // measure 43
0000
0001
1000
0100
,  // measure 44
0001
0001
1000
1000
,  // measure 45
0000
0100
0001
1000
,  // measure 46
0010
0010
0100
0100
,  // measure 47
0010
1000
0100
0001
,  // measure 48
0010
0001
0100
0000
,  // measure 49
0020
0000
0000
0030
,  // measure 50
0001
0001
1000
1000
,  // measure 51
0020
0000
0000
0030
,  // measure 52
1000
1000
0001
0001
,  // measure 53
2002
0000
0000
3003
,  // measure 54
0100
0010
0100
0010
,  // measure 55
2002
0000
0000
3003
,  // measure 56
0010
0100
0010
0100
,  // measure 57
2002
0000
0000
3003
,  // measure 58
0010
0001
0200
0300
,  // measure 59
2002
0000
0000
3003
,  // measure 60
0100
1000
0020
0030
,  // measure 61
0101
0000
1100
0000
,  // measure 62
0101
0000
1100
0000
,  // measure 63
0010
0010
0010
0010
,  // measure 64
0220
0000
0000
0330
,  // measure 65
1001
0000
1001
0000
,  // measure 66
1001
1001
1001
0000
,  // measure 67
0001
0001
1000
1000
,  // measure 68
0001
0100
1000
0010
,  // measure 69
0001
0001
1000
1000
,  // measure 70
0010
1000
0100
0001
,  // measure 71
0010
0010
0100
0100
,  // measure 72
1000
0001
1000
0001
,  // measure 73
1000
0100
0010
0001
,  // measure 74
0220
0000
0330
0000
,  // measure 75
2002
0000
0000
0000
,  // measure 76
0000
0000
0000
0000
,  // measure 77
0000
0000
0000
0000
,  // measure 78
0000
0000
0000
0000
,  // measure 79
3003
0000
0000
0000
;
