#TITLE:Glory;
#SUBTITLE:;
#ARTIST:kradness;
#TITLETRANSLIT:;
#SUBTITLETRANSLIT:;
#ARTISTTRANSLIT:;
#GENRE:;
#CREDIT:;
#BANNER:Glory.png;
#BACKGROUND:Glory-bg.png;
#LYRICSPATH:;
#CDTITLE:;
#MUSIC:Glory.ogg;
#OFFSET:-0.024000;
#SAMPLESTART:75.139992;
#SAMPLELENGTH:12.000000;
#SELECTABLE:YES;
#BPMS:0.000000=134.000000
;
#STOPS:
;
#BGCHANGES:0.000=Glory.avi=1.000=0=0=0=StretchNoLoop====,
99999=-nosongbg-=1.000=0=0=0 // don't automatically add -songbackground-
;
#KEYSOUNDS:;
#ATTACKS:;

//---------------dance-single - ----------------
#NOTES:
     dance-single:
     :
     Hard:
     11:
     0.450496,0.488829,0.235092,0.251305,0.012160,389.000000,360.000000,29.000000,31.000000,0.000000,0.000000,0.450496,0.488829,0.235092,0.251305,0.012160,389.000000,360.000000,29.000000,31.000000,0.000000,0.000000:
0000
0000
0000
0000
,
0000
0000
0000
0000
,
0000
0000
0000
0000
,
0000
0000
0000
0000
,
0000
0000
0000
0000
,
0000
0000
0000
0000
,
0020
0000
0000
0000
0000
1000
0000
2030
,
0000
0000
0000
0001
,
3002
0000
0000
0000
0000
0100
0000
0203
,
0000
0000
0000
0000
0300
0001
0100
0002
,
1000
0000
1000
0000
1003
0010
0100
0002
,
0000
0010
0000
0013
0001
0100
0010
1000
,
0002
0000
0100
0000
0103
0001
1000
0020
,
0000
0230
0000
0301
1000
0100
0010
0002
,
0100
0000
0100
0000
0103
0010
1000
0002
,
0000
0010
0000
0013
0001
1000
0010
0200
,
0010
0000
0320
0000
1030
0001
1000
0002
,
0000
0023
0000
0130
0010
0000
1001
0000
,
1000
0010
1000
0100
0010
0001
1000
0000
,
0001
0010
0001
1000
0100
0010
0001
0000
,
1000
0010
1000
0001
0100
0010
1000
0000
,
0001
0010
0001
0100
0010
1000
0001
0000
,
1000
0001
0001
0100
0000
1000
1000
0100
,
0000
0010
0010
1000
0000
0010
0010
0001
,
0202
0303
2200
3300
,
0011
0000
0110
0000
1000
0001
1001
0000
,
1000
0010
1000
0010
0001
0010
0001
0010
,
1000
0100
1000
0100
0001
0100
0001
0100
,
1000
0010
1000
0010
0100
0001
0100
0001
,
1000
0100
0010
0001
0100
0010
0110
0000
,
0001
0010
0001
0010
1000
0010
1000
0010
,
0001
0010
1000
0010
0001
0100
1000
0100
,
0001
0100
0001
0100
1000
0100
1000
0100
,
0001
1000
0110
1001
,
0010
1000
0001
1000
0001
1000
0001
1000
,
0001
1000
0001
1000
0001
0000
0100
0010
,
2000
0000
3001
0100
0001
0100
0001
0100
,
0001
0100
0001
0100
0010
1000
0001
0001
,
1000
0010
0100
0010
0100
0010
0100
0010
,
0100
0010
0100
0010
0100
0000
0001
1000
,
0020
0000
1030
0100
1000
0100
1000
0100
,
0020
0000
0000
0130
,
0011
0000
0000
0000
1010
0000
0000
0000
0011
0000
0000
0100
0000
0000
0010
0000
,
0000
1000
0100
0010
0001
0100
0100
0000
,
1010
0000
0000
0000
0101
0000
0000
0000
1010
0000
0000
0010
0000
0000
0100
0000
,
0000
0001
1000
0100
1000
0001
0100
0100
,
1010
0000
0000
0000
0101
0000
0000
0000
1100
0000
0000
0010
0000
0000
0010
0000
,
0000
0100
0001
1000
0001
0001
0100
0010
,
0220
0000
0000
0000
0330
0001
1000
2000
,
0000
0001
3001
1001
,
1001
0000
0110
0000
0001
0100
1000
0100
,
0001
1000
0010
1000
0001
0010
0001
1000
,
0010
0000
0101
0000
1000
0010
1000
0001
,
1000
0100
0010
0001
0010
0100
1000
0010
,
0100
0000
1001
0000
0100
0010
0100
0010
,
1000
0100
0010
0001
0000
0110
0000
0020
,
0000
0100
0000
0100
0000
0100
0000
0100
,
0000
0100
0000
0130
0000
0100
1001
0000
,
0001
1000
0020
0000
1030
0100
0010
0001
,
0100
0001
1000
0001
0100
0001
0010
0001
,
1000
0000
0002
0000
0103
0010
1000
0100
,
1000
0010
1000
0100
1000
0010
0100
0010
,
1000
0000
0002
0000
1003
0100
0010
0001
,
1000
0010
1000
0100
1000
0010
1000
0001
,
1000
0000
1002
0000
1000
0000
1003
0010
,
0000
1010
0000
0011
0000
1000
0100
0020
,
0000
0000
0000
0000
,
0030
0000
0000
0000
;

//---------------dance-double - ----------------
#NOTES:
     dance-double:
     :
     Hard:
     11:
     0.431967,0.488829,0.226985,0.235092,0.012160,373.000000,345.000000,28.000000,29.000000,0.000000,0.000000,0.431967,0.488829,0.226985,0.235092,0.012160,373.000000,345.000000,28.000000,29.000000,0.000000,0.000000:
00000000
00000000
00000000
00000000
,
00000000
00000000
00000000
00000000
,
00000000
00000000
00000000
00000000
,
00000000
00000000
00000000
00000000
,
00000000
00000000
00000000
00000000
,
00000000
00000000
00000000
00000000
,
00200000
00000000
00000000
00000000
00000000
00001000
00000000
00302000
,
00000000
00000000
00000000
00023000
,
00030200
00000000
00000000
00000000
00000000
00001000
00000000
00002300
,
00000000
00000000
00000000
00000000
00003000
00000010
00000100
00000002
,
00001000
00000000
00001000
00000000
00001003
00000010
00000100
00000002
,
00000000
00001000
00000000
00001003
00000010
00000100
00000010
00002000
,
00000010
00000000
00003020
00000000
00001030
00000010
00001000
00000200
,
00000000
00010000
00000000
00010300
00001000
00100000
00010000
01000000
,
00200000
00000000
10000000
00000000
10300000
00010000
00100000
00002000
,
00000000
00010000
00000000
00013000
00001000
00010000
00000100
00002000
,
00000010
00000000
00003200
00000000
00001300
00000010
00000100
00000002
,
00000000
00002003
00000000
00003020
00000000
00001030
00000100
00010000
,
00001000
00100000
00010000
00100000
00010000
00010000
10000000
01000000
,
00100000
00010000
00010000
00100000
00001000
00001000
00010000
00000100
,
00001000
00000010
00000010
00000100
00000001
00001000
00000100
00000100
,
00010000
00001000
00100000
00010000
01000000
01000000
00100000
10000000
,
01000000
00100000
00010000
01000000
00000000
00001000
00010000
00000100
,
00000000
00010000
00001000
00100000
00000000
00001000
00010000
00000010
,
00001010
00000000
00000101
00000000
,
00001100
00000000
00011000
00000000
00100000
00010000
01010000
00000000
,
00100000
10000000
00100000
10000000
00100000
00010000
00100000
00010000
,
00100000
10000000
00100000
10000000
01000000
00100000
00010000
00100000
,
00001000
00010000
00001000
00010000
00000010
00001000
00000010
00001000
,
00000001
00000010
00000100
00001000
00000100
00010000
00011000
00000000
,
00001000
00100000
00001000
00100000
00001000
00010000
00001000
00010000
,
00000010
00001000
00000010
00001000
00000100
00000010
00000001
00001000
,
00000100
00010000
00000100
00010000
00001000
00100000
00001000
00100000
,
00010000
01000000
01100000
10010000
,
01000000
00010000
10000000
00010000
00000000
00100000
00001000
00010000
,
00000000
00000100
00001000
00000010
00000100
00000001
00001000
00000100
,
00010000
00001000
00100000
00001000
00000000
00100000
00010000
01000000
,
00000000
00100000
10000000
01000000
00100000
00010000
00100000
00100000
,
00000000
00001000
00010000
00001000
00000000
00010000
00000010
00010000
,
00000000
00000010
00001000
00000100
00000010
00000001
00001000
00000100
,
00010000
00001000
00001000
00001000
00100000
00010000
01000000
00020000
,
20000000
00000000
00000000
30030000
,
00100000
00000000
00000000
00000000
10100000
00000000
00000000
00000000
00110000
00000000
00000000
00100000
00000000
00000000
00001000
00000000
,
00000000
00010000
00000100
00001000
00000010
00000100
00000001
00001000
,
00001100
00000000
00000000
00000000
00001010
00000000
00000000
00000000
00001100
00000000
00000000
00000100
00000000
00000000
00010000
00000000
,
00001000
00100000
00010000
01000000
00100000
10000000
00010000
00100000
,
00001000
00000000
00000000
00000000
00010000
00000000
00000000
00000000
00010100
00000000
00000000
00000100
00000000
00000000
00001000
00000000
,
00000010
00000100
00000001
00001000
00000100
00010000
00001000
00001000
,
00200000
00000000
00000000
00000000
00300000
00010000
01000000
00200000
,
00000000
10000000
00010000
10300000
,
00010000
00100000
00001000
00000000
00010000
00000100
00001000
00000010
,
00000000
00000100
00000001
00001000
00000100
00010000
00001000
00100000
,
00010000
00000000
01000000
00000000
00100000
10000000
01000000
00100000
,
00000000
00001000
00010000
00001000
00010000
00000100
00001000
00000010
,
00000100
00000000
00000001
00000000
00001000
00000100
00010000
00001000
,
00000000
00101000
00000000
00110000
00000000
10010000
00000000
00200000
,
00000000
01000000
00000000
01000000
00000000
01000000
00000000
01000000
,
00000000
01000000
00000000
01000000
00000000
01300000
10010000
00000000
,
01100000
00000000
20000000
00000000
00000000
00000000
30010000
00100000
,
00000000
00101000
00000000
00011000
00000000
00010000
00000100
00001000
,
00000010
00000000
00000202
00000000
00000303
00000000
00000010
00001000
,
00000000
00001100
00000000
00010100
00000000
00001000
00100000
00010000
,
01000000
00000000
20020000
00000000
30030000
00000000
00100000
00001000
,
00000000
00011000
00000000
00010100
00000000
00000010
00001000
00000100
,
00000010
00000000
00002000
00000000
00003100
00000000
00010000
00001000
,
00000000
00100000
00000000
00011000
00000000
00000100
00010000
00002000
,
00000000
00000000
00000000
00000000
,
00003000
00000000
00000000
00000000
;

//---------------dance-double - ----------------
#NOTES:
     dance-double:
     :
     Medium:
     8:
     0.305735,0.380200,0.105386,0.226985,0.000000,264.000000,251.000000,13.000000,28.000000,0.000000,0.000000,0.305735,0.380200,0.105386,0.226985,0.000000,264.000000,251.000000,13.000000,28.000000,0.000000,0.000000:
00000000
00000000
00000000
00000000
,
00000000
00000000
00000000
00000000
,
00000000
00000000
00000000
00000000
,
00000000
00000000
00000000
00000000
,
00000000
00000000
00000000
00000000
,
00000000
00000000
00000000
00000000
,
00020000
00000000
00000000
00000000
00000000
00000100
00000000
00030200
,
00000000
00000000
00000000
00002300
,
00003002
00000000
00000000
00000000
00000000
00000100
00000000
00000203
,
00000000
00000000
00000000
00000300
00000000
00000010
00001000
00000000
,
00000002
00000000
00002003
00000000
00003002
00000000
00000000
00000100
,
00000000
00000100
00000000
00000103
00000000
00000000
00000010
00000000
,
00002000
00000000
00003200
00000000
00020300
00000000
00000000
00001000
,
00000000
00001000
00000000
00031000
00000000
00000000
00001000
00000000
,
00200000
00000000
00320000
00000000
02030000
00000000
00000000
00100000
,
00000000
00100000
00000000
03100000
00000000
00000000
00020000
00000000
,
20030000
00000000
30200000
00000000
02300000
00000000
00000000
00010000
,
00000000
00010000
00000000
03010000
00000000
00000000
10010000
00000000
,
00010000
01000000
00010000
00000000
00010000
00000000
00100000
00000000
,
00001000
00010000
00001000
00000000
00001000
00000000
00010000
00000000
,
00000010
00001000
00000010
00000000
00001000
00000000
00001000
00000000
,
00000001
00000100
00000010
00000000
00001000
00000000
00001000
00000000
,
00000100
00010000
00000100
00000000
00010000
00000000
00001000
00000000
,
00100000
00010000
00100000
00000000
00010000
00000000
01000000
00000000
,
10010000
00000000
01100000
00000000
,
10000000
01000000
00100000
00010000
,
01000000
00000000
01000000
00000000
01000000
00010000
01000000
00000000
,
00001000
00000000
00001000
00000000
00010000
00001000
00010000
00000000
,
00000100
00000000
00000100
00000000
00000100
00010000
00001000
00000000
,
00010000
00000000
00001000
00000000
00010000
00001000
00100000
00000000
,
00100000
00000000
00100000
00000000
00100000
00001000
00010000
00000000
,
00001000
00000000
00010000
00000000
00001000
00010000
00000100
00000000
,
00001000
00000000
00000100
00000000
00000001
00001000
00000010
00000000
,
00000100
00000000
00000110
00001001
,
00000010
00000000
00000010
00000000
00001000
00000100
00001000
00000000
,
00000100
00000000
00010000
00000000
00001000
00010000
00001000
00000000
,
00100000
00000000
00010000
00000000
01000000
00010000
01000000
00000000
,
00100000
00100000
01000000
10010000
,
00100000
00000000
00100000
00000000
00001000
00010000
00001000
00000000
,
00010000
00000000
00000010
00000000
00001000
00000001
00001000
00000000
,
00000100
00010000
00001000
00010000
,
00022000
00000000
00000000
00033000
,
00010000
00010100
00010000
00000100
,
00001000
00000100
00000010
00000000
00000100
00000010
00000001
00000000
,
00001000
00001100
00010000
00010100
,
00001000
00100000
00010000
00000000
00010000
01000000
00100000
00000000
,
10000000
10010000
00010000
01010000
,
01000000
00100000
10000000
00000000
00100000
01000000
00010000
00000000
,
00200000
00001000
00001000
00301000
,
00020000
00001000
00001000
00031000
,
00010000
00000100
00001000
00000001
,
00001000
00000010
00001000
00000000
00000001
00000100
00000001
00000000
,
00001000
00000100
00010000
00001000
,
01000000
00010000
01000000
00000000
00010000
10000000
00010000
00000000
,
00100000
00001000
00010000
00000010
,
00001000
00000100
00001000
00000000
00000001
00000100
00000020
00000000
,
00000100
00000100
00000100
00000100
,
00000100
00000100
00000130
00001001
,
00000010
00000000
00002000
00000000
00000000
00000000
00003100
00000100
,
00000000
00010000
00000000
00001000
00000000
01000000
00000000
00010000
,
00000000
00000000
20000000
00000000
00000000
00000000
00100000
30100000
,
00000000
01000000
00000000
00001000
00000000
00010000
00000000
00000100
,
00000000
00000000
00002000
00000000
00000000
00000000
00000001
00003001
,
00000000
00000100
00000000
00000010
00000000
00010000
00000000
00001000
,
00000000
00000000
00020000
00000000
00000000
00000000
00031000
00010000
,
00000000
00001000
00000000
00010000
00000000
00001000
00010000
00002000
,
00000000
00000000
00000000
00000000
,
00003000
00000000
00000000
00000000
;

//---------------dance-double - ----------------
#NOTES:
     dance-double:
     :
     Easy:
     5:
     0.247831,0.298729,0.056746,0.194559,0.000000,214.000000,207.000000,7.000000,24.000000,0.000000,0.000000,0.247831,0.298729,0.056746,0.194559,0.000000,214.000000,207.000000,7.000000,24.000000,0.000000,0.000000:
00000000
00000000
00000000
00000000
,
00000000
00000000
00000000
00000000
,
00000000
00000000
00000000
00000000
,
00000000
00000000
00000000
00000000
,
00000000
00000000
00000000
00000000
,
00000000
00000000
00000000
00000000
,
00020000
00000000
00000000
00000000
,
00030200
00000000
00000000
00000000
,
00002300
00000000
00000000
00000000
,
00003002
00000000
00000000
00000003
,
00002000
00000000
00003002
00000000
,
00002003
00000000
00003010
00001000
,
00000200
00000000
00020300
00000000
,
00032000
00000000
00013000
00001000
,
00200000
00000000
00320000
00000000
,
02030000
00000000
03020000
20030000
,
30200000
00000000
02300000
00000000
,
03020000
00000000
00030000
10010000
,
00010000
00010000
00010000
00100000
,
00001000
00001000
00001000
00010000
,
00000100
00000100
00001000
00001000
,
00000001
00000010
00001000
00001000
,
00000100
00000100
00010000
00001000
,
00100000
00100000
00010000
01000000
,
10010000
00000000
01100000
00000000
,
10000000
01000000
00100000
00000000
,
01000000
01000000
01000000
01000000
,
00001000
00010000
00001000
00010000
,
00000100
00000100
00000100
00000100
,
00010000
00001000
00010000
00001000
,
00100000
00100000
00100000
00100000
,
00001000
00010000
00001000
00010000
,
00000010
00000010
00000010
00000010
,
00001000
00000000
00001001
00001001
,
00000100
00000100
00000100
00000100
,
00000001
00000010
00000100
00001000
,
00000100
00000100
00000100
00000100
,
00010000
00001000
01000000
00010000
,
00100000
00100000
00100000
00100000
,
10000000
01000000
00100000
00010000
,
00100000
00100000
00001000
00010000
,
00022000
00000000
00000000
00033000
,
00010000
00000100
00010000
00000100
,
00001000
00000010
00000100
00000001
,
00001000
00000100
00001000
00000100
,
00010000
00001000
00100000
00010000
,
10000000
00010000
10000000
00010000
,
01000000
10000000
00100000
00010000
,
00200000
00001000
00001000
00301000
,
00020000
00001000
00001000
00031000
,
00010000
00000100
00001000
00000001
,
00001000
00000010
00001000
00000100
,
00010000
00001000
01000000
00010000
,
10000000
00010000
00100000
00001000
,
00010000
00000100
00010000
00000010
,
00001000
00000100
00000010
00000001
,
00000010
00000010
00000010
00000010
,
00000010
00000010
00000010
00000000
,
00000001
00000100
00001000
00000100
,
00000001
00000100
00001000
00000100
,
00010000
00001000
00010000
00001000
,
00100000
00010000
01000000
10000000
,
00100000
00010000
00100000
10000000
,
00100000
00010000
00100000
10000000
,
01000000
00100000
00010000
00001000
,
00010000
00001000
00010000
00022000
,
00000000
00000000
00000000
00000000
,
00033000
00000000
00000000
00000000
;

//---------------dance-single - ----------------
#NOTES:
     dance-single:
     :
     Beginner:
     2:
     0.115809,0.186554,0.024320,0.048640,0.000000,100.000000,97.000000,3.000000,6.000000,0.000000,0.000000,0.115809,0.186554,0.024320,0.048640,0.000000,100.000000,97.000000,3.000000,6.000000,0.000000,0.000000:
0000
0000
0000
0000
,
0000
0000
0000
0000
,
0000
0000
0000
0000
,
0000
0000
0000
0000
,
0000
0000
0000
0000
,
0000
0000
0000
0000
,
0100
0000
0000
0000
,
0010
0000
0000
0000
,
1000
0000
0000
0000
,
0001
0000
0000
0000
,
0020
0000
0000
0000
,
0030
0000
0000
0000
,
0010
0000
0010
0000
,
0010
0000
0000
0000
,
0200
0000
0000
0000
,
0300
0000
0000
0000
,
0100
0000
0100
0000
,
0100
0000
0000
0000
,
0001
0000
0001
0000
,
1000
0000
1000
0000
,
0001
0000
0001
0000
,
1000
0000
1000
0000
,
0001
0000
1000
0000
,
0001
0000
1000
0000
,
0010
0000
0010
0000
,
0010
0010
0010
0000
,
0000
1000
0000
1000
,
0000
0001
0000
0001
,
0000
1000
0000
1000
,
0000
0001
0000
0001
,
0000
0100
0000
0100
,
0000
0010
0000
0010
,
0000
0100
0000
0100
,
0000
0000
1001
1001
,
0000
0000
0000
0000
,
0000
0000
0010
0010
,
0010
0000
0000
0000
,
0000
0000
0100
0100
,
0000
0000
0000
0000
,
0000
0000
0010
0010
,
0010
0000
0000
0000
,
2000
0000
3000
0000
,
1000
0000
0001
0000
,
1000
0000
0001
0000
,
0100
0000
0010
0000
,
0100
0000
0010
0000
,
1000
0000
0001
0000
,
1000
0000
0001
0000
,
0200
0000
0300
0000
,
0020
0000
0030
0000
,
1000
0000
1000
0000
,
0001
0000
0001
0000
,
0100
0000
0100
0000
,
0010
0000
0010
0000
,
1000
0000
0100
0000
,
0010
0000
0001
0000
,
0020
0000
0000
0000
,
0030
0000
0000
0000
,
0000
0100
0000
0100
,
0000
0001
0000
0001
,
0000
0100
0000
0100
,
0000
1000
0000
1000
,
0000
0100
0000
0001
,
0000
0100
0000
1000
,
0000
0010
0000
0001
,
0000
0010
0000
1001
;

//---------------dance-single - ----------------
#NOTES:
     dance-single:
     :
     Medium:
     8:
     0.294154,0.380200,0.113493,0.170239,0.000000,254.000000,240.000000,14.000000,21.000000,0.000000,0.000000,0.294154,0.380200,0.113493,0.170239,0.000000,254.000000,240.000000,14.000000,21.000000,0.000000,0.000000:
// measure 0
0000
0000
0000
0000
,  // measure 1
0000
0000
0000
0000
,  // measure 2
0000
0000
0000
0000
,  // measure 3
0000
0000
0000
0000
,  // measure 4
0000
0000
0000
0000
,  // measure 5
0000
0000
0000
0000
,  // measure 6
2000
0000
0000
0000
0000
0001
0000
3002
,  // measure 7
0000
0000
0000
0100
,  // measure 8
0203
0000
0000
0000
0000
0010
0000
0320
,  // measure 9
0000
0000
0000
1030
,  // measure 10
0001
0000
1000
0000
0020
0000
0030
1000
,  // measure 11
0000
0100
0000
0010
0000
0001
0000
0000
,  // measure 12
1000
0000
0001
0000
0200
0000
0300
0001
,  // measure 13
0000
0100
0000
0010
0000
1000
0000
0000
,  // measure 14
0001
0000
0100
0000
0020
0000
0030
1000
,  // measure 15
0000
0001
0000
0100
0000
0010
0000
0000
,  // measure 16
1000
0000
0100
0000
0020
0000
0030
0100
,  // measure 17
0000
0010
0000
0001
0000
0000
1001
0000
,  // measure 18
0001
0000
0001
0000
0001
0100
0001
0000
,  // measure 19
1000
0000
1000
0000
1000
0100
1000
0000
,  // measure 20
0001
0000
0001
0000
0001
0010
0001
0000
,  // measure 21
1000
0000
1000
0000
1000
0010
1000
0000
,  // measure 22
0001
0010
0001
0000
0001
0010
0001
0000
,  // measure 23
1000
0010
1000
0000
1000
0010
1000
0000
,  // measure 24
1001
0000
0110
0000
,  // measure 25
1000
0100
0010
0001
,  // measure 26
1000
1000
1000
1000
,  // measure 27
0001
0000
0001
0000
0001
0100
0001
0000
,  // measure 28
0100
0100
0100
0100
,  // measure 29
0010
0000
0010
0000
0010
0100
0010
0000
,  // measure 30
1000
1000
0001
0001
,  // measure 31
0100
0000
0100
0000
0010
0100
0010
0000
,  // measure 32
1000
0100
0010
0001
,  // measure 33
0100
0000
0110
1001
,  // measure 34
0000
0010
0010
0010
,  // measure 35
1000
0001
1000
0000
0001
1000
0001
0000
,  // measure 36
0100
0100
0100
0100
,  // measure 37
0001
0010
0001
0000
1000
0100
1000
0000
,  // measure 38
0001
0001
1000
1000
,  // measure 39
0010
0100
0010
0000
0100
0010
0100
0000
,  // measure 40
0001
0001
1000
1000
,  // measure 41
2002
0000
0000
3003
,  // measure 42
0010
1000
0001
0100
,  // measure 43
0001
0100
0001
0000
1000
0000
0010
0000
,  // measure 44
1000
0100
0010
0001
,  // measure 45
1000
0100
1000
0000
0001
0000
0100
0000
,  // measure 46
0010
0010
1000
0001
,  // measure 47
0100
0010
0100
0000
0010
0000
0010
0000
,  // measure 48
2000
0000
3000
0001
,  // measure 49
2002
0000
0000
3003
,  // measure 50
0010
1000
0100
0010
,  // measure 51
0001
0000
0100
0000
0010
0100
0010
0000
,  // measure 52
0001
0100
0010
1000
,  // measure 53
0010
0000
0100
0000
0001
1000
0001
0000
,  // measure 54
1000
0100
0010
0001
,  // measure 55
0100
0000
0010
0000
1000
0001
1000
0000
,  // measure 56
0020
0100
0100
0100
,  // measure 57
1000
1000
1030
1001
,  // measure 58
1000
0000
0200
0000
0300
0000
1000
0001
,  // measure 59
0000
0110
0000
1001
0000
0001
1000
0001
,  // measure 60
0000
0000
0020
0000
0030
0000
1000
0001
,  // measure 61
0000
1100
0000
0011
0000
0100
0010
0100
,  // measure 62
0000
0000
2002
0000
3003
0000
0010
1000
,  // measure 63
0000
0001
0000
0100
0000
0001
0100
0010
,  // measure 64
0000
0000
2002
0000
3003
0000
0010
0100
,  // measure 65
0000
0001
0000
0010
0000
0100
1000
0020
,  // measure 66
0000
0000
0000
0000
,  // measure 67
0030
0000
0000
0000
;

//---------------dance-single - ----------------
#NOTES:
     dance-single:
     :
     Easy:
     5:
     0.231618,0.298729,0.081066,0.186452,0.000000,200.000000,190.000000,10.000000,23.000000,0.000000,0.000000,0.231618,0.298729,0.081066,0.186452,0.000000,200.000000,190.000000,10.000000,23.000000,0.000000,0.000000:
0000
0000
0000
0000
,
0000
0000
0000
0000
,
0000
0000
0000
0000
,
0000
0000
0000
0000
,
0000
0000
0000
0000
,
0000
0000
0000
0000
,
2000
0000
0000
0000
,
3200
0000
0000
0000
,
0320
0000
0000
0000
,
0032
0000
0003
0000
,
2002
0000
3003
0000
,
0020
0000
0030
0000
,
1000
0000
0001
0000
,
2000
0000
3000
0000
,
2002
0000
3003
0000
,
0200
0000
0300
0000
,
0001
0000
1000
0000
,
2002
0000
3003
0000
,
0010
0010
1000
0100
,
0010
0010
0001
0100
,
0010
1000
0100
0010
,
0010
0001
0100
0010
,
1000
0001
1000
0001
,
0100
0010
0100
0010
,
1001
0000
0110
0000
,
1000
0100
0010
0001
,
1000
0000
1000
0100
,
0001
0000
0001
0100
,
1000
1000
1000
0010
,
0001
0001
0010
1000
,
1000
0100
1000
0100
,
0001
0100
0001
0100
,
1000
0100
0010
0001
,
0000
0000
1001
1001
,
2000
0001
0001
0001
,
0001
3001
0100
0010
,
0002
1000
1000
1000
,
1000
1003
0010
0100
,
2000
0010
0010
0010
,
3010
0100
0001
1001
,
0002
0100
0100
0103
,
2002
0000
0000
3003
,
0010
1000
0100
0010
,
0001
0100
0010
0100
,
0001
0010
0100
1000
,
0010
0100
0010
0100
,
1000
0100
0010
0001
,
1000
0100
0010
0001
,
0200
0000
0000
0000
,
0020
0000
0330
0000
,
0001
0100
0001
0100
,
1000
0100
0001
0100
,
1000
0100
1000
0100
,
0001
0010
1000
0010
,
0001
0100
0001
0100
,
1000
0100
0010
0001
,
0010
0010
0010
0010
,
0010
0010
0010
0000
,
0001
0100
0001
0100
,
1000
0100
1000
0100
,
1000
0010
1000
0010
,
0001
0010
0001
0010
,
0001
0100
1000
0100
,
0001
0010
1000
0010
,
0001
0100
0010
1000
,
0010
0100
0010
2002
,
0000
0000
0000
0000
,
3003
0000
0000
0000
;
