#TITLE:Glitter Cube;
#SUBTITLE:;
#ARTIST:BEMANI Sound Team "dj TAKA";
#TITLETRANSLIT:;
#SUBTITLETRANSLIT:;
#ARTISTTRANSLIT:;
#GENRE:;
#CREDIT:;
#BANNER:Glitter Cube.png;
#BACKGROUND:Glitter Cube-bg.png;
#LYRICSPATH:;
#CDTITLE:;
#MUSIC:Glitter Cube.ogg;
#OFFSET:1.576000;
#SAMPLESTART:12.424000;
#SAMPLELENGTH:15.200000;
#LASTBEATHINT:1.440000;
#SELECTABLE:YES;
#DISPLAYBPM:150.000000;
#BPMS:0.000000=150.000000
;
#STOPS:
;
#BGCHANGES:;
#KEYSOUNDS:;
#ATTACKS:;

//---------------dance-double - ----------------
#NOTES:
     dance-double:
     :
     Hard:
     13:
     0.581514,0.716655,0.114665,0.163807,0.303043,497.000000,483.000000,14.000000,20.000000,0.000000,0.000000,0.581514,0.716655,0.114665,0.163807,0.303043,497.000000,483.000000,14.000000,20.000000,0.000000,0.000000:
00000000
00000000
00000000
00000000
,
00000000
00000000
00000000
00000000
,
00000000
00000000
00000000
00000000
,
00000000
00000000
00000000
00000000
,
00000000
00000000
00000000
00000000
,
01000000
00000000
00010000
00000000
10000000
00000000
00100000
10000000
00000000
00000000
00100000
00000000
01000000
00000000
00010000
00000000
,
00100000
00000000
00001000
00000000
00010000
00000000
00001000
00010000
00000000
00000000
00001000
00000000
00010000
00000000
00000100
00000000
,
00001000
00000000
00000010
00000000
00001000
00000000
00000001
00001000
00000000
00000000
00000100
00000000
00010000
00000000
00001000
00000000
,
00010000
00000000
00001000
00000000
01000000
00000000
00010000
10000000
00000000
00000000
10000000
00000000
00010000
00000000
10000000
00000000
,
00100000
00000000
00100000
00010000
00000000
00000000
00010000
01000000
00000000
00000000
01000000
00000000
00100000
00000000
10000000
00000000
,
00100000
00000000
01000000
00010000
00000000
00000000
00010000
00100000
00000000
00000000
00100000
00000000
00001000
00000000
00010000
00000000
,
00001000
00000000
00001000
00010000
00000000
00000000
00010000
00000100
00000000
00000000
00001000
00000000
00000010
00000000
00000100
00000000
,
00000001
00000100
00000010
00001000
00000010
00001000
00000100
00010000
,
00001000
00010000
00000000
00010000
00000000
00000000
00001000
00000000
00100000
00000000
00010000
00000000
01000000
00000000
00100000
00000000
,
10000000
00010000
00000000
00010000
00000000
00000000
00100000
00000000
00001000
00000000
00010000
00000000
00001000
00000000
00010000
00000000
,
00000100
00000000
00001000
00000010
00000100
00000001
00001000
00000100
,
00010000
00000000
00000000
00001000
00000000
00000000
00100000
00000000
00000000
00000000
00010000
00000000
10010000
00000000
00000000
00000000
,
10000000
00000000
00010000
01000000
00000000
00000000
01000000
00010000
00000000
00000000
00010000
00000000
00100000
00000000
00001000
00000000
,
00010000
00000000
00000100
00001000
00000000
00000000
00001000
00000010
00000000
00000000
00000100
00000000
00000001
00000000
00001000
00000000
,
00000010
00000000
00001000
00000100
00000000
00000000
00000100
00010000
00000000
00000000
00010000
00000000
00001000
00000000
00100000
00000000
,
00010000
01000000
00100000
10000000
00010000
00100000
00001000
00010000
,
00000100
00001000
00000000
00001000
00000000
00000000
00000010
00000000
00000100
00000000
00000001
00000000
00001000
00000000
00000100
00000000
,
00010000
00001000
00000000
00001000
00000000
00000000
00010000
00000000
00001000
00000000
00100000
00000000
00010000
00000000
01000000
00010000
,
01000000
00000000
00000000
00000000
00100000
10000000
00100000
10000000
00100000
00000000
01000000
00000000
00010000
00000000
00100000
00000000
,
00001000
00000000
00000000
00010000
00000000
00000000
00000100
00000000
00000000
00000000
00001000
00000000
00001010
00000000
00000000
00000000
,
00001002
00000000
00002003
00000000
,
00003200
00020300
00032000
00203000
,
00320000
00000000
02030000
00000000
,
03200000
20300000
32000000
03020000
,
00130000
00001000
00010000
00002000
00000000
00000000
00013000
00000000
,
00000100
00001000
00000010
00002000
00000000
00000000
00003010
00000000
,
00000100
00000010
00001000
00000000
00001000
00000000
00000100
00000000
,
00010000
00001000
00010000
00000000
00001000
00000000
00100000
00000000
,
00020000
01030000
00200000
10300000
,
00100000
01000000
00010000
00000000
00100000
00001000
00010000
00000000
,
00000200
00001300
00000002
00000103
,
00000010
00001000
00000100
00000000
00000100
00010000
00001000
00000000
,
00001000
00000000
00010000
00001000
00010000
00000000
00001000
00000000
00100000
00010000
00100000
00000000
00010000
00000000
01000000
00000000
,
00100000
00000000
10000000
00100000
10000000
00000000
00100000
00000000
01000000
00100000
01000000
00000000
00010000
00000000
00100000
00000000
,
00001000
00000000
00010000
00001000
00010000
00000000
00001000
00000000
00010000
00000100
00010000
00000000
00000100
00000000
00001000
00000000
,
00000001
00000100
00000001
00000000
00000100
00000000
00000010
00001000
00000010
00000000
00001000
00000000
00000100
00000000
00010000
00000000
,
00001000
00100000
00010000
01000000
00100000
10000000
00100000
01000000
,
00001000
00000000
00000000
00010000
00000000
00000000
00001000
00000000
00010000
00000000
00000100
00000000
00001100
00000000
00000000
00000000
,
00000010
00001000
00000010
00001000
00000001
00000100
00000010
00001000
,
00000100
00010000
00000100
00010000
00001000
00100000
00010000
01000000
,
00100000
10000000
00100000
10000000
00100000
01000000
00010000
00100000
,
00001000
00010000
00001000
00010000
00000100
00000000
00001010
00000000
,
00000001
00000010
00000000
00000010
00000001
00000000
00000100
00000000
00000010
00000000
00001000
00000000
00000100
00000000
00010000
00000000
,
00001000
00100000
00000000
00100000
00001000
00000000
01000000
00000000
00010000
00000000
10000000
00000000
00100000
00000000
01000000
00000000
,
00010000
00000000
00100000
00001000
00010000
00010000
00001000
00100000
,
00010000
00000000
00000000
01100000
00000000
00000000
10000000
00000000
00000000
00000000
01010000
00000000
00000000
00000000
10000000
00000000
,
00010000
00100000
00010000
00100000
00001000
00010000
00000010
00000100
,
00000001
00001000
00000001
00001000
00000010
00001000
00000100
00010000
,
00001000
01000000
00100000
01000000
00001000
00010000
00000100
00001000
,
00000010
00000100
00000001
00001000
00001100
00000000
00011000
00000000
,
00001000
00100000
00000000
00100000
00001000
00000000
00100000
00000000
00010000
00000000
10000000
00000000
00100000
00000000
01000000
00000000
,
00010000
00100000
00000000
00100000
00001000
00000000
00010000
00000000
00000100
00000000
00001000
00000000
00000010
00000000
00000100
00000000
,
00000101
00000000
00000010
00001000
00000100
00010000
00001000
00010000
,
00000100
00000000
00000000
00001100
00000000
00000000
00010100
00000000
00000000
00000000
00011000
00000000
00000000
00000000
00010000
00000000
,
00001000
00000000
00100000
00010000
00100000
00000000
00010000
00000000
10000000
01000000
10000000
00000000
00100000
00000000
01000000
00000000
,
00010000
00000000
00100000
00010000
00100000
00000000
00001000
00000000
00010000
00001000
00010000
00000000
00000100
00000000
00001000
00000000
,
00000010
00000000
00001000
00000010
00001000
00000000
00000001
00000000
00000100
00000010
00000100
00000010
00000100
00000010
00000100
00000000
,
00000001
00001000
00000010
00001000
00000001
00000000
00001000
00000010
00001000
00000100
00001000
00000000
00000100
00000000
00010000
00000000
,
00001000
00000000
00100000
00001000
00100000
00000000
00001000
00000000
00100000
00001000
00100000
00000000
00010000
00000000
01000000
00000000
,
00100000
00000000
10000000
00100000
10000000
00000000
00100000
00000000
10000000
00100000
10000000
00000000
00010000
00000000
01000000
00000000
,
00100000
10000000
00000000
10000000
00100000
00000000
00100000
01000000
00000000
01000000
00100000
00000000
01000000
00010000
00000000
00010000
,
01000000
00000000
00100000
10000000
00000000
10000000
00100000
00000000
01000000
00010000
00000000
00010000
01000000
00000000
00010000
00000000
,
00100000
00001000
00010000
00000100
00001000
00000100
00010000
00000010
,
00001000
00000001
00000100
00000010
00001000
00000100
00010000
00001000
,
00022000
00000000
00000000
00000000
,
00033000
00000000
00000000
00000000
;

//---------------dance-single - ----------------
#NOTES:
     dance-single:
     :
     Hard:
     13:
     0.573324,0.659323,0.131045,0.163807,0.294852,490.000000,474.000000,16.000000,20.000000,0.000000,0.000000,0.573324,0.659323,0.131045,0.163807,0.294852,490.000000,474.000000,16.000000,20.000000,0.000000,0.000000:
0000
0000
0000
0000
,
0000
0000
0000
0000
,
0000
0000
0000
0000
,
0000
0000
0000
0000
,
0000
0000
0000
0000
,
0100
0000
0001
0000
1000
0000
0010
1000
0000
0000
0010
0000
0100
0000
0010
0000
,
1000
0000
0001
0000
0001
0000
1000
0001
0000
0000
1000
0000
0001
0000
1000
0000
,
0010
0000
0010
0000
1000
0000
0001
1000
0000
0000
0001
0000
0001
0000
1000
0000
,
0001
0000
1000
0000
0001
0000
0001
1000
0000
0000
1000
0000
0001
0000
0000
0000
,
1000
0000
1000
0001
0000
0000
0001
0100
0000
0000
0100
0000
0010
0000
1000
0000
,
0010
0000
0100
0001
0000
0000
0001
0010
0000
0000
0010
0000
0001
0000
1000
0000
,
0010
0000
1000
0001
0000
0000
0001
0100
0000
0000
0010
0000
1000
0000
0010
0000
,
0100
0001
0100
0010
1000
0010
0100
0001
,
1000
0001
0000
0001
0000
0000
1000
0000
0010
0000
0100
0000
0001
0000
1000
0000
,
0001
1000
0000
1000
0000
0000
0010
0000
1000
0000
0001
0000
1000
0000
0001
0000
,
0100
0000
1000
0010
0100
0001
1000
0100
,
0010
0000
0000
0001
0000
0000
0100
0000
0000
0000
0001
0000
1001
0000
0000
0000
,
1000
0000
0001
0100
0000
0000
0100
0001
0000
0000
0001
0000
0010
0000
0001
0000
,
0100
0000
0010
1000
0000
0000
1000
0010
0000
0000
0100
0000
0001
0000
1000
0000
,
0010
0000
1000
0010
0000
0000
0010
0100
0000
0000
0001
0000
1000
0000
0010
0000
,
0100
0001
0100
0010
1000
0010
0100
0000
,
0001
1000
0000
1000
0000
0000
0010
0000
0000
0000
0100
0000
0010
0000
1000
0000
,
0001
1000
0000
1000
0000
0000
0001
0000
0000
0000
1000
0000
0001
0000
0100
0001
,
0100
0000
0000
0000
0010
1000
0010
1000
0010
0000
0100
0000
0001
0000
0010
0000
,
0001
0000
0000
0001
0000
0000
0100
0000
0000
0000
1000
0000
1010
0000
0000
0000
,
1002
0000
2003
0000
,
3200
0302
2003
3020
,
0032
0000
0203
0000
,
0320
2030
3200
0302
,
0013
0001
1000
0002
0000
0000
1003
0000
,
0010
1000
0010
2000
0000
0000
3010
0000
,
0100
0000
0010
0000
1000
0000
0000
0010
0000
0000
0100
0000
0001
0000
0000
0000
,
0001
1000
0001
0000
1000
0000
0010
0000
,
0002
0103
0020
1030
,
0010
0100
0001
0000
0010
1000
0001
0000
,
0200
1300
0002
0103
,
0010
1000
0100
0000
0100
0000
1001
0000
,
1000
0000
0001
1000
0001
0000
1000
0000
0010
1000
0010
0000
0100
0000
0010
0000
,
1000
0000
0010
1000
0010
0000
0100
0000
0010
0100
0010
0000
0100
0000
0010
0000
,
1000
0000
0001
1000
0001
0000
1000
0000
0001
0100
0001
0000
0100
0000
0001
0000
,
1000
0001
1000
0000
0001
0000
1000
0010
1000
0000
0010
0000
0100
0000
0001
0000
,
1000
0010
0100
0001
1000
0010
0100
0001
,
1000
0000
0000
0001
0000
0000
1000
0000
0001
0000
1000
0000
1001
0000
0000
0000
,
0010
1000
0010
1000
0001
0100
0010
1000
,
0001
0100
0001
0100
0010
1000
0001
0100
,
0010
1000
0010
1000
0010
0100
0001
1000
,
0001
1000
0010
0100
0110
0000
1010
0000
,
1000
0010
0000
0010
1000
0000
0100
0000
0010
0000
0001
0000
0100
0000
0010
0000
,
1000
0010
0000
0010
1000
0000
0100
0000
0010
0000
0001
0000
0010
0000
0100
0000
,
1000
0000
0010
1000
0001
0001
1000
0010
,
0100
0000
0000
0110
0000
0000
1000
0000
0000
0000
0101
0000
0000
0000
1000
0000
,
0001
0010
0001
0010
0100
1000
0100
1000
,
0001
1000
0001
1000
0010
1000
0100
1000
,
0010
0100
0010
0100
0001
1000
0010
1000
,
0010
0100
0001
1000
1100
0000
1001
0000
,
1000
0010
0000
0010
1000
0000
0010
0000
0100
0000
0001
0000
0100
0000
0010
0000
,
1000
0010
0000
0010
1000
0000
0001
0000
0100
0000
0010
0000
1000
0000
0010
0000
,
0110
0000
0010
1000
0100
0010
1000
0010
,
0010
0000
0000
1010
0000
0000
0101
0000
0000
0000
1001
0000
0000
0000
0001
0000
,
1000
0000
0010
1000
0010
0000
0100
0000
0001
0100
0001
0000
0100
0000
0000
0000
,
0010
0000
1000
0010
1000
0000
0001
0000
1000
0001
1000
0000
0001
0000
0000
0000
,
0100
0000
0010
0100
0010
0000
1000
0000
0010
1000
0010
0000
1000
0000
0000
0000
,
0001
0000
0100
0000
0001
0000
1000
0001
1000
0001
1000
0001
1000
0000
0010
0000
,
1000
0000
0010
1000
0010
0000
1000
0000
0010
1000
0010
0000
1000
0000
0010
0000
,
0100
0000
0001
0100
0001
0000
0100
0000
0001
0100
0001
0000
0100
0000
0001
0000
,
1000
0010
0000
0010
1000
0000
1000
0010
0000
0010
1000
0000
0010
0100
0000
0100
,
0010
0000
0100
0010
0000
0010
0100
0000
0001
0000
0100
0000
0001
0000
1000
0000
,
0001
0000
0100
0000
0010
0000
1000
0000
0010
0100
0010
0100
0010
0000
1000
0000
,
1000
0010
0100
0001
1000
0010
0100
0001
,
2002
0000
0000
0000
,
3003
0000
0000
0000
;

//---------------dance-double - ----------------
#NOTES:
     dance-double:
     :
     Medium:
     9:
     0.312403,0.372661,0.090094,0.237520,0.000000,267.000000,256.000000,11.000000,29.000000,0.000000,0.000000,0.312403,0.372661,0.090094,0.237520,0.000000,267.000000,256.000000,11.000000,29.000000,0.000000,0.000000:
00000000
00000000
00000000
00000000
,
00000000
00000000
00000000
00000000
,
00000000
00000000
00000000
00000000
,
00000000
00000000
00000000
00000000
,
00000000
00000000
00000000
00000000
,
00100000
00010000
00000000
01000000
00000000
00100000
00000000
10000000
,
00000000
00100000
00000000
01000000
00000000
00010000
00100000
00010000
,
00000000
00100000
00000000
00001000
00000000
00010000
00000000
00000010
,
00000000
00001001
00000000
00001100
00000000
00000010
00001000
00000100
,
00001000
00000000
00000010
00000000
00001000
00000000
00000100
00010000
,
00000100
00000000
00010000
00000000
00001000
00000000
00100000
00010000
,
00100000
00010000
01000000
00100000
,
10000000
00010000
00100000
00001000
,
00020000
00000000
00000000
00030100
00000000
00000100
00001000
00000000
,
00000020
00000000
00000000
00000130
00000000
00000001
00001000
00000001
,
00001000
00000000
00000100
00001000
00000100
00000000
00010000
00000000
,
00002000
00000000
00023000
00000000
,
00031000
00000000
00100000
00000000
00010000
00000000
01000000
00100000
,
10000000
00000000
00010000
00000000
00100000
00000000
00001000
00010000
,
00001000
00010000
00000100
00001000
,
00000010
00000100
00002002
00003003
,
00000020
00000000
00000000
00001030
00000000
00000100
00010000
00000100
,
00020000
00000000
00000000
00031000
00000000
00001000
00100000
00000000
,
00010000
01000000
00100000
10000000
,
00010000
00100000
00010000
00000000
01000000
00000000
10010000
00000000
,
20000000
00000000
30200000
00000000
,
01300000
00010000
00100000
00001000
,
00020000
00000000
00030020
00000000
,
00000130
00000001
00001000
00000001
,
00001000
00000000
00000000
00000100
00000000
00000000
00000000
00000000
,
00010000
00000000
00000000
00001000
00000000
00000000
00000000
00000000
,
00100000
00010000
01000000
00100000
,
10000000
00100000
02000000
03000000
,
00200000
00000000
20300000
00000000
,
30010000
00100000
00001000
00010000
,
00002000
00000000
00023000
00000000
,
00030100
00001000
00000001
00001000
,
00000010
00000000
00000010
00001000
00000000
00001000
00000010
00000000
,
00000100
00000000
00000001
00000100
00000000
00000100
00000001
00000000
,
00001000
00000000
00000100
00001000
00000000
00001000
00000100
00000000
,
00010000
00000000
00001000
00010000
00000000
00010000
00001000
00000000
,
00100000
00010000
01000000
10000000
,
01000000
00010000
00100000
00110000
,
00200000
00000000
00000000
00000000
00000000
00000000
00310000
00100000
,
00020000
00000000
00000000
00000000
01030000
00000000
00100000
10000000
,
00200000
00000000
02300000
00000000
,
03010000
00100000
00001000
00010000
,
00000200
00000000
00000000
00001300
00000000
00000001
00000100
00000000
,
00000020
00000000
00000000
00001030
00000000
00000100
00010000
00000000
,
00002000
00003000
00200000
00300000
,
00010000
01000000
10100000
01010000
,
10000000
00000000
00100000
00000000
01000000
00000000
00010000
00100000
,
00010000
00000000
00100000
00000000
00001000
00000000
00010000
00001000
,
00010000
00000000
00000100
00000000
00001000
00000000
00000001
00001000
,
00000010
00001000
00001100
00000011
,
00000200
00000000
00000000
00000310
00000000
00001000
00000100
00000000
,
00001200
00000000
00000000
00010300
00000000
00010000
00001000
00000000
,
00100000
00010000
01000000
10000000
,
01000000
00010000
00100000
00001000
,
00010000
00000000
00010000
00010000
00000000
00001000
00001000
00000000
,
00010000
00000000
00000100
00000100
00000000
00001000
00001000
00000000
,
00000010
00000000
00000100
00000001
00000000
00000001
00000100
00000000
,
00000010
00001000
00000100
00010000
,
01000000
00000000
00010000
01000000
00000000
01000000
00100000
00000000
,
10000000
00000000
00100000
01000000
00000000
01000000
00010000
00000000
,
10000000
00000000
00000000
01000000
00000000
00000000
00010000
00000000
,
00000000
00001000
00000000
00000000
00000100
00000000
00000001
00000000
,
00000010
00000000
00000000
00001000
00000000
00000000
00010000
00000000
,
00100000
00010000
01000000
00100000
,
00022000
00000000
00000000
00000000
,
00033000
00000000
00000000
00000000
;

//---------------dance-single - ----------------
#NOTES:
     dance-single:
     :
     Medium:
     9:
     0.340484,0.401327,0.286662,0.245710,0.000000,291.000000,256.000000,35.000000,30.000000,0.000000,0.000000,0.340484,0.401327,0.286662,0.245710,0.000000,291.000000,256.000000,35.000000,30.000000,0.000000,0.000000:
0000
0000
0000
0000
,
0000
0000
0000
0000
,
0000
0000
0000
0000
,
0000
0000
0000
0000
,
0000
0000
0000
0000
,
0010
1000
0001
1000
,
0010
0000
0100
0000
0001
1000
0001
0000
,
1000
0010
0100
0001
,
1000
0010
0100
1001
,
0020
0000
0000
0000
0030
0000
1000
0001
,
1000
0000
0000
0010
0000
1000
0010
1000
,
0010
0100
0000
0100
,
0001
0100
1010
0101
,
2000
0000
0000
3010
0000
1000
1000
0000
,
0002
0000
0000
0103
0000
0001
0001
0000
,
1000
0010
0001
0100
,
0020
0000
0000
0130
0000
0001
1000
0000
,
0010
0010
1100
0011
,
0100
0100
0011
1100
,
0001
0001
1010
0101
,
1000
0010
0110
1001
,
0002
0000
0000
0103
0000
1000
1000
0000
,
2000
0000
0000
3100
0000
0001
0001
0000
,
1010
0000
0001
0100
0001
0000
1000
0000
,
0010
0010
0100
0100
,
1002
0000
0203
0000
,
0310
1000
0010
0100
,
0002
0000
0203
0000
,
0310
1000
0010
0100
,
0001
0000
0000
1000
0000
0000
0000
0000
,
1000
0000
0000
0001
0000
0000
0000
0000
,
1000
0010
0010
0100
,
0001
0100
0100
0010
,
2001
0000
3020
0000
,
0130
0001
1000
0001
,
0200
0000
0302
0000
,
1003
0010
0100
0001
,
1100
0000
0000
0100
0000
0000
0010
0000
,
0101
0000
0000
0100
0000
0000
0010
0000
,
1010
0000
0000
0010
0000
0000
0100
0000
,
0101
0000
0000
0100
0000
0000
0010
0000
,
1000
0010
0100
0001
,
2000
0000
0000
3001
,
1000
0000
0001
0000
0100
0001
0100
0000
,
0010
0000
1000
0000
0010
0100
0010
0000
,
1000
0000
0001
0000
1000
0100
1000
0000
,
0001
0010
0001
0000
0110
0000
1001
0000
,
0002
0000
0000
0103
0000
0001
0100
0010
,
0200
0000
0000
0301
0000
1000
0010
1000
,
0010
1100
0010
0101
,
1010
0010
0100
1001
,
0001
0000
0100
0000
0010
1000
0010
1000
,
0010
0000
0100
0000
0001
1000
0001
1000
,
0001
0010
0100
1000
,
0011
0100
1100
0011
,
0100
0000
0000
1001
0000
0010
0100
0000
,
1001
0000
0000
0110
0000
0001
0100
0010
,
1000
0101
1000
0011
,
1000
0010
0100
0000
0001
0100
0010
0000
,
2000
3010
0020
0130
,
0200
0301
0002
1003
,
0001
0100
0001
0000
1000
0010
1000
0000
,
0002
0100
0100
0103
,
0010
1000
0010
0000
0100
0000
1001
0000
,
0001
0100
0001
0000
0100
0000
1010
0000
,
0002
0000
0000
0203
0000
0000
2300
0000
,
0000
3020
0000
0000
0031
0000
0100
0000
,
0020
0000
0000
2030
0000
0000
3100
0000
,
0001
0100
0001
0000
1000
0010
1000
0000
,
2002
0000
0000
0000
,
3003
0000
0000
0000
;

//---------------dance-double - ----------------
#NOTES:
     dance-double:
     :
     Easy:
     5:
     0.191888,0.286662,0.065523,0.245710,0.000000,164.000000,156.000000,8.000000,30.000000,0.000000,0.000000,0.191888,0.286662,0.065523,0.245710,0.000000,164.000000,156.000000,8.000000,30.000000,0.000000,0.000000:
00000000
00000000
00000000
00000000
,
00000000
00000000
00000000
00000000
,
00000000
00000000
00000000
00000000
,
00000000
00000000
00000000
00000000
,
00000000
00000000
00000000
00000000
,
00000000
00010000
00000000
00010000
,
00000000
00001000
00000000
00001000
,
00000000
00010000
00000000
00010000
,
00001000
00010000
00001000
00010000
,
00001000
00000000
00000000
01000000
,
00100000
00000000
00000000
10000000
,
00010000
00000000
00000000
00000000
,
01000000
00000000
00001000
00000000
,
00010000
00010000
00010000
00000000
,
00001000
00001000
00001000
00000000
,
00010000
00000000
00000100
00000000
,
00000001
00000000
00000100
00000000
,
00020000
00000000
00030000
00000000
,
00002000
00000000
00003000
00000000
,
00010000
00000000
00000100
00000000
,
00000010
00000000
00000001
00001000
,
00000001
00000001
00000001
00000000
,
00001000
00001000
00001000
00000000
,
00000010
00000000
00001000
00000000
,
00010000
00000000
00001000
00000000
,
00022000
00000000
00000000
00000000
,
00033000
00000000
00000000
00000000
,
00200000
00000000
00000000
00000000
,
00320000
00000000
00000000
00000000
,
01030000
00000000
01000000
00000000
,
00100000
00000000
00100000
00000000
,
10000000
00000000
00010000
00000000
,
10000000
00000000
00010000
00000000
,
00200000
00000000
00000000
00000000
,
00302000
00000000
00023000
00000000
,
00032000
00000000
00000000
00000000
,
00023000
00000000
00030200
00000000
,
00001300
00000010
00000001
00000000
,
00000001
00000100
00001000
00000000
,
00010000
01000000
10000000
00000000
,
10000000
00100000
00010000
00000000
,
00001000
00000100
00000010
00000001
,
00002002
00000000
00000000
00003003
,
00000010
00001000
00000100
00000100
,
00010000
00001000
01000000
01000000
,
00010000
10000000
00010000
10000000
,
00100000
00100000
10010000
00000000
,
00200000
00000000
01300000
00001000
,
00020000
00000000
00030100
00001000
,
00000010
00000000
00000001
00000000
,
00001000
00000000
00000100
00000000
,
00020000
00000000
00001000
00031000
,
00002000
00000000
00010000
00013000
,
00010000
00000000
00001000
00000000
,
00100000
00010000
01000000
10000000
,
10010000
00000000
00000000
00010000
,
00011000
00000000
00000000
00001000
,
00001001
00000000
00001010
00000000
,
00000100
00010000
00001000
00010000
,
00000200
00000300
00020000
00030000
,
02000000
03000000
20000000
30000000
,
00200000
00300000
00020000
00030000
,
00100000
00001000
00010000
00000100
,
00002000
00003000
00000020
00000030
,
00000002
00000003
00000200
00000300
,
00010000
00001000
00010000
00001000
,
00010000
00001000
00010000
00001000
,
00100000
00010000
01000000
10000000
,
01000000
00010000
00100000
00001000
,
00022000
00000000
00000000
00000000
,
00033000
00000000
00000000
00000000
;

//---------------dance-single - ----------------
#NOTES:
     dance-single:
     :
     Easy:
     4:
     0.166147,0.286662,0.040952,0.245710,0.000000,142.000000,137.000000,5.000000,30.000000,0.000000,0.000000,0.166147,0.286662,0.040952,0.245710,0.000000,142.000000,137.000000,5.000000,30.000000,0.000000,0.000000:
// measure 0
0000
0000
0000
0000
,  // measure 1
0000
0000
0000
0000
,  // measure 2
0000
0000
0000
0000
,  // measure 3
0000
0000
0000
0000
,  // measure 4
0000
0000
0000
0000
,  // measure 5
0000
0010
0000
0010
,  // measure 6
0000
0100
0000
0100
,  // measure 7
0000
0001
0000
0001
,  // measure 8
1000
0001
1000
0001
,  // measure 9
2000
0000
3000
0000
,  // measure 10
0002
0000
0003
0000
,  // measure 11
0200
0000
0300
0000
,  // measure 12
0010
0000
0010
0000
,  // measure 13
1000
1000
1000
0000
,  // measure 14
0001
0001
0001
0000
,  // measure 15
1000
0000
0001
0000
,  // measure 16
1000
0001
1000
0000
,  // measure 17
0002
0000
0003
0000
,  // measure 18
0200
0000
0300
0000
,  // measure 19
0020
0000
0030
0000
,  // measure 20
1000
0000
0001
0000
,  // measure 21
1000
1000
1000
0000
,  // measure 22
0001
0001
0001
0000
,  // measure 23
0200
0300
0020
0030
,  // measure 24
0100
0100
0100
0000
,  // measure 25
0002
0000
0000
0000
,  // measure 26
2003
0000
0000
0000
,  // measure 27
3020
0000
0000
0000
,  // measure 28
0230
0000
0000
0000
,  // measure 29
0301
0000
0001
0000
,  // measure 30
1000
0000
1000
0000
,  // measure 31
0001
0000
0001
0000
,  // measure 32
1000
0000
1000
0000
,  // measure 33
0020
0000
0000
0000
,  // measure 34
2030
0000
0000
0000
,  // measure 35
3200
0000
0000
0000
,  // measure 36
0302
0000
0000
0000
,  // measure 37
1003
0100
1000
0000
,  // measure 38
0001
0100
0001
0000
,  // measure 39
1000
0010
1000
0000
,  // measure 40
0001
0010
0001
0000
,  // measure 41
0200
0000
0320
0000
,  // measure 42
0030
0000
0000
0000
,  // measure 43
0002
0000
0000
1003
,  // measure 44
2000
0000
0000
3001
,  // measure 45
0002
0000
2003
0000
,  // measure 46
3020
0000
0230
0000
,  // measure 47
0301
0001
1001
0000
,  // measure 48
1000
1000
1001
0000
,  // measure 49
0020
0000
0230
0000
,  // measure 50
0302
0000
2003
0000
,  // measure 51
3010
0000
0010
0100
,  // measure 52
0010
0000
0100
0010
,  // measure 53
0100
0000
0010
0000
,  // measure 54
1000
0000
0001
0000
,  // measure 55
1001
0000
0000
0000
,  // measure 56
0110
0000
0000
0000
,  // measure 57
0001
0000
0100
0000
,  // measure 58
1000
0000
0100
0000
,  // measure 59
0001
0001
0001
0000
,  // measure 60
1000
1000
1000
0000
,  // measure 61
0010
0010
0010
0000
,  // measure 62
0100
0100
0100
0000
,  // measure 63
0001
0001
0100
0000
,  // measure 64
1000
1000
0100
0000
,  // measure 65
0001
0000
0100
0000
,  // measure 66
1000
0000
0100
0000
,  // measure 67
0001
0100
0001
0100
,  // measure 68
1000
0100
1000
0100
,  // measure 69
2002
0000
0000
0000
,  // measure 70
3003
0000
0000
0000
;

//---------------dance-single - ----------------
#NOTES:
     dance-single:
     :
     Beginner:
     3:
     0.100624,0.171997,0.008190,0.098284,0.000000,86.000000,85.000000,1.000000,12.000000,0.000000,0.000000,0.100624,0.171997,0.008190,0.098284,0.000000,86.000000,85.000000,1.000000,12.000000,0.000000,0.000000:
0000
0000
0000
0000
,
0000
0000
0000
0000
,
0000
0000
0000
0000
,
0000
0000
0000
0000
,
0000
0000
0000
0000
,
0000
0001
0000
0001
,
0000
0001
0000
0001
,
0000
1000
0000
1000
,
0000
1000
0000
0000
,
0010
0000
0000
0000
,
0100
0000
0000
0000
,
0001
0000
0000
0000
,
1000
0000
0000
0000
,
0010
0000
0000
0000
,
0010
0000
0000
0000
,
0100
0000
0100
0000
,
0100
0000
0000
0000
,
0001
0000
0000
0000
,
1000
0000
0000
0000
,
0001
0000
0000
0000
,
1000
0000
0000
0000
,
0010
0000
0000
0000
,
0100
0000
0000
0000
,
0010
0000
0010
0000
,
0010
0000
0000
0000
,
0002
0000
0003
0000
,
2000
0000
3000
0000
,
0002
0000
0000
0000
,
0003
0000
0000
0000
,
2000
0000
3000
0000
,
0002
0000
0003
0000
,
2000
0000
0000
0000
,
3000
0000
0000
0000
,
0020
0000
0030
0000
,
0200
0000
0300
0000
,
0020
0000
0000
0000
,
0030
0000
0000
0000
,
0100
0000
0100
0000
,
0100
0000
0100
0000
,
0010
0000
0010
0000
,
0010
0000
0010
0000
,
1000
0000
0001
0000
,
2000
0000
3000
0000
,
0001
0000
0000
0000
,
0100
0000
0000
0000
,
1000
0000
0000
0000
,
0010
0000
0000
0000
,
0001
0000
0001
0000
,
1000
0000
1000
0000
,
0001
0000
0001
0000
,
1000
0000
0000
0000
,
0010
0000
0000
0000
,
1000
0000
0000
0000
,
0100
0000
0000
0000
,
0001
0000
0000
0000
,
0010
0000
0010
0000
,
0100
0000
0100
0000
,
0010
0000
0000
0000
,
0100
0000
0000
0000
,
0001
0000
0001
0000
,
1000
0000
1000
0000
,
0010
0000
0010
0000
,
0100
0000
0100
0000
,
0010
0000
0010
0000
,
1000
0000
1000
0000
,
0001
0000
0000
0000
,
0100
0000
0000
0000
,
1000
0000
1000
0000
,
0001
0000
0001
0000
,
2002
0000
0000
0000
,
3003
0000
0000
0000
;
