#TITLE:Field of Hopes and Dreams;
#SUBTITLE:(SayMaxWell Remix);
#ARTIST:SayMaxWell;
#TITLETRANSLIT:;
#SUBTITLETRANSLIT:;
#ARTISTTRANSLIT:;
#GENRE:;
#CREDIT:;
#BANNER:Field of Hopes and Dreams (SayMaxWell Remix).png;
#BACKGROUND:Field of Hopes and Dreams (SayMaxWell Remix)-bg.png;
#LYRICSPATH:;
#CDTITLE:;
#MUSIC:Field of Hopes and Dreams (SayMaxWell Remix).ogg;
#OFFSET:1.860000;
#SAMPLESTART:89.077492;
#SAMPLELENGTH:15.000000;
#LASTBEATHINT:1.834667;
#SELECTABLE:YES;
#BPMS:0.000000=128.000000
;
#STOPS:
;
#BGCHANGES:;
#KEYSOUNDS:;
#ATTACKS:;

//---------------dance-single - ----------------
#NOTES:
     dance-single:
     :
     Hard:
     12:
     0.519387,0.532224,0.082944,0.248832,0.238464,526.000000,514.000000,12.000000,36.000000,0.000000,0.000000,0.519387,0.532224,0.082944,0.248832,0.238464,526.000000,514.000000,12.000000,36.000000,0.000000,0.000000:
0000
0000
0000
0000
,
0000
0000
0000
0000
,
0000
0000
0000
0000
,
0000
0000
0000
0000
,
0000
0000
0000
0000
,
1000
0000
0000
1000
0010
0000
1000
0000
0001
0000
0000
0001
0100
0000
0001
0000
,
1000
0000
0000
1000
0010
0000
1000
0000
0001
0000
0100
0000
0010
0000
1000
0000
,
0010
0000
0000
0010
1000
0000
0001
0000
0100
0000
0000
0100
0001
0000
1000
0000
,
0010
0000
0000
0010
1000
0000
0001
0000
1000
0000
0000
0000
1001
0000
0000
0000
,
1000
0000
1000
0100
0000
0000
1000
0000
0100
0000
0010
0000
0001
0000
0100
0000
,
0001
0000
0001
0100
0000
0000
0001
0000
0010
0000
0100
0000
1000
0000
0010
0000
,
0100
0000
0100
0010
0000
0000
1000
0000
0001
0000
1000
0000
0001
0000
0100
0000
,
0010
0000
0100
0010
0000
0000
0010
0000
1000
0000
0100
0000
0010
0000
0001
0000
,
0100
0000
0100
0001
0000
0000
1000
0000
0010
0000
1000
0000
0001
0000
1000
0000
,
0100
0000
0100
0010
0000
0000
0001
0000
0100
0000
0010
0000
1000
0000
0010
0000
,
0100
0000
0100
0001
0000
0000
1000
0000
0100
0000
0001
0000
0100
0000
1000
0000
,
0010
0000
1000
0010
0000
0000
1000
0000
0001
0000
0100
0010
0100
0000
0010
0000
,
2000
0000
0000
0100
0000
0000
3100
0000
0020
0000
0000
0001
0000
0000
0031
0000
,
0200
0000
0000
0010
0000
0000
0310
0000
0001
0000
1000
0000
0010
0000
1000
0000
,
0002
0000
0000
1000
0000
0000
1003
0000
0020
0000
0000
0100
0000
0000
0130
0000
,
0002
0000
0000
1000
0000
0000
1003
0000
0010
0000
1000
0000
0100
0000
0010
0000
,
0002
0000
0000
0100
0000
0000
0103
0000
0020
0000
0000
1000
0000
0000
1030
0000
,
0002
0000
0000
0010
0000
0000
0013
0000
0001
0000
1000
0000
0100
0000
0010
0000
,
0002
0000
0000
0100
0000
0000
0103
0000
0020
0000
0000
1000
0000
0000
1030
0000
,
0002
0000
0000
0010
0000
0000
0013
0000
0001
0000
1000
0000
0010
0000
0100
0000
,
0001
0000
0000
0001
1000
0000
0010
0000
1000
0000
0000
1000
0010
0000
0100
0000
,
0001
0000
0000
0001
0100
0000
0010
0000
1000
0000
0001
1000
0001
0000
1000
0000
,
0100
0000
0000
0100
1000
0000
0010
0000
0100
0000
0000
0100
0001
0000
0100
0000
,
0010
0000
0000
0010
1000
0000
0001
0000
1000
0000
0100
0000
0010
0000
0001
0000
,
1000
0000
0000
1000
0010
0000
1000
0000
0001
0000
0000
0001
0100
0000
0001
0000
,
1000
0000
0000
1000
0100
0000
0010
0000
0001
0000
0010
0000
0100
0000
1000
0000
,
0010
0000
0000
0010
0100
0000
0001
0000
1000
0000
0000
1000
0001
0000
0100
0000
,
0010
0000
0000
0010
1000
0000
0100
0000
0010
0000
0001
0100
0001
0000
0100
0000
,
0010
0000
0000
0010
1000
0000
0000
1000
0001
0000
1000
0001
1000
0000
0010
0000
,
0100
0000
0000
0100
0001
0000
0000
0001
0010
0000
0001
0100
0001
0000
0100
0000
,
0010
0000
0000
0010
1000
0000
0001
0000
1001
0000
0000
1000
0010
0000
0100
0000
,
0110
0000
0000
0010
1000
0000
0100
0000
0010
0000
0001
0000
0100
0000
0010
0000
,
0001
0000
0001
0000
0001
0000
0001
0000
0001
0000
0000
0001
1000
0000
0010
0000
,
0100
0000
0100
0000
0100
0000
0100
0000
0100
0000
0000
0100
0010
0000
1000
0000
,
0001
0000
0000
0001
0100
0000
0010
0000
1000
0000
0100
0000
0010
0000
0000
0010
,
0001
0000
0000
0001
0100
0000
0010
0000
1000
0000
0001
0000
1000
0000
0100
0000
,
0010
0010
0010
0010
0010
0000
1000
0001
,
0100
0000
0100
0000
0100
0000
0100
0000
0100
0000
0000
0000
0000
0000
0001
1000
,
0001
0001
0001
0001
0001
0000
1000
0010
,
0200
0000
0000
0000
0000
0000
0301
0000
2000
0000
0000
0000
3000
0000
0001
1000
,
0001
0001
0001
0001
0001
0000
1000
0010
,
1000
1000
1000
1000
1000
0000
0001
0100
,
0010
0010
0010
0010
0020
0000
1030
0001
,
0200
0000
0000
0301
1000
0100
0010
0001
,
1000
0010
1000
0001
1000
0000
1100
0010
,
0001
0000
0100
0000
0001
0000
0100
0000
0010
0000
0000
0000
0100
0000
0010
1000
,
0010
0100
0010
0100
0001
0000
1000
0001
,
2000
0000
3010
0100
0002
0000
0103
0010
,
1000
0100
1000
0001
1000
0000
0101
0010
,
1000
0100
1000
0100
1000
0000
0110
1000
,
0002
0000
0000
0000
0003
0000
1000
0000
0001
0000
0010
0000
0100
0000
0000
0100
,
0020
0000
1030
0001
1000
0100
0010
0001
,
0100
0010
0100
0010
0110
0000
0001
0010
,
0100
0000
1000
0000
0100
0000
1000
0000
1100
0000
0000
0000
0010
0000
0001
0100
,
0001
0100
0010
0100
0002
0000
1003
0100
,
0020
0000
0000
0000
0031
0000
0100
0000
0020
0000
0000
0000
1030
0000
0001
1000
,
0010
0010
0010
0010
0020
0000
1030
0001
,
0100
0100
0100
0100
0200
0000
0301
1000
,
0020
0000
0000
0000
1030
0000
0100
0000
0010
0000
0001
0000
0110
0000
0000
0010
,
0200
0000
0300
0001
0010
0100
1000
0001
,
0001
0000
1000
0100
0010
0001
1000
0001
,
0001
0000
0010
0100
0001
1000
0010
1000
,
0002
0000
0000
1003
0002
0000
0000
1003
,
1001
0000
0000
1001
0000
0000
1001
0000
0010
0000
1000
0100
0010
0000
0001
0000
,
2000
0000
0000
0000
0000
0000
0000
0000
3001
0000
0010
0001
0010
0000
0001
0000
,
0200
0000
0000
0000
0000
0000
0000
0000
0310
0000
1000
0010
1000
0000
0001
0000
,
0200
0000
0300
0001
0020
0000
0030
1000
,
0200
0000
0300
1000
0010
0001
0010
1000
,
0001
0000
1000
0001
1000
0000
0001
0000
0001
0000
0000
0000
1000
0000
0100
0000
,
0010
0000
0001
1000
0001
0000
0001
0000
1000
0000
0000
0000
0010
0000
0100
0000
,
0002
0000
0000
0000
0003
0000
1000
0000
0100
0000
0010
0000
0001
0000
0000
1000
,
0002
0000
0000
0000
,
0003
0000
0000
0000
;

//---------------dance-single - ----------------
#NOTES:
     dance-single:
     :
     Medium:
     9:
     0.370286,0.425779,0.145152,0.407808,0.000000,375.000000,354.000000,21.000000,59.000000,0.000000,0.000000,0.370286,0.425779,0.145152,0.407808,0.000000,375.000000,354.000000,21.000000,59.000000,0.000000,0.000000:
0000
0000
0000
0000
,
0000
0000
0000
0000
,
0000
0000
0000
0000
,
0000
0000
0000
0000
,
0000
0000
0000
0000
,
0010
0000
0010
1000
0001
0000
0001
0100
,
1000
0000
1000
0010
0100
0001
0100
0010
,
1000
0000
1000
0100
0010
0000
0100
0010
,
0001
0000
1000
0100
0001
0100
1000
0000
,
0010
0000
0010
0100
0010
0000
0010
0100
,
0010
0000
1000
0100
0010
0001
0010
0100
,
1000
0000
0100
0010
0100
0000
0100
0010
,
0100
0000
0001
0010
0100
1000
0100
0010
,
0001
0000
1000
0100
0010
0000
1000
0100
,
0010
0000
1000
0100
0010
0100
1000
0000
,
0001
0000
0100
0001
0010
0000
0100
0001
,
0010
0000
0001
1000
0010
1000
0001
0000
,
2000
0000
3002
0000
,
2003
0000
0000
0000
3001
0100
0010
0100
,
0002
0000
2003
0000
,
3002
0000
0000
0000
1003
0100
0010
0001
,
2000
0000
3200
0000
,
0320
0000
0000
0000
0031
1000
0010
1000
,
0002
0000
0000
0003
0020
0000
0000
0000
,
0230
0000
0000
0000
0310
1000
0100
1000
,
0020
0130
0200
0310
,
0020
0000
0130
0000
0001
1000
0010
1000
,
0002
1003
2000
3001
,
0002
0000
1003
0000
1000
0100
0010
0001
,
2000
3100
0020
0031
,
0200
0000
0310
0000
0001
0100
0010
1000
,
0002
0003
0010
0000
0200
0000
1300
0000
,
0020
0000
0130
0000
0001
0100
0010
0100
,
0002
0000
1003
0000
1000
0100
0010
0100
,
2000
0000
3001
0000
0010
0100
0001
0100
,
0020
1030
2000
3100
,
0200
0000
0301
0000
0001
0100
1000
0100
,
0001
0000
1001
0000
0001
0000
0001
1000
,
0100
0000
1001
0000
0100
0000
0010
1000
,
0200
0000
0300
0000
0010
1000
0100
0000
,
2002
0000
3003
0000
0001
0100
0001
0100
,
0001
0000
0001
0000
0001
0000
1000
0010
,
1000
1000
2000
3000
,
0010
0000
0010
0000
0010
0000
1000
0001
,
2000
0000
3002
0000
,
0103
0000
0100
0000
0100
0000
0010
0100
,
0001
0000
0001
0000
0001
0000
1000
0100
,
0010
0000
1010
0000
0010
0000
0100
0001
,
1000
0000
1001
0110
,
1000
0000
1001
0000
1000
0000
0001
0100
,
0001
0000
1001
0000
0001
0000
1000
0010
,
0100
0000
0100
0000
0100
0000
0001
0100
,
0010
0000
0010
0000
0010
0000
1000
0100
,
0010
0000
0100
0010
0100
0000
0001
0100
,
0010
0000
0010
0100
0010
0000
1000
0001
,
0200
0000
0300
0000
0001
0100
0010
0000
,
2002
0000
3003
0000
1000
0100
0010
0001
,
0100
0010
0100
0010
0100
0000
1001
0000
,
0010
0100
0010
0100
0010
0000
1001
0000
,
0001
0100
0010
0100
0001
0000
1000
0100
,
0020
0000
1030
0100
0002
0000
0103
0010
,
0010
1000
0001
1000
0001
0000
0100
0010
,
0010
1000
0100
0010
0001
0000
1000
0001
,
0200
0000
0300
0001
0100
0010
0100
0000
,
2002
0000
3003
0000
0010
1000
0001
0000
,
2002
0000
3003
0000
0010
0001
1000
0000
,
2002
0000
3003
0000
0001
0100
1000
0000
,
0020
0030
0200
0300
,
0002
0000
1003
0110
,
2002
0000
3003
0000
1000
0001
0100
0010
,
2000
0000
3000
0000
0001
1000
0100
0010
,
0002
0000
0000
0100
0203
0000
0000
0010
,
0320
0000
0000
0000
1030
0001
1000
0010
,
0100
0000
1001
0000
1100
0000
0010
0100
,
0001
0000
1001
0000
0101
0000
1000
0010
,
2000
0000
0000
3001
0100
0010
1000
0000
,
2002
0000
0000
0000
,
3003
0000
0000
0000
;

//---------------dance-double - ----------------
#NOTES:
     dance-double:
     :
     Hard:
     12:
     0.536173,0.532224,0.048384,0.089856,0.221184,543.000000,536.000000,7.000000,13.000000,0.000000,0.000000,0.536173,0.532224,0.048384,0.089856,0.221184,543.000000,536.000000,7.000000,13.000000,0.000000,0.000000:
// measure 0
00000000
00000000
00000000
00000000
,  // measure 1
00000000
00000000
00000000
00000000
,  // measure 2
00000000
00000000
00000000
00000000
,  // measure 3
00000000
00000000
00000000
00000000
,  // measure 4
00000000
00000000
00000000
00000000
,  // measure 5
01000000
00000000
01000000
00100000
00010000
00000000
00100000
00001000
,  // measure 6
00010000
00000000
00000000
00010000
00000000
00000000
00000010
00000000
00001000
00000000
00000100
00000000
00000010
00000000
00000001
00000000
,  // measure 7
00000100
00000000
00000010
00001000
00000100
00000000
00010000
00001000
,  // measure 8
01000000
00000000
00010000
00100000
01000000
10000000
01100000
00000000
,  // measure 9
10000000
00000000
00000000
10000000
00010000
00000000
00000000
00000000
00100000
00000000
00000000
00100000
00001000
00000000
00000000
00000000
,  // measure 10
00010000
00000000
00000000
00010000
00000010
00000000
00001000
00000000
00000100
00000000
00000010
00000000
00000001
00000000
00000000
00000000
,  // measure 11
00000100
00000000
00000000
00000100
00001000
00000000
00000000
00000000
00000100
00000000
00000000
00000100
00010000
00000000
00000000
00000000
,  // measure 12
00001000
00000000
00000000
00001000
01000000
00000000
00000000
00000000
00010000
00000000
00100000
00000000
01000000
00000000
00000000
00000000
,  // measure 13
10000000
00000000
00000000
10000000
00010000
00000000
00000000
00000000
00100000
00000000
00000000
00100000
00001000
00000000
00000000
00000000
,  // measure 14
00010000
00000000
00000000
00010000
00000010
00000000
00001000
00000000
00000001
00000000
00001000
00000000
00000100
00000000
00010000
00000000
,  // measure 15
00001000
00000000
00000000
00001000
00010000
00000000
00000000
00000000
01000000
00000000
00000000
01000000
00001000
00000000
00000000
00000000
,  // measure 16
10000000
00000000
00000000
10000000
00010000
00000000
10000000
00000000
00010000
00000000
00100000
00000000
00010000
00000000
01000000
00000000
,  // measure 17
00100000
00000000
00000000
00100000
01000000
00000000
00010000
00000000
00100000
00000000
00000000
00100000
00001000
00000000
00010000
00000000
,  // measure 18
00000010
00000000
00000000
00000010
00001000
00000000
00000001
00000000
00000100
00000000
00000010
00000000
00001000
00000000
00000100
00000000
,  // measure 19
00010000
00000000
00000000
00010000
00001000
00000000
00100000
00000000
00010000
00000000
00000000
01000000
00100000
00000000
10000000
00000000
,  // measure 20
00100000
00000000
00000000
10000000
00100000
00000000
01000000
00000000
00010000
00000000
00100000
00010000
00100000
00000000
00001000
00000000
,  // measure 21
00010000
00000000
00000000
00010000
00000100
00000000
00001000
00000000
00000010
00000000
00000000
00000010
00000100
00000000
00000001
00000000
,  // measure 22
00001000
00000000
00000000
00001000
00000100
00000000
00010000
00000000
00001000
00000000
01000000
00000000
00010000
00000000
10000000
00000000
,  // measure 23
00100000
00000000
00000000
00100000
10000000
00000000
01000000
00000000
00100000
00000000
00000000
00100000
00001000
00000000
00010000
00000000
,  // measure 24
00000010
00000000
00000000
00000010
00001000
00000000
00000001
00000000
00000100
00000000
00000010
00001000
00000100
00000000
00001000
00000000
,  // measure 25
00000001
00000000
00001000
00000000
00000100
00000000
00010000
00001000
00010000
00000000
00001000
00000000
00100000
00000000
00010000
01000000
,  // measure 26
00010000
01000000
00100000
10000000
01000000
00100000
00001000
00010000
,  // measure 27
00000010
00000000
00000100
00000000
00000001
00000000
00000100
00000010
00000100
00000000
00000001
00000000
00001000
00000000
00000100
00010000
,  // measure 28
00000100
00010000
00001000
01000000
00100000
01000000
10000000
01000000
,  // measure 29
00010000
01000000
00010000
00100000
00001000
00010000
00000010
00001000
,  // measure 30
00000001
00001000
00000100
00010000
00001000
01000000
00100000
01000000
,  // measure 31
00001000
00000000
00010000
00000000
00000010
00000000
00001000
00000100
00001000
00000000
00000010
00000000
00000100
00000000
00000001
00000010
,  // measure 32
00000001
00000000
00000100
00000000
00000010
00000000
00001000
00000000
00000100
00000000
00010000
00001000
00010000
00000000
00001000
00000000
,  // measure 33
02000000
00000000
00000000
00000000
03000000
00000000
00000000
00000000
00010000
00000000
00100000
01000000
00100000
00000000
00010000
00000000
,  // measure 34
20000000
00000000
00000000
00000000
30000000
00000000
00000000
00000000
00010000
00000000
00100000
00010000
00100000
00000000
00001000
00000000
,  // measure 35
00020000
00000000
00030100
00001000
00000020
00000000
00000130
00000001
,  // measure 36
00002000
00000000
00003100
00010000
00001000
01000000
00010000
10000000
,  // measure 37
00100000
00100000
00100000
00100000
00100000
00000000
00001000
00010000
,  // measure 38
00000010
00000010
00000010
00000010
00000010
00000000
00001000
00000100
,  // measure 39
00020000
00000000
00000000
00000000
00031000
00000000
00100000
00000000
00010000
00000000
00100000
00000000
00001000
00000000
00000000
00001000
,  // measure 40
00020000
00000000
00030000
00010000
00001000
00000100
00000010
00000001
,  // measure 41
00000100
00000010
00000100
00000010
00000100
00000000
00000010
00001000
,  // measure 42
00000100
00010000
00000100
00010000
00000200
00000000
00000300
00000000
,  // measure 43
00010000
00001000
01000000
00001000
00010000
00000000
00001000
01000000
,  // measure 44
00200000
00000000
00300000
10000000
00200000
00000000
00300000
10000000
,  // measure 45
00010000
00100000
00010000
00100000
00010000
00000000
00001000
00010000
,  // measure 46
00000010
00001000
00000010
00001000
00000020
00000000
00000030
00000000
,  // measure 47
00010000
00001000
00010000
00001000
00010000
00000000
00001000
01000000
,  // measure 48
00020000
00000000
00030000
10000000
01000000
00100000
00010000
01000000
,  // measure 49
00100000
00000000
10000000
00100000
10000000
00000000
00100000
00000000
01000000
00000000
00001000
00000000
00010000
00000000
00000100
00000000
,  // measure 50
00001000
00000000
00000010
00001000
00000010
00000000
00001000
00000000
00000100
00000000
00000010
00000000
00000001
00000000
00001000
00000100
,  // measure 51
00001000
00000000
00000100
00010000
00000100
00000000
00010000
00000000
00001000
00000000
01000000
00000000
00010000
00000000
10000000
00000000
,  // measure 52
00100000
01000000
01000000
00010000
00100000
00100000
00001000
00010000
,  // measure 53
00000010
00000000
00000010
00001000
00000010
00000000
00001000
00000000
00000100
00000000
00000010
00000000
00000001
00001000
00000000
00000000
,  // measure 54
00000100
00000000
00000100
00010000
00000100
00000000
00010000
00000000
00001000
00000000
01000000
00000000
00100000
00000000
10000000
00000000
,  // measure 55
01000000
00000000
00000000
00000000
10010000
00000000
00000000
00000000
10000000
00000000
01000000
00000000
00100000
00000000
00000000
00100000
,  // measure 56
00010000
00000000
00000000
00010000
00100000
00000000
00001000
00000000
00010000
00000000
00000010
00000000
00001000
00000000
00000001
00000000
,  // measure 57
00000100
00000000
00000010
00000100
00000010
00000000
00000100
00000000
00000001
00000000
00001000
00000000
00000100
00000000
00010000
00000000
,  // measure 58
00001000
00000000
01000000
00010000
01000000
00000000
00001000
00000000
01000000
00000000
00100000
00000000
10000000
00000000
00010000
10000000
,  // measure 59
00010000
00000000
10000000
00100000
10000000
00000000
00100000
00000000
01000000
00000000
00010000
00000000
00100000
00000000
00001000
00000000
,  // measure 60
00010000
00010000
00001000
00010000
00000010
00000010
00001000
00000100
,  // measure 61
00000010
00000000
00000001
00000010
00000001
00000000
00000010
00000000
00000100
00000000
00001000
00000000
00000100
00000000
00010000
00000000
,  // measure 62
00001000
00000000
01000000
00010000
01000000
00000000
00001000
00000000
01000000
00000000
00100000
00000000
10000000
00000000
00010000
00000000
,  // measure 63
00100000
00000000
00000000
00100000
00001000
00000000
00010000
00000000
00000100
00000000
00000100
00000000
00001000
00000000
00000000
00000001
,  // measure 64
00000100
00000000
00000000
00000100
00000010
00000000
00001000
00000000
00000100
00000000
00010000
00000000
00001000
00000000
01000000
00000000
,  // measure 65
00100000
00000000
00000000
00100000
10000000
00000000
01000000
00000000
00100000
00000000
00010000
00000000
00001000
00000000
00000000
00010000
,  // measure 66
00001000
00000000
00000000
00001000
00010000
00000000
00000100
00000000
00001000
00000000
00000010
00000000
00000100
00000000
00000001
00000000
,  // measure 67
00001000
00000000
00000000
00001000
00000010
00000000
00010000
00000000
00001000
00000000
00000000
00001000
00100000
00000000
00010000
00000000
,  // measure 68
01100000
00000000
00000000
10010000
00000000
00000000
01100000
00000000
10000000
00000000
01000000
00000000
00100000
00000000
00010000
00000000
,  // measure 69
00100000
00000000
00000000
00000000
01100000
00000000
00000000
00000000
00001000
00000000
00010000
00001000
00010000
00000000
00000010
00000000
,  // measure 70
00000100
00000000
00000000
00000000
00000110
00000000
00000000
00000000
00000010
00000000
00001000
00000100
00001000
00000000
00000010
00000000
,  // measure 71
00000100
00000001
00001000
00000100
00010000
00001000
01000000
00100000
,  // measure 72
10000000
01000000
00010000
00100000
00001000
00010000
00000010
00001000
,  // measure 73
00000001
00001000
00001000
00001000
00001000
00000000
00000100
00010000
,  // measure 74
00001000
00001000
00001000
00001000
00001000
00000000
00100000
00010000
,  // measure 75
01000000
00000000
00000000
00000000
10000000
00000000
01000000
00000000
00100000
00000000
00010000
00000000
00100000
00000000
00000000
00001000
,  // measure 76
00020000
00000000
00000000
00000000
,  // measure 77
00030000
00000000
00000000
00000000
;

//---------------dance-double - ----------------
#NOTES:
     dance-double:
     :
     Medium:
     10:
     0.380160,0.425779,0.117504,0.442368,0.000000,385.000000,368.000000,17.000000,64.000000,0.000000,0.000000,0.380160,0.425779,0.117504,0.442368,0.000000,385.000000,368.000000,17.000000,64.000000,0.000000,0.000000:
00000000
00000000
00000000
00000000
,
00000000
00000000
00000000
00000000
,
00000000
00000000
00000000
00000000
,
00000000
00000000
00000000
00000000
,
00000000
00000000
00000000
00000000
,
00100000
00000000
00100000
00010000
00100000
00000000
00100000
00000000
,
00001000
00000000
00001000
00010000
00001000
00000000
00001000
00000000
,
00010000
00000000
00010000
00000010
00010000
00000000
00010000
00000000
,
00000010
00000000
00001000
00000000
00000001
00000100
00000001
00000000
,
00001000
00000000
00000100
00001000
00000100
00000000
00010000
00000100
,
00010000
00000000
00001000
00010000
00001000
00000000
01000000
00000000
,
00100000
00000000
10000000
00010000
10000000
00000000
00010000
10000000
,
00010000
00000000
10000000
00100000
01000000
00000000
00001000
00000000
,
00010000
00000000
00001000
00010000
00001000
00000000
00010000
00001000
,
00010000
00000000
00000010
00001000
00000010
00000000
00000100
00000000
,
00000001
00000000
00001000
00000100
00001000
00000000
00000100
00001000
,
00000100
00000100
00001000
00100000
,
00020000
00030000
20000000
30000000
,
00020000
00000000
00030000
00000000
00100000
00001000
00010000
00000000
,
00000020
00000030
00000200
00000300
,
00000020
00000000
00000030
00000000
00001000
00000100
00010000
00000000
,
00002000
00003000
00020000
00030000
,
02000000
00000000
03000000
00000000
10000000
01000000
00010000
00000000
,
20000000
30000000
00020000
00030000
,
00002000
00000000
00003000
00000000
00000010
00001000
00000100
00000000
,
00002000
00003100
00002000
00003100
,
00002000
00000000
00003100
00000000
00000010
00000001
00000100
00000000
,
00020000
00031000
00020000
00031000
,
00020000
00000000
00031000
00000000
00100000
00010000
01000000
00000000
,
00200000
10300000
00200000
10300000
,
00200000
00000000
10300000
00000000
00010000
00100000
00001000
00000000
,
00020000
00030010
00020000
00030100
,
00020000
00000000
00031000
00000000
00010000
00000010
00001000
00000000
,
00000202
00000000
00000303
00000000
00000010
00001000
00000100
00000000
,
00022000
00000000
00033000
00000000
00100000
00010000
01000000
00000000
,
20020000
30030000
00022000
00033000
,
00002002
00000000
00003003
00000000
00000010
00001000
00000100
00000000
,
00010000
00010000
00010000
00010000
00010000
00000000
01010000
00000000
,
10000000
10000000
10000000
10000000
10000000
00000000
11000000
00000000
,
00200000
00000000
00300000
00000000
00001000
00010000
00001000
00000000
,
00022000
00033000
00010000
00001010
,
00000001
00000100
00000001
00000100
00000001
00000000
00001000
00000000
,
00000100
00010000
00000100
00010000
00000200
00000000
00000300
00000000
,
01000000
00001000
01000000
00001000
02000000
00000000
03010000
01000000
,
00200000
00000000
00000000
10300000
02000000
00000000
03000000
00000000
,
00010000
00001000
00010000
00001000
00010000
00000000
00000100
00000000
,
00001000
00000001
00001000
00000001
00001000
00000000
00000100
00000000
,
00010000
00001000
00010000
00001000
00010000
00000000
00001000
01000000
,
00020000
00000000
00030000
00000000
10000000
00010000
10000000
00000000
,
00100000
10000000
00100000
10000000
01000000
00000000
00110000
00000000
,
00100000
00001000
00100000
00001000
00010000
00000000
00010100
00000000
,
00000100
00001000
00000100
00001000
00000010
00000000
00000100
00000001
,
00002000
00000000
00003100
00010000
00002000
00000000
00103000
00010000
,
01000000
00100000
01000000
00100000
10000000
00000000
00010000
00100000
,
00001000
00010000
00001000
00010000
00001000
00000000
00010000
00000010
,
00002000
00000000
00003000
00000001
00000100
00000010
00001000
00000000
,
00000202
00000000
00000303
00000000
00001000
00000100
00010000
00001000
,
01000000
00010000
01000000
00010000
02000000
00000000
03100000
10000000
,
01000000
00010000
01000000
00010000
02000000
00000000
03100000
10000000
,
00010000
00100000
00010000
00100000
00001000
00000000
00010000
00000010
,
00002000
00000000
00003001
00001000
00000200
00000000
00010300
00001000
,
01000000
00100000
01000000
00100000
02000000
00000000
03010000
00100000
,
00001000
00010000
00001000
00010000
00002000
00000000
00013000
00000010
,
00000200
00000000
00000301
00001000
00000100
00010000
00001000
00000000
,
00011000
00000000
00100000
00010000
01000000
00100000
10000000
00000000
,
10010000
00000000
00100000
00001000
00010000
00000100
00001000
00000000
,
00001001
00000000
00001000
00000100
00010000
00001000
01000000
00100000
,
10000000
00000000
10000000
00010000
00100000
00000000
00100000
00001000
,
00022000
00000000
00033000
00000000
00010000
00000010
00001000
00000001
,
00000200
00000000
00000310
00000000
00000010
00001000
00000100
00010000
,
00002000
00000000
00013000
00000000
00001000
01000000
00100000
10000000
,
02000000
00000000
00000000
03100000
00002000
00000000
00003000
00010000
,
00000200
00000000
00000000
00001300
00000100
00000010
00000001
00000100
,
00000010
00000010
00000010
00000010
00000010
00000000
00010000
00001000
,
01000000
01000000
01000000
01000000
01000000
00000000
00001000
00010000
,
00000200
00000000
00000000
00010300
00001000
00010000
00001000
00000000
,
00022000
00000000
00000000
00000000
,
00033000
00000000
00000000
00000000
;

//---------------dance-double - ----------------
#NOTES:
     dance-double:
     :
     Easy:
     6:
     0.258706,0.345945,0.276480,0.622080,0.000000,262.000000,222.000000,40.000000,90.000000,0.000000,0.000000,0.258706,0.345945,0.276480,0.622080,0.000000,262.000000,222.000000,40.000000,90.000000,0.000000,0.000000:
00000000
00000000
00000000
00000000
,
00000000
00000000
00000000
00000000
,
00000000
00000000
00000000
00000000
,
00000000
00000000
00000000
00000000
,
00000000
00000000
00000000
00000000
,
10000000
10000000
01000000
00100000
,
00001000
00001000
00010000
00001000
,
01000000
01000000
00010000
00100000
,
00001000
00001000
00000010
00000110
,
00001000
00000100
00000010
00000001
,
00001000
00000100
00000010
00001100
,
00010000
00001000
01000000
00010000
,
00100000
00001000
00010000
00010100
,
00001000
00000001
00001000
00000100
,
00010000
00001000
01000000
10100000
,
01000000
00010000
00100000
00001000
,
00010000
00000010
00001000
00000101
,
00002002
00003003
00000020
00000030
,
00000200
00000300
00010000
00001000
,
02000000
03000000
00200000
00300000
,
20020000
30030000
10000000
00010000
,
00200000
00300000
00002000
00003000
,
00022000
00033000
00010000
00000010
,
00002000
00003000
00020000
00030000
,
00000020
00000030
00001000
00000100
,
00000022
00000033
00002200
00003300
,
00002002
00003003
00000010
00010000
,
00002000
00003000
02000000
03000000
,
00020000
00030000
10000000
00110000
,
02200000
03300000
00022000
00033000
,
00000220
00000330
00000001
00001000
,
00000220
00000330
00022000
00033000
,
02200000
03300000
00010000
10000000
,
20020000
30030000
00100000
00001000
,
00022000
00033000
00010000
00000010
,
00002002
00003003
00000220
00000330
,
00002002
00003003
00000001
00000100
,
00002002
00003003
00010000
00001000
,
00022000
00033000
00010000
00001000
,
02000000
03000000
00010000
00100000
,
20020000
30030000
01000000
10000000
,
00100000
00100000
00200000
00300000
,
00001000
00001000
00002000
00003000
,
00010000
00010000
00020000
00030000
,
00000020
00000030
00000200
00000300
,
00000001
00001000
00000002
00000003
,
00001000
00000001
00002000
00003000
,
00000200
00000300
00020000
00030000
,
00002000
00003000
00100000
00100000
,
00010000
01000000
10000000
10010000
,
10000000
01000000
00010000
10010000
,
00100000
00001000
00010000
00001000
,
00200000
00300000
00002000
00003000
,
00010000
00000010
00000100
00000001
,
00001000
00000100
00000010
00000100
,
00002000
00003000
00000100
00010000
,
00022000
00033000
00100000
00010000
,
10000000
00100000
00010000
01100000
,
00010000
00100000
10000000
01100000
,
00010000
00100000
00001000
00010000
,
00000020
00000030
00002002
00003003
,
00000001
00001000
00010100
00001000
,
00010000
00001000
00110000
00001000
,
02020000
03030000
10100000
00110000
,
02200000
03300000
00001000
00010000
,
00000020
00000030
00000100
00000001
,
00002000
00003000
00000100
00010000
,
00002000
00003000
00200000
00300000
,
20020000
30030000
01000000
00001000
,
00020000
00030000
00000010
00000010
,
00002000
00003000
00000001
00000001
,
00000200
00000300
00000002
00000003
,
00002000
00003000
00000100
00010000
,
00001000
00100000
00100000
00010000
,
10000000
01000000
01000000
00100000
,
00020000
00030000
00002000
00003000
,
00022000
00000000
00000000
00000000
,
00033000
00000000
00000000
00000000
;

//---------------dance-single - ----------------
#NOTES:
     dance-single:
     :
     Easy:
     5:
     0.217234,0.266112,0.117504,0.380160,0.000000,220.000000,203.000000,17.000000,55.000000,0.000000,0.000000,0.217234,0.266112,0.117504,0.380160,0.000000,220.000000,203.000000,17.000000,55.000000,0.000000,0.000000:
0000
0000
0000
0000
,
0000
0000
0000
0000
,
0000
0000
0000
0000
,
0000
0000
0000
0000
,
0000
0000
0000
0000
,
1000
1000
1000
0100
,
0001
0001
0001
0100
,
1000
1000
1000
0010
,
0001
0001
1000
1001
,
0001
0001
0100
0010
,
1000
1000
0010
0100
,
0001
0001
0010
0100
,
1000
1000
0100
0010
,
0001
0100
0001
0100
,
1000
0100
1000
0100
,
0001
0010
0001
0010
,
1000
0010
1000
0010
,
0002
0003
2000
3000
,
0002
0003
1000
0100
,
0020
0030
0200
0300
,
0020
0030
0100
1000
,
0002
0003
0020
0030
,
0200
0300
1000
0010
,
2000
3000
0200
0300
,
0020
0030
0001
0010
,
0002
0003
2000
3000
,
0002
0003
0100
0010
,
2000
3000
0002
0003
,
2000
3000
0010
0100
,
0002
0003
0020
0030
,
2000
3000
0100
0100
,
2000
3000
0020
0030
,
0002
0003
0100
0100
,
0020
0030
1000
0001
,
0020
0030
0001
1000
,
0010
0000
0100
0000
,
1001
0000
0100
0010
,
1000
1000
1000
0000
,
0001
0001
0001
0000
,
1001
0000
0110
0000
,
1001
0000
0010
0010
,
1000
1000
1000
0000
,
0001
0001
0001
0000
,
1000
1000
1000
0000
,
0002
0000
2003
0000
,
3001
0001
0001
0000
,
1000
1000
1000
0000
,
0010
0010
0010
0100
,
0220
0330
0001
0100
,
0010
0010
0010
0000
,
1000
1000
1000
0000
,
0001
0001
0001
0000
,
2002
3003
0220
0330
,
0001
0001
0001
0000
,
1000
1000
1000
0000
,
0020
0000
0230
0000
,
0302
0000
1003
0001
,
1000
1000
1000
0000
,
0001
0001
0001
0000
,
1000
1000
1000
0000
,
0010
0000
1001
0000
,
0001
0001
0001
0000
,
1000
1000
1000
0000
,
0010
0000
0100
0000
,
2002
0000
3003
0000
,
0020
0000
0030
0000
,
0200
0000
0300
0000
,
0002
0003
2000
3000
,
1001
0000
0010
0010
,
2002
3003
0100
0100
,
2002
3003
0001
1000
,
2002
3003
0220
0330
,
2002
3003
0001
1000
,
0010
0010
0010
0000
,
0100
0100
0100
0000
,
0001
0000
1000
0000
,
2002
0000
0000
0000
,
3003
0000
0000
0000
;

//---------------dance-single - ----------------
#NOTES:
     dance-single:
     :
     Beginner:
     2:
     0.092818,0.133056,0.000000,0.006912,0.000000,94.000000,94.000000,0.000000,1.000000,0.000000,0.000000,0.092818,0.133056,0.000000,0.006912,0.000000,94.000000,94.000000,0.000000,1.000000,0.000000,0.000000:
0000
0000
0000
0000
,
0000
0000
0000
0000
,
0000
0000
0000
0000
,
0000
0000
0000
0000
,
0000
0000
0000
0000
,
1000
0000
0000
0000
,
0001
0000
0000
0000
,
0100
0000
0000
0000
,
0010
0000
0000
0000
,
1000
0000
1000
0000
,
1000
0000
0000
0000
,
0001
0000
0001
0000
,
0001
0000
0000
0000
,
0100
0000
0100
0000
,
0100
0000
0000
0000
,
0010
0000
0010
0000
,
0010
0000
0000
0000
,
1000
0000
0001
0000
,
1000
0000
0000
0000
,
0001
0000
1000
0000
,
0001
0000
0000
0000
,
0100
0000
0010
0000
,
0100
0000
0000
0000
,
0010
0000
0100
0000
,
0010
0000
0000
0000
,
1000
0000
0001
0000
,
1000
0000
0000
0000
,
0001
0000
1000
0000
,
0001
0000
0000
0000
,
1000
0000
1000
0000
,
1000
0000
0000
0000
,
0001
0000
0001
0000
,
0001
0000
0000
0000
,
1000
0000
0000
0000
,
0001
0000
0000
0000
,
1000
0000
1000
0000
,
1000
0000
0000
0000
,
0001
0000
0000
0000
,
1000
0000
0000
0000
,
0001
0000
0001
0001
,
0001
0000
0000
0000
,
0100
0000
0000
0000
,
0010
0000
0000
0000
,
0100
0000
0000
0000
,
0010
0000
0000
0000
,
1000
0000
0000
0000
,
0001
0000
0000
0000
,
1000
0000
0000
0000
,
0001
0000
0000
0000
,
1000
0000
0000
0000
,
0001
0000
0000
0000
,
1000
0000
0000
0000
,
0001
0000
0001
0000
,
0001
0000
0000
0000
,
1000
0000
0000
0000
,
0001
0000
0100
0000
,
0100
0000
0000
0000
,
0010
0000
0000
0000
,
0100
0000
0000
0000
,
0010
0000
0000
0000
,
1000
0000
1000
0000
,
1000
0000
0000
0000
,
0001
0000
0000
0000
,
1000
0000
1000
0000
,
1000
0000
0000
0000
,
0001
0000
0000
0000
,
0100
0000
0000
0000
,
0010
0000
0000
0000
,
1000
0000
0000
0000
,
0001
0000
0000
0000
,
1000
0000
0000
0000
,
0001
0000
0001
0000
,
0001
0000
0000
0000
,
1000
0000
0000
0000
,
0001
0000
0000
0000
,
1000
0000
1000
1000
,
2000
0000
0000
0000
,
3000
0000
0000
0000
;
