#TITLE:ファミリードンドン;
#SUBTITLE:;
#ARTIST:YMCK 「太鼓の達人」より;
#TITLETRANSLIT:Family DonDon;
#SUBTITLETRANSLIT:;
#ARTISTTRANSLIT:YMCK from "TAIKO NO TATSUJIN";
#GENRE:;
#CREDIT:;
#BANNER:Family DonDon.png;
#BACKGROUND:Family DonDon-bg.png;
#LYRICSPATH:;
#CDTITLE:;
#MUSIC:Family DonDon.ogg;
#OFFSET:1.967000;
#SAMPLESTART:39.836281;
#SAMPLELENGTH:16.229507;
#LASTBEATHINT:1.966233;
#SELECTABLE:YES;
#BPMS:0.000000=122.000000
;
#STOPS:
;
#BGCHANGES:;
#KEYSOUNDS:;
#ATTACKS:;

//---------------dance-single - ----------------
#NOTES:
     dance-single:
     :
     Challenge:
     16:
     0.730049,0.809138,0.418257,0.296582,0.494304,672.000000,617.000000,55.000000,39.000000,0.000000,0.000000,0.730049,0.809138,0.418257,0.296582,0.494304,672.000000,617.000000,55.000000,39.000000,0.000000,0.000000:
0000
0000
0000
0000
,
0000
0000
0000
0000
,
0000
0000
0000
0000
,
0001
0000
1000
0100
0010
0000
1000
0010
0100
0001
0100
0001
1000
0010
1000
0010
,
0200
0302
0023
2030
,
3001
0000
1000
0001
1000
0001
1000
0001
1000
0000
0100
0000
0010
0000
0001
0000
,
1000
0000
0100
1000
0100
0000
1000
0100
1000
0000
0100
0000
0010
0000
0001
0000
,
0100
0000
0001
0100
0001
0000
0100
0001
0100
0000
0010
0000
1000
0000
0100
0000
,
1000
0000
0010
1000
0010
0000
1000
0000
0100
0000
0110
0000
1001
0000
0000
0000
,
0001
0100
0010
0100
0001
0000
1000
0000
0100
0000
1000
0010
1000
0000
0001
0000
,
1000
0000
0001
1000
0001
0000
1000
0001
1000
0000
0100
0000
0010
0000
0001
0000
,
0100
0000
0010
0100
0010
0000
0100
0010
0100
0000
0001
0000
1000
0010
1000
0000
,
0001
0000
1000
0001
1000
0000
0010
0000
0100
0000
0110
0000
1001
0000
0000
0000
,
0001
0100
1000
0100
0001
0000
1000
0000
0010
0000
0002
0000
1000
0000
1003
0000
,
0010
0000
1000
0100
0010
0000
0001
0000
0101
0000
1000
0000
0101
0000
1000
0000
,
0010
0000
1000
0100
0010
0000
0100
0000
0001
0000
0010
0100
1000
0000
0001
0000
,
1000
0000
0010
0000
0100
0001
0100
0000
0010
0000
1000
0001
1000
0000
0010
0000
,
1000
0000
1000
0100
0010
0000
0001
0000
0001
0000
0100
0010
1000
0000
1000
0000
,
0001
0000
1000
0100
1000
0000
0001
0000
0200
0000
0010
0000
0010
0000
0010
0000
,
0310
0000
1000
0001
1000
0000
0001
0000
0200
0000
0010
0000
0010
0000
0310
0000
,
0110
0000
0001
0100
0001
0000
1000
0000
0100
0000
0010
0000
0001
0000
0100
0000
,
0110
0012
0100
1003
,
1000
0000
0010
0100
0010
0000
0100
0010
0100
0000
0001
0100
0001
0000
0100
0001
,
0100
0000
0001
0010
0100
0000
0010
0000
0100
0000
0010
0100
1000
0000
0010
0000
,
1000
0000
0100
1000
0100
0000
1000
0001
1000
0000
0010
0100
0010
0000
1000
0000
,
0001
0000
0100
0010
0100
0000
0001
0000
1000
0000
0010
1000
0010
0000
1000
0000
,
1100
0000
0010
0000
0011
0000
0100
0000
0110
0000
1000
0000
0100
0010
0001
0010
,
0100
0000
0010
0100
1000
0000
0010
0000
0100
0000
0110
0000
1001
0000
0000
0000
,
0001
1000
0010
0100
0110
0000
1001
0000
,
0020
0100
0100
0100
0130
0000
1000
0100
,
0001
0000
1000
0000
0001
1000
0001
0000
1000
0000
0001
0000
1000
0001
1000
0000
,
0010
0000
0100
0000
0001
0100
0010
0000
0100
0000
0010
0000
1000
0100
0010
0000
,
1000
0000
0001
0000
0100
0010
0100
0000
0001
0000
1000
0000
0010
0100
0010
0000
,
1000
0000
0100
0000
0010
0001
0100
0000
0010
0000
1000
0000
0100
0000
0010
0000
,
0002
0100
0103
0010
2000
0100
3100
0020
,
0001
0031
0200
0310
2000
3001
0020
0031
,
2000
3010
0200
0301
0020
0031
2000
3100
,
0020
0001
0032
0100
0203
0010
0320
1000
,
2030
0001
3001
1001
1000
1100
0010
0011
,
0100
0010
0110
0001
1001
1000
0110
0000
,
0002
0100
0100
0100
2003
0100
0100
0100
,
3020
0001
0001
0001
0230
0001
0001
0301
,
1000
0000
0001
0000
1000
1000
0001
0000
1000
1000
0010
1000
0010
1000
0010
0000
,
0100
0000
0010
0000
0100
0100
0010
0000
1000
0001
1000
0001
1000
0001
1000
0000
,
0010
0000
0001
0000
0010
0010
0001
0000
0100
0001
0100
0001
0100
0001
0100
0000
,
0010
0000
1000
0000
0010
0010
1000
0000
0010
1000
0010
1000
0010
0100
0010
0000
,
1000
0000
0001
0000
1000
0010
0100
0000
0001
0010
0100
1000
0100
0010
0001
0000
,
1000
0000
0001
0000
0100
0010
1000
0000
0001
0010
0100
0010
0001
0100
0010
0000
,
1000
0000
0000
0000
0000
0000
0001
0000
0000
0000
0000
0000
1000
0000
0000
0100
0000
0000
0010
0000
0000
0000
0000
0000
1000
0000
0000
0001
0000
0000
1000
0000
0000
0010
0000
0000
0100
0000
0010
0000
0100
0000
0010
0000
0000
0000
0000
0000
,
0100
0010
0100
0010
0100
0010
0100
0010
,
0100
0000
0000
1000
0001
1000
0001
1000
0001
1000
0001
1000
0001
0100
0010
0100
0010
0100
0010
0100
0010
1000
0100
0010
,
0001
1000
0010
0100
,
0002
0100
0100
0100
2003
0100
3020
0001
,
0032
0000
0100
0000
0100
0000
0103
0010
2000
0000
3010
0000
0200
0000
0301
0000
,
0011
0110
1100
0110
0002
0100
0103
1001
,
1000
0000
0100
0010
0001
0000
1000
0000
0001
0000
0010
0100
1000
0000
0010
0000
,
0101
0000
1010
0000
0101
0000
1010
0000
0001
0000
0100
0010
1000
0001
1000
0010
,
0100
0101
1100
0101
2000
3200
0010
0310
,
0001
0100
1010
0100
0101
0000
1100
0000
,
0011
0000
0100
0001
0010
0001
0100
0010
1000
0000
0001
0100
0010
0100
1000
0100
,
0010
0000
1000
0000
0101
0000
1001
0000
0101
0000
1000
0000
0100
0010
0001
0010
,
0100
0011
0101
1001
0010
0110
1001
0110
,
1000
1100
0101
1100
0020
0130
2000
3001
,
1001
0000
1000
0100
0010
0000
0100
0000
1001
0000
0101
0000
1000
0010
0100
0000
,
0001
0000
0100
0010
1000
0000
0001
0000
0001
0010
0100
1000
0100
0010
0001
1000
,
0010
1000
0010
0100
0001
0100
0001
1000
0100
0010
0001
0010
0100
1000
0010
0100
,
0110
0000
0000
0000
1000
0100
0010
0001
1001
0000
0000
0000
0000
0000
0000
0000
;

//---------------dance-single - ----------------
#NOTES:
     dance-single:
     :
     Hard:
     11:
     0.459540,0.505711,0.220536,0.494304,0.057035,423.000000,394.000000,29.000000,65.000000,0.000000,0.000000,0.459540,0.505711,0.220536,0.494304,0.057035,423.000000,394.000000,29.000000,65.000000,0.000000,0.000000:
0000
0000
0000
0000
,
0000
0000
0000
0000
,
0000
0000
0000
0000
,
0010
1000
0010
1000
0100
0010
0001
0100
,
0020
2030
3002
0203
,
0310
0000
1001
0000
,
0002
0100
0000
0103
0010
1000
0100
0010
,
0002
0013
0020
0130
0200
0310
0020
0031
,
0001
1000
0100
0010
0001
0100
0110
0000
,
0001
0010
0100
1000
0010
0100
0110
0000
,
2000
0001
0001
3001
1000
0010
0100
0001
,
0020
0031
0002
0103
0200
0310
0020
1030
,
1000
0100
0010
0001
0100
0010
0110
0000
,
0001
1000
0001
1000
0001
0000
1000
0000
0100
0000
0010
0000
0001
0000
0100
0000
,
0020
0000
1000
0000
1030
0100
0010
0001
,
0200
0000
0010
0000
0310
0100
1001
0000
,
0002
0000
0010
0000
0013
0001
0100
0010
,
2000
3100
0200
0310
0020
0031
0001
0000
,
1001
0000
0010
0100
2002
0000
3003
0000
,
1001
0000
0100
0010
2002
0000
3003
0000
,
0011
0000
1000
0100
0010
0001
0100
0010
,
1001
0011
1100
0110
,
2000
0001
0001
3001
1000
0100
0010
0001
,
0200
0010
0310
0000
0020
0100
0130
0000
,
0001
0010
0100
1000
0002
0100
0100
0100
,
1003
0010
0100
0001
0100
0010
1000
0000
,
0001
0001
0100
0010
1000
1000
0100
0010
,
0001
0001
1000
0100
0010
0001
1001
0000
,
0001
0010
0100
1000
0020
0000
0230
0000
,
0302
1000
1000
1000
1003
0000
0200
0000
,
0310
1000
0001
1000
0000
0001
1000
0001
,
0000
1000
0001
1000
0000
0001
1000
0010
,
0100
0001
1000
0001
0000
1000
0001
1000
,
0000
0001
1000
0001
1000
0100
0010
0001
,
0002
0000
0103
0010
1000
0000
1000
0001
,
0000
1000
0100
0000
1100
0000
0110
0000
,
0012
0203
2300
3200
,
0302
0013
0011
0101
,
2001
0000
0010
3020
0000
0230
0000
0302
,
0000
1003
1001
0000
1100
0000
0011
0000
,
0200
0010
0010
0000
0302
0010
0010
0000
,
2003
0100
0100
0000
3002
0010
0010
0000
,
0103
0000
0010
0000
0100
0010
0000
0010
0000
0000
0000
0000
0000
0000
0000
0000
,
1000
0000
0001
0000
1000
0001
0000
0001
0000
0000
0000
0000
0000
0000
0000
0000
,
1000
0000
0100
0000
1000
0100
0000
0100
0000
0000
0000
0000
0000
0000
0000
0000
,
0010
0000
0001
0000
0010
0001
0000
0001
0000
0000
0000
0000
0000
0000
0000
0000
,
1000
0000
0010
0000
0100
0010
0100
0000
0001
0000
0100
0000
0010
0000
1000
0000
,
0001
0000
0100
0000
0010
0100
0010
0000
1000
0000
0100
0000
0010
0000
0001
0000
,
1000
0000
0010
0000
1000
0001
1000
0000
0010
0000
1000
0000
0010
0000
0100
0000
,
1001
1000
0000
0001
0000
1000
0000
0001
,
0000
2000
0000
0000
0002
0000
0000
0000
,
3003
0010
0100
0001
,
2000
0100
3100
0000
0020
0000
0031
0000
,
0200
0010
0010
0000
0320
1000
2030
0000
,
3001
0010
0100
1000
0020
0100
0130
0010
,
1000
0100
0010
0001
0200
0010
0310
0000
,
0001
0100
0010
1000
0002
0010
0013
0001
,
1000
0100
0010
0001
0200
0010
0310
0000
,
0001
0100
1000
0100
0001
0000
0011
0000
,
2200
0000
0000
0000
3300
0001
0100
0010
,
1000
0100
0010
0001
2000
0100
0100
3100
,
1000
0010
0100
0001
0020
0001
0031
0000
,
0001
0100
1000
0100
0001
0000
1001
0000
,
0001
0000
1000
0001
1000
0000
0010
0000
0100
0000
0001
0000
1000
0000
0000
0000
,
0001
0000
1000
0010
1000
0000
0001
0000
0100
0000
0100
0000
0100
0000
0010
0000
,
2000
3002
0203
0320
,
0130
0010
1001
0000
;

//---------------dance-single - ----------------
#NOTES:
     dance-single:
     :
     Medium:
     9:
     0.325915,0.404569,0.098861,0.433467,0.000000,300.000000,287.000000,13.000000,57.000000,0.000000,0.000000,0.325915,0.404569,0.098861,0.433467,0.000000,300.000000,287.000000,13.000000,57.000000,0.000000,0.000000:
// measure 0
0000
0000
0000
0000
,  // measure 1
0000
0000
0000
0000
,  // measure 2
0000
0000
0000
0000
,  // measure 3
2000
3000
0002
0003
,  // measure 4
1000
0100
0010
0001
,  // measure 5
2002
0000
3003
0000
,  // measure 6
0020
0030
1000
0100
,  // measure 7
0010
0001
0100
0010
,  // measure 8
1000
0001
1000
0001
1000
0001
1000
0000
,  // measure 9
0001
0010
0100
1000
0010
0000
1001
0000
,  // measure 10
0200
0300
0001
0100
,  // measure 11
0010
1000
0001
0100
,  // measure 12
0001
0010
0001
0010
0001
0100
0001
0000
,  // measure 13
1000
0000
0001
1000
0001
0000
1000
0000
,  // measure 14
0020
0000
0000
0000
0030
1000
0001
1000
,  // measure 15
0002
0000
0003
0000
,  // measure 16
0200
0000
0000
0000
0300
0001
1000
0001
,  // measure 17
1000
0100
0010
0001
,  // measure 18
0200
0000
0000
0010
0020
0000
0330
0000
,  // measure 19
0002
0000
0000
1000
2000
0000
3003
0000
,  // measure 20
0020
0000
0000
0000
0030
1000
0100
0010
,  // measure 21
0001
0010
0100
1000
,  // measure 22
2002
3003
0100
0010
,  // measure 23
2002
0000
3003
0000
0001
0100
0010
0100
,  // measure 24
0001
0010
0100
1000
0020
0000
0000
0100
,  // measure 25
0230
0001
0010
0301
,  // measure 26
1000
0100
0010
0001
2000
0000
3001
0000
,  // measure 27
0001
0010
0100
1000
0002
0000
1003
0000
,  // measure 28
0010
0100
0010
0100
0002
0000
2003
0000
,  // measure 29
3020
0000
0000
0000
0030
0000
0100
0010
,  // measure 30
1000
0001
0000
0001
0000
0001
0000
0001
,  // measure 31
0000
0001
0000
0001
0000
0001
0100
0010
,  // measure 32
1000
0100
0000
0100
0000
0100
0000
0100
,  // measure 33
0000
0100
0000
0100
0000
1000
0100
0010
,  // measure 34
0001
0000
0000
0001
1000
0000
1000
0010
,  // measure 35
0000
1010
0101
0110
,  // measure 36
0002
0100
0100
0100
,  // measure 37
0203
0010
0010
0310
,  // measure 38
1001
0000
0100
0010
0000
1001
0000
0110
,  // measure 39
0000
1000
0100
0010
,  // measure 40
0002
0103
0200
0310
,  // measure 41
0020
1030
2000
3001
,  // measure 42
2000
0000
0000
0000
3000
0001
0100
0001
,  // measure 43
0200
0010
0010
0310
,  // measure 44
0002
0000
0000
0000
0003
1000
0001
1000
,  // measure 45
0020
0100
0100
0130
,  // measure 46
0001
0000
0100
0001
0100
0001
0100
0000
,  // measure 47
0010
0000
1000
0100
1000
0100
1000
0000
,  // measure 48
0010
0000
1000
0010
0100
0001
0100
0010
,  // measure 49
2000
3002
2003
3020
,  // measure 50
0230
0000
0020
0330
,  // measure 51
0000
0001
0100
1000
,  // measure 52
0020
0000
2030
3002
,  // measure 53
0203
0000
0000
0000
0310
1000
0010
0100
,  // measure 54
0001
0100
0010
1000
0002
0000
0013
0001
,  // measure 55
0100
0010
1000
0010
0001
0010
1000
0000
,  // measure 56
1000
0100
0010
0001
0200
0000
0310
0000
,  // measure 57
0001
0010
0100
1000
0020
0000
0130
0000
,  // measure 58
1000
0001
0010
0001
1000
0000
0101
0000
,  // measure 59
2002
0000
0000
0000
3003
0010
0100
0010
,  // measure 60
1000
0010
0001
0010
2000
0000
3001
0000
,  // measure 61
0010
0001
0100
0001
0010
0010
0010
0000
,  // measure 62
0001
1000
0100
0010
0001
0000
1000
0000
,  // measure 63
0002
0000
0103
0000
0001
0100
0010
0000
,  // measure 64
2000
0000
3100
0000
1000
0100
0010
0000
,  // measure 65
0002
0023
0230
2300
,  // measure 66
3010
0000
1001
0000
;

//---------------dance-single - ----------------
#NOTES:
     dance-single:
     :
     Easy:
     4:
     0.177080,0.252856,0.053233,0.152094,0.000000,163.000000,156.000000,7.000000,20.000000,0.000000,0.000000,0.177080,0.252856,0.053233,0.152094,0.000000,163.000000,156.000000,7.000000,20.000000,0.000000,0.000000:
// measure 0
0000
0000
0000
0000
,  // measure 1
0000
0000
0000
0000
,  // measure 2
0000
0000
0000
0000
,  // measure 3
1000
0000
0001
0000
,  // measure 4
1000
0100
0010
0001
,  // measure 5
1001
0000
0000
0000
,  // measure 6
0010
0000
0100
0000
,  // measure 7
0001
1000
0001
0000
,  // measure 8
0100
0000
0010
0000
,  // measure 9
1000
0001
1000
0000
,  // measure 10
0001
0000
1000
0000
,  // measure 11
0010
0100
0010
0000
,  // measure 12
1000
0000
0001
0000
,  // measure 13
0100
0010
0100
0000
,  // measure 14
0002
0000
0003
0000
,  // measure 15
2000
0000
3000
0000
,  // measure 16
0020
0000
0030
0000
,  // measure 17
0200
0000
0300
0000
,  // measure 18
0002
0000
1003
1001
,  // measure 19
2000
0000
3001
1001
,  // measure 20
0020
0000
0030
0100
,  // measure 21
0010
1000
0100
0010
,  // measure 22
0002
0000
0013
0100
,  // measure 23
2000
0000
3000
0000
,  // measure 24
0001
0010
0100
1000
,  // measure 25
0020
0000
0130
0000
,  // measure 26
1000
0100
0010
0000
,  // measure 27
0100
0010
0001
0000
,  // measure 28
1000
0001
1000
0001
,  // measure 29
0200
0000
0300
0000
,  // measure 30
1001
0000
0000
0000
,  // measure 31
0000
0000
0000
0000
,  // measure 32
0010
0000
0000
0000
,  // measure 33
2000
0000
0000
0000
,  // measure 34
3001
0000
1000
0000
,  // measure 35
0010
0000
0100
0000
,  // measure 36
0001
0000
1000
0000
,  // measure 37
0001
0000
1000
0000
,  // measure 38
0001
0000
0010
0000
,  // measure 39
0100
0000
1000
0000
,  // measure 40
0010
0000
0100
0000
,  // measure 41
0001
0000
1000
0000
,  // measure 42
0010
0100
0010
0000
,  // measure 43
0100
0010
0100
0000
,  // measure 44
0001
0100
1000
0000
,  // measure 45
1000
0100
0001
0000
,  // measure 46
0001
0010
0001
0010
,  // measure 47
1000
0100
1000
0100
,  // measure 48
0010
0001
0100
1000
,  // measure 49
0010
1000
0100
0001
,  // measure 50
2002
0000
0000
3003
,  // measure 51
0000
0010
0010
0010
,  // measure 52
0020
0000
0230
0000
,  // measure 53
0302
0000
2003
0000
,  // measure 54
3001
1000
0001
0000
,  // measure 55
2002
0000
3003
0000
,  // measure 56
0001
0100
1000
0000
,  // measure 57
1000
0010
0001
0000
,  // measure 58
0001
0100
1000
0100
,  // measure 59
0001
0000
1000
0000
,  // measure 60
0010
1000
0100
0000
,  // measure 61
0010
0001
0100
0000
,  // measure 62
1000
0100
0001
0010
,  // measure 63
1000
0000
0001
0000
,  // measure 64
1000
0100
0010
0000
,  // measure 65
0001
0010
0100
1000
,  // measure 66
0001
0000
1001
0000
;

//---------------dance-single - ----------------
#NOTES:
     dance-single:
     :
     Beginner:
     1:
     0.070615,0.126428,0.000000,0.000000,0.000000,65.000000,65.000000,0.000000,0.000000,0.000000,0.000000,0.070615,0.126428,0.000000,0.000000,0.000000,65.000000,65.000000,0.000000,0.000000,0.000000,0.000000:
// measure 0
0000
0000
0000
0000
,  // measure 1
0000
0000
0000
0000
,  // measure 2
0000
0000
0000
0000
,  // measure 3
1000
0000
0000
0000
,  // measure 4
0001
0000
0000
0000
,  // measure 5
1000
0000
0000
0000
,  // measure 6
0010
0000
0000
0000
,  // measure 7
0100
0000
0000
0000
,  // measure 8
0010
0000
0000
0000
,  // measure 9
0100
0000
0000
0000
,  // measure 10
1000
0000
0000
0000
,  // measure 11
0001
0000
0000
0000
,  // measure 12
1000
0000
0000
0000
,  // measure 13
0001
0000
0000
0000
,  // measure 14
1000
0000
0000
0000
,  // measure 15
1000
0000
0000
0000
,  // measure 16
0001
0000
0000
0000
,  // measure 17
0001
0000
0000
0000
,  // measure 18
1000
0000
0000
0000
,  // measure 19
0001
0000
0000
0000
,  // measure 20
1000
0000
0000
0000
,  // measure 21
0001
0000
0000
0000
,  // measure 22
0100
0000
0000
0000
,  // measure 23
0100
0000
0000
0000
,  // measure 24
0010
0000
0000
0000
,  // measure 25
0010
0000
0000
0000
,  // measure 26
1000
0000
0000
0000
,  // measure 27
0001
0000
0000
0000
,  // measure 28
1000
0000
0000
0000
,  // measure 29
0001
0000
0000
0000
,  // measure 30
1000
0000
0000
0000
,  // measure 31
0000
0000
0000
0000
,  // measure 32
0001
0000
0000
0000
,  // measure 33
0000
0000
0000
0000
,  // measure 34
0100
0000
0000
0000
,  // measure 35
0100
0000
0000
0000
,  // measure 36
0010
0000
0000
0000
,  // measure 37
0010
0000
0000
0000
,  // measure 38
1000
0000
0000
0000
,  // measure 39
0001
0000
0000
0000
,  // measure 40
1000
0000
0000
0000
,  // measure 41
0001
0000
0000
0000
,  // measure 42
0100
0000
0000
0000
,  // measure 43
0010
0000
0000
0000
,  // measure 44
0100
0000
0000
0000
,  // measure 45
0010
0000
0000
0000
,  // measure 46
1000
0000
1000
0000
,  // measure 47
0001
0000
0001
0000
,  // measure 48
1000
0000
0000
0000
,  // measure 49
0001
0000
0000
0000
,  // measure 50
0000
0000
0000
0000
,  // measure 51
0100
0000
0000
0000
,  // measure 52
0100
0000
0000
0000
,  // measure 53
0010
0000
0000
0000
,  // measure 54
0010
0000
0000
0000
,  // measure 55
1000
0000
0000
0000
,  // measure 56
0001
0000
0000
0000
,  // measure 57
1000
0000
0000
0000
,  // measure 58
0001
0000
0000
0000
,  // measure 59
1000
0000
0000
0000
,  // measure 60
0010
0000
0000
0000
,  // measure 61
0100
0000
0000
0000
,  // measure 62
0001
0000
0000
0000
,  // measure 63
1000
0000
0000
0000
,  // measure 64
0001
0000
0000
0000
,  // measure 65
1000
0000
0001
0000
,  // measure 66
1000
0000
0001
0000
;
