#TITLE:FLOWER (STARDOM Remix);
#SUBTITLE:;
#ARTIST:BEMANI Sound Team "DJ TOTTO";
#TITLETRANSLIT:;
#SUBTITLETRANSLIT:;
#ARTISTTRANSLIT:;
#GENRE:;
#CREDIT:;
#MENUCOLOR:;
#METERTYPE:DDR;
#BANNER:FLOWER (STARDOM Remix).png;
#BACKGROUND:FLOWER (STARDOM Remix)-bg.png;
#LYRICSPATH:;
#CDTITLE:;
#MUSIC:FLOWER (STARDOM Remix).ogg;
#OFFSET:-0.187;
#SAMPLESTART:58.514;
#SAMPLELENGTH:12.000;
#SELECTABLE:YES;
#LISTSORT:;
#BPMS:0.000=140.000;
#STOPS:;
#BGCHANGES:;
#ATTACKS:;

//---------------dance-single - ----------------
#NOTES:
     dance-single:
     :
     Hard:
     13:
     0.655,0.724,0.482,0.473,0.575:
0000
0000
0000
0000
,
0000
0000
0000
0000
,
0000
0000
0000
0000
,
0000
0000
0000
0000
,
0000
0000
0000
0000
,
0000
0000
0000
0000
,
0101
0000
0000
0101
0000
0000
1010
0000
0000
1010
0000
0000
0100
0000
0220
0000
,
0330
0000
1000
0001
1000
0000
0001
1000
0001
0000
1000
0000
0010
0000
0100
0000
,
1010
0000
0000
1010
0000
0000
0101
0000
0000
0101
0000
0000
1000
0000
2002
0000
,
0000
0000
3003
0110
,
1000
0100
1000
0100
0001
0100
0001
0100
,
1000
0010
1000
0010
0001
0010
0001
0010
,
1000
0100
0010
0001
1000
0010
0100
0002
,
0000
2003
0000
3020
0000
0230
0000
0302
,
0010
0000
0010
0000
0010
0000
0100
0100
,
0203
0000
0010
0000
0010
0000
0001
0301
,
2000
0000
0010
0000
0010
0000
0010
0010
,
3010
0000
0100
0000
0001
0000
1000
0000
0010
0000
0100
0010
0100
0000
0000
0000
,
2002
0000
0000
0000
3003
0022
0000
0033
,
2200
0000
3300
0220
0000
0330
2002
3003
,
0022
0000
0000
0000
0033
0220
0000
0330
,
2020
0000
0000
0000
3030
0000
0100
0000
0001
0000
0000
0100
0000
0000
0010
0000
,
2000
0000
0000
0000
0000
0000
3001
0200
,
0000
0302
0000
2003
0000
3002
0000
0203
,
0020
0000
0000
0000
0030
0002
0000
0003
,
0020
0000
0330
2002
0000
3003
0110
0000
,
1000
0000
0010
1000
0000
0010
1000
0000
0001
0100
0000
0001
0100
0000
0010
0000
,
1000
0000
0100
1000
0000
0100
1000
0000
0001
0010
0000
0001
0010
0000
0001
0000
,
1000
0000
0010
0100
0000
0010
0100
0000
0001
1000
0000
0001
1000
0000
0010
0000
,
1000
0000
0100
1000
0000
0100
1000
0000
0001
0100
0000
0001
0100
0000
0010
0000
,
2000
0000
0000
0010
0000
0000
3010
0000
0002
0000
0000
0100
0000
0000
0103
0000
,
2000
0000
0000
0100
0000
0000
3100
0000
0002
0000
0000
0010
0000
0000
0013
0000
,
1000
0100
1000
0000
0001
0100
0001
0000
1000
0010
1000
0010
0100
0001
0100
0001
,
1000
0000
0000
0101
0000
0000
1010
0000
0000
0110
0000
0000
1001
0000
1001
0000
,
1000
0000
0010
0100
0000
0010
0100
0000
0010
0100
0000
0001
0100
0000
0001
1000
,
0001
0000
1000
0010
0000
1000
0010
0000
1000
0100
0000
1000
0100
0000
0010
0001
,
0100
0000
0001
0100
0000
0001
1000
0000
0001
1000
0000
0001
0010
0000
0100
0000
,
0001
0000
1000
0010
0000
0100
0001
0000
1000
0000
0010
0100
0000
0001
0100
0010
,
0100
0000
0001
0100
0000
0001
0100
0000
0010
1000
0000
0010
1000
0000
0010
0000
,
0100
0000
0001
0010
0000
0001
0010
0000
0100
1000
0000
1000
0100
0000
0010
1000
,
0100
0000
1000
0010
0000
1000
0010
0000
0100
0001
0000
0100
0001
0000
0100
0000
,
0010
0000
1000
0001
0000
1000
0001
0000
0100
0000
0010
1000
0000
0010
1000
0000
,
0001
0000
0001
0010
0000
0010
0001
0000
0001
0100
0000
0100
0010
1000
0010
0000
,
0100
0000
0001
0010
0001
0000
1000
0100
1000
0000
0010
0100
0010
1000
0001
1000
,
0001
0000
1000
0010
0000
0010
1000
0000
0001
0100
0000
0100
0001
0000
0100
0000
,
0010
0000
1000
0010
0000
1000
0010
0000
0100
0000
0001
0100
0000
0001
0100
0010
,
1000
0000
0010
1000
0000
0010
0100
0000
0010
0100
0000
0001
0100
0010
0100
0001
,
0100
0000
0010
1000
0010
0000
0100
0001
0100
0000
0001
0010
0001
0010
0100
1000
,
0100
0000
1000
0010
0000
1000
0010
0000
0100
0001
0000
0100
0001
0000
0100
0000
,
0010
0000
1000
0010
0000
0100
0001
0000
1000
0000
0100
0010
0000
0001
0100
0000
,
0110
0000
0000
0101
0000
0000
1010
0000
0000
0101
0000
0000
1010
0000
1002
0000
,
0000
0000
1003
0010
1000
0000
0010
0100
0010
0000
1000
0010
1000
0000
0001
0000
,
1100
0000
0000
1100
0000
0000
0101
0000
0000
0101
0000
0000
0100
0000
0220
0000
,
0000
0000
0000
0000
0000
0330
0000
0000
1010
0000
0000
1100
0000
0000
0101
0000
,
1001
0000
0000
1001
0000
0000
0110
0000
0000
0110
0000
0000
1010
0000
2002
0000
,
3003
0000
0001
0100
0001
0000
1000
0010
1000
0000
0010
0000
0100
0000
0001
0000
,
1001
0000
0000
1001
0000
0000
1100
0000
0000
0101
0000
0000
0020
0000
0200
0000
,
0000
0000
0330
1001
,
2002
0000
0000
0000
,
0000
0000
0000
0000
,
3003
0000
0000
0000
;

//---------------dance-double - ----------------
#NOTES:
     dance-double:
     :
     Hard:
     13:
     0.615,0.724,0.473,0.436,0.552:
00000000
00000000
00000000
00000000
,
00000000
00000000
00000000
00000000
,
00000000
00000000
00000000
00000000
,
00000000
00000000
00000000
00000000
,
00000000
00000000
00000000
00000000
,
00000000
00000000
00000000
00000000
,
00110000
00000000
00000000
00110000
00000000
00000000
11000000
00000000
00000000
11000000
00000000
00000000
00100000
00000000
00002000
00000000
,
00003000
00000000
00010000
00000100
00010000
00000000
00000010
00001000
00000010
00000000
00001000
00000000
00000100
00000000
00010000
00000000
,
00001000
00000000
00000000
00101000
00000000
00000000
00100000
00000000
00000000
00110000
00000000
00000000
01010000
00000000
20020000
00000000
,
00000000
00000000
30030000
00011000
,
00002002
00000000
00000000
00000000
,
00000000
00000000
00000000
00003003
,
00000000
00000000
00000000
00000000
00000000
00000100
00010000
00002000
,
00000000
02003000
00000000
03200000
00000000
20300000
00000000
30020000
,
00100000
00000000
00100000
00000000
00100000
00000000
00130000
00001000
,
00020000
00000000
00000010
00000000
00000010
00000000
00030010
00001000
,
00000200
00001000
00001000
00001000
,
00010000
00010000
00010300
00011000
,
00220000
00000000
00330000
00000000
00000000
02200000
00000000
03300000
,
02002000
00000000
03003000
00022000
00000000
00033000
00002020
00003030
,
00002002
00000000
00000000
00003003
00000000
00002200
00000000
00003300
,
00022000
00000000
00000000
00000000
00033000
00000000
00100000
00000000
00010000
00000000
00000000
01000000
00000000
00000000
00200000
00000000
,
20000000
00000000
00000000
00000000
00000000
00000000
00000000
00000000
30300000
00000000
00000000
00000000
01000000
00000000
00010000
00100000
,
00000000
00020000
00000000
02030000
00000000
03002000
00000000
00023000
,
00002000
00000000
00000000
00000000
00003000
00000200
00000000
00000300
,
00000020
00000000
00030000
00002000
00000000
00003030
00001001
00000000
,
00000110
00000000
00000001
00000100
00000000
00000001
00000100
00000000
00000010
00001000
00000000
00000010
00001000
00000000
00000100
00000000
,
00010000
00000000
00001000
00010000
00000000
00001000
00010000
00000000
00001000
01000000
00000000
00010000
01000000
00000000
00100000
00000000
,
10000000
00000000
01000000
10000000
00000000
00100000
10000000
00000000
01000000
10000000
00000000
00100000
01000000
00000000
00010000
00000000
,
00100000
00000000
00001000
00010000
00000000
00001000
00010000
00000000
00000100
00001000
00000000
00000001
00001000
00000000
00000100
00000000
,
00001000
00000000
00000010
00000100
00000000
00000010
00000100
00000000
00000001
00000000
00000100
00000010
00000000
00000100
00000010
00000000
,
00001000
00000000
00000100
00010000
00000000
00000100
00010000
00000000
00001000
00000000
00100000
00010000
00000000
00100000
00010000
00000000
,
01000000
00100000
01000000
00000000
00100000
10000000
00100000
00000000
01000000
00010000
01000000
00000000
00001000
00010000
00001000
00000000
,
00011000
00000000
00000000
00001100
00000000
00000000
00011000
00000000
00000000
01010000
00000000
00000000
00011000
00000000
00001000
00000000
,
00011000
00000000
00100000
00010000
00000000
01000000
00010000
00000000
10000000
00010000
00000000
01000000
00010000
00000000
00100000
00000000
,
00001000
00000000
00010000
00000100
00000000
00010000
00000010
00000000
00010000
00000100
00000000
00010000
00000100
00000000
00001000
00000000
,
00000010
00000000
00000100
00000001
00000000
00001000
00000001
00000000
00000100
00000001
00000000
00000010
00000001
00000000
00000100
00000000
,
00000010
00000000
00001000
00000100
00000000
00001000
00000010
00000000
00001000
00000000
00000100
00010000
00000000
00000100
00010000
00000000
,
00001000
00000000
01000000
00001000
00000000
00100000
00001000
00000000
00010000
00001000
00000000
00010000
00000100
00000000
00001000
00000000
,
00000010
00000000
00000100
00000001
00000000
00001000
00000001
00000000
00000010
00000001
00000000
00001000
00000100
00000000
00001000
00000000
,
00000100
00000000
00010000
00000100
00000000
00010000
00001000
00000000
00010000
00000100
00000000
00010000
00001000
00000000
01000000
00000000
,
00010000
00000000
10000000
00010000
00000000
10000000
00010000
00000000
10000000
00000000
00100000
01000000
00000000
00100000
01000000
00000000
,
00010000
00000000
10000000
01000000
00000000
10000000
00100000
00000000
10000000
00010000
00000000
10000000
01000000
00100000
00010000
01000000
,
00010000
00000000
00100000
00001000
00100000
00000000
00001000
00010000
00001000
00000000
00010000
00000100
00010000
00000100
00001000
00000100
,
00001000
00000000
00000010
00000100
00000000
00000001
00000100
00000000
00000010
00000100
00000000
00000001
00000100
00000000
00000010
00000000
,
00001000
00000000
00000100
00001000
00000000
00000100
00001000
00000000
00000001
00000000
00000010
00000001
00000000
00001000
00000100
00000010
,
00000001
00000000
00001000
00000100
00000000
00001000
00000100
00000000
00010000
00000100
00000000
00010000
00001000
00010000
00001000
00000000
,
00010000
00000000
00001000
01000000
00001000
00000000
01000000
00100000
01000000
00000000
00010000
00100000
00010000
01000000
00010000
01000000
,
00010000
00000000
10000000
00100000
00000000
10000000
00100000
00000000
01000000
00010000
00000000
01000000
00010000
00000000
00100000
00000000
,
00001000
00000000
00010000
00001000
00000000
00010000
00001000
00000000
00010000
00000000
00000100
00001000
00000000
00000100
00001000
00000000
,
00000010
00000000
00000000
00001010
00000000
00000000
00000101
00000000
00000000
00001010
00000000
00000000
00001100
00000000
00000012
00000000
,
00000000
00000100
00000100
00001000
00001000
00000010
00000013
00001000
,
00001100
00000000
00000000
00001100
00000000
00000000
00010100
00000000
00000000
00010100
00000000
00000000
01001000
00000000
02002000
00000000
,
00000000
00000000
00000000
00000000
03003000
00000000
00000000
00000000
00110000
00000000
00000000
01010000
00000000
00000000
10000000
00000000
,
01010000
00000000
00000000
01010000
00000000
00000000
00101000
00000000
00000000
00101000
00000000
00000000
00020000
00000000
00000200
00000000
,
00030300
00000000
00000100
00001000
00000100
00000000
00001000
00000001
00001000
00000000
00000010
00000000
00001000
00000000
00000100
00000000
,
00011000
00000000
00000000
00011000
00000000
00000000
01010000
00000000
00000000
01010000
00000000
00000000
10000000
00000000
02020000
00000000
,
00000000
00000000
03030000
00010100
,
00022000
00000000
00000000
00000000
,
00000000
00000000
00000000
00000000
,
00033000
00000000
00000000
00000000
;

//---------------dance-double - ----------------
#NOTES:
     dance-double:
     :
     Medium:
     10:
     0.404,0.584,0.232,0.334,0.199:
00000000
00000000
00000000
00000000
,
00000000
00000000
00000000
00000000
,
00000000
00000000
00000000
00000000
,
00000000
00000000
00000000
00000000
,
00000000
00000000
00000000
00000000
,
00000000
00000000
00000000
00000000
,
01100000
00000000
00000000
01100000
00000000
00000000
01100000
00000000
00000000
01100000
00000000
00000000
20000000
00000000
00020000
00000000
,
30030000
00100000
01000000
00100000
01000000
00010000
00100000
00001000
,
00011000
00000000
00000000
00011000
00000000
00000000
00011000
00000000
00000000
00011000
00000000
00000000
00020000
00000000
00000200
00000000
,
00000000
00000000
00000000
00030300
,
00002002
00000000
00000000
00000000
,
00000000
00000000
00000000
00000000
,
00003003
00000000
00000000
00000000
00000000
00000010
00000001
00000200
,
00000000
00000320
00000000
00002030
00000000
00003002
00000000
00002003
,
00000000
00000100
00000100
00003200
,
00010000
00010000
00010000
00020300
,
00001000
00001000
00001000
00032000
,
01000000
01000000
01003000
10010000
,
20020000
00000000
30030000
00000000
00000000
00100000
00000000
00000000
,
00001000
00000000
00000000
00010000
00000000
00000000
00000010
00000000
,
00002002
00000000
00003003
00000000
00000000
00000010
00000000
00000000
,
00010000
00000000
00000000
00001000
00000000
00000000
01000000
00000000
,
20020000
00000000
30030000
00000000
00000000
01000000
00000000
00000000
,
00001000
00000000
00000000
00010000
00000000
00000000
00000010
00000000
,
00002002
00000000
00003003
00000000
00000000
00000100
00000000
00000000
,
00010000
00000000
00000000
00001000
00000000
00000000
01000000
00000000
,
00100000
00000000
10000000
00000000
01000000
00000000
10000000
01000000
,
00100000
00000000
00001000
00000000
00010000
00000000
00000010
00001000
,
00000100
00000000
00001000
00000000
00000001
00000000
00001000
00000100
,
00010000
00000000
00001000
00000000
01000000
00000000
00010000
00100000
,
02000000
03100000
20000000
30010000
,
00200000
00301000
00020000
00030010
,
00001000
00000100
00001000
00000100
00000010
00000001
00000010
00000001
,
00000100
00000000
00000000
00000100
00000000
00000000
00000010
00000000
00000000
00000010
00000000
00000000
00001000
00000000
00000001
00000000
,
00001000
00000000
00000000
00001000
00000000
00000000
00000010
00000000
00000000
00000010
00000000
00000000
00001000
00000000
00000100
00000000
,
00010000
00000000
00000000
00010000
00000000
00000000
00001000
00000000
00000000
00001000
00000000
00000000
01000000
00000000
00010000
00000000
,
10000000
00000000
00000000
10000000
00000000
00000000
00100000
00000000
00000000
00100000
00000000
00000000
01000000
00000000
00010000
00000000
,
00100000
00000000
00000000
00100000
00000000
00000000
00100000
00000000
00001000
00000000
00000000
00001000
00000000
00000000
00010000
00000000
,
00000010
00000000
00000000
00000010
00000000
00000000
00001000
00000000
00000000
00001000
00000000
00000000
00000001
00000000
00000100
00000000
,
00001000
00000000
00000000
00001000
00000000
00000000
00000010
00000000
00000000
00000010
00000000
00000000
00010000
00000000
00001000
00000000
,
01000000
00000000
00000000
01000000
00000000
00000000
00100000
00000000
00000000
00100000
00000000
00000000
10000000
00000000
01000000
00000000
,
00010000
00000000
00000000
00010000
00000000
00000000
00100000
00000000
00001000
00000000
00000000
00001000
00000000
00000000
00010000
00000000
,
00000100
00000000
00000000
00000100
00000000
00000000
00001000
00000000
00000000
00001000
00000000
00000000
00000001
00000000
00000100
00000000
,
00000010
00001000
00000100
00001000
00000100
00010000
00001000
00010000
,
00001000
00000000
00000000
00001000
00000000
00000000
00100000
00000000
00000000
00100000
00000000
00000000
00010000
00000000
01000000
00000000
,
00100000
00000000
00000000
00100000
00010000
00000000
01000000
00000000
00100000
00000000
00000000
00100000
10000000
00000000
01000000
00000000
,
10000000
00000000
00000000
10000000
00000000
00000000
00010000
00000000
00000000
00010000
00000000
00000000
10000000
00000000
00100000
00000000
,
01000000
00010000
00100000
00001000
00010000
00000100
00001000
00000001
,
00000100
00000000
00000000
00000100
00000000
00000000
00000010
00000000
00000000
00000010
00000000
00000000
00001000
00000000
00000100
00000000
,
00010000
00000000
00000000
00010000
00000000
00000000
00001000
00000000
01000000
00000000
00000000
01000000
00000000
00000000
00010000
00000000
,
10000000
00000000
00000000
10010000
00000000
00000000
00010000
00000000
00000000
10010000
00000000
00000000
00200000
00000000
02000000
00000000
,
00000000
03000000
10000000
00000000
01000000
00000000
10300000
00000000
,
10100000
00000000
00000000
10100000
00000000
00000000
10010000
00000000
00000000
10010000
00000000
00000000
00020000
00000000
00200000
00000000
,
00000000
00000000
00000000
00000000
00330000
00000000
00000000
00000000
01000000
00000000
00000000
00010000
00000000
00000000
00100000
00000000
,
00001000
00000000
00000000
00001000
00000000
00000000
00010000
00000000
00000000
00010000
00000000
00000000
00000020
00000000
00000200
00000000
,
00000330
00000000
00000001
00000100
00000010
00001000
00000100
00010000
,
00001000
00000000
00000000
00011000
00000000
00000000
00011000
00000000
00000000
00011000
00000000
00000000
00200000
00000000
00002000
00000000
,
00000000
00000000
00303000
00011000
,
00022000
00000000
00000000
00000000
,
00000000
00000000
00000000
00000000
,
00033000
00000000
00000000
00000000
;

//---------------dance-single - ----------------
#NOTES:
     dance-single:
     :
     Medium:
     10:
     0.400,0.557,0.223,0.334,0.199:
0000
0000
0000
0000
,
0000
0000
0000
0000
,
0000
0000
0000
0000
,
0000
0000
0000
0000
,
0000
0000
0000
0000
,
0000
0000
0000
0000
,
0110
0000
0000
0110
0000
0000
0110
0000
0000
0110
0000
0000
2000
0000
0002
0000
,
3003
0010
0100
0010
0100
0001
0010
0100
,
1000
0000
0000
1001
0000
0000
1001
0000
0000
1001
0000
0000
0002
0000
0200
0000
,
0000
0000
0000
0303
,
2002
0000
0000
0000
,
0000
0000
0000
0000
,
3003
0000
0000
0000
0000
0010
0001
0200
,
0000
0320
0000
2030
0000
3002
0000
2003
,
0000
0100
0100
3200
,
0010
0010
0010
0320
,
0001
0001
0031
2000
,
0001
0001
3001
1001
,
2002
0000
3003
0000
0000
0010
0000
0000
,
1000
0000
0000
0001
0000
0000
0010
0000
,
2002
0000
3003
0000
0000
0100
0000
0000
,
0001
0000
0000
1000
0000
0000
0100
0000
,
2002
0000
3003
0000
0000
0100
0000
0000
,
1000
0000
0000
0001
0000
0000
0010
0000
,
2002
0000
3003
0000
0000
0100
0000
0000
,
0001
0000
0000
1000
0000
0000
0010
0000
,
1000
0000
0010
0000
0001
0000
1000
0100
,
0010
0000
1000
0000
0001
0000
0010
1000
,
0100
0000
1000
0000
0001
0000
1000
0100
,
0001
0000
1000
0000
0100
0000
0001
0010
,
0200
0310
2000
3001
,
0020
1030
0002
0013
,
0001
0100
0001
0100
0001
0100
0001
0001
,
0100
0000
0000
0100
0000
0000
0010
0000
0000
0010
0000
0000
1000
0000
0001
0000
,
1000
0000
0000
1000
0000
0000
0010
0000
0000
0010
0000
0000
1000
0000
0001
0000
,
1000
0000
0000
1000
0000
0000
0001
0000
0000
0001
0000
0000
0010
0000
1000
0000
,
0001
0000
0000
0001
0000
0000
0100
0000
0000
0100
0000
0000
0010
0000
1000
0000
,
0100
0000
0000
0100
0000
0000
0100
0000
1000
0000
0000
1000
0000
0000
0001
0000
,
0100
0000
0000
0100
0000
0000
0001
0000
0000
0001
0000
0000
1000
0000
0010
0000
,
0001
0000
0000
0001
0000
0000
0100
0000
0000
0100
0000
0000
1000
0000
0001
0000
,
0010
0000
0000
0010
0000
0000
0100
0000
0000
0100
0000
0000
0001
0000
1000
0000
,
0100
0000
0000
0100
0000
0000
0000
0000
0010
0000
0000
0010
0000
0000
0000
0000
,
0001
0000
0000
0001
0000
0000
1000
0000
0000
1000
0000
0000
0001
0000
0100
0000
,
0010
1000
0010
1000
0100
1000
0010
0100
,
0001
0000
0000
0001
0000
0000
1000
0000
0000
1000
0000
0000
0001
0000
0100
0000
,
0010
0000
0000
0010
1000
0000
0001
0000
0010
0000
0000
0010
1000
0000
0001
0000
,
1000
0000
0000
1000
0000
0000
0001
0000
0000
0001
0000
0000
1000
0000
0010
0000
,
0100
0001
0010
0100
1000
0100
0010
0001
,
0100
0000
0000
0100
0000
0000
0010
0000
0000
0010
0000
0000
1000
0000
0001
0000
,
1000
0000
0000
1000
0000
0000
0010
0000
0100
0000
0000
0100
0000
0000
0001
0000
,
1000
0000
0000
1001
0000
0000
0001
0000
0000
1001
0000
0000
0020
0000
0200
0000
,
0000
0300
1000
0000
0100
0000
1030
0000
,
1010
0000
0000
1010
0000
0000
1001
0000
0000
1001
0000
0000
0002
0000
0020
0000
,
0000
0000
0000
0000
0033
0000
0000
0000
0100
0000
0000
0001
0000
0000
0010
0000
,
1000
0000
0000
1000
0000
0000
0001
0000
0000
0001
0000
0000
0020
0000
0200
0000
,
0330
0000
0001
0100
0010
1000
0100
0001
,
1000
0000
0000
1001
0000
0000
1001
0000
0000
1001
0000
0000
0020
0000
2000
0000
,
0000
0000
3030
1001
,
2002
0000
0000
0000
,
0000
0000
0000
0000
,
3003
0000
0000
0000
;

//---------------dance-single - ----------------
#NOTES:
     dance-single:
     :
     Beginner:
     3:
     0.156,0.223,0.093,0.139,0.000:
0000
0000
0000
0000
,
0000
0000
0000
0000
,
0000
0000
0000
0000
,
0000
0000
0000
0000
,
0000
0000
0000
0000
,
0000
0000
0000
0000
,
0010
0000
0000
0200
,
0000
0000
0300
0000
,
0010
0000
0000
0200
,
0000
0000
0300
0000
,
2002
0000
0000
0000
,
0000
0000
0000
0000
,
3003
0000
0000
0000
,
0000
0100
0000
0100
,
0200
0000
0000
0000
,
0000
0000
0000
0000
,
0000
0000
0000
0000
,
0300
0000
0000
0000
,
0001
0000
0000
0000
0000
0001
0000
0000
,
1000
0000
0000
1000
0000
0000
0000
0000
,
0010
0000
0000
0000
0000
0100
0000
0000
,
0100
0000
0000
0100
0000
0000
0000
0000
,
0001
0000
0000
0000
0000
1000
0000
0000
,
1000
0000
0000
1000
0000
0000
0000
0000
,
0010
0000
0000
0000
0000
0100
0000
0000
,
0100
0000
0000
0100
0000
0000
0000
0000
,
0001
0000
0001
0001
,
0001
0000
1000
1000
,
1000
0000
0010
0010
,
0010
0000
0100
0100
,
0100
0000
0010
0000
,
0100
0000
0010
0000
,
1000
1000
1000
0000
,
0001
0001
0001
0000
,
1000
0000
0001
0000
,
1000
0000
0001
0000
,
0100
0000
0010
0000
,
0100
0100
0100
0000
,
0001
0000
1000
0000
,
0001
0000
1000
0000
,
0010
0000
0100
0000
,
0010
0010
0010
0000
,
1000
0000
0001
0000
,
1000
1000
1000
0000
,
0001
0000
1000
0000
,
0001
0001
0001
0000
,
0100
0000
0010
0000
,
0100
0100
0100
0000
,
0010
0000
0100
0000
,
0010
0010
0010
0000
,
1001
0000
0000
2002
,
0000
3003
0000
0000
,
0110
0000
0000
0220
,
0000
0000
0330
0000
,
1001
0000
0000
2002
,
0000
0000
3003
0000
,
0110
0000
0000
2002
,
0000
0000
3003
0000
,
2002
0000
0000
0000
,
0000
0000
0000
0000
,
3003
0000
0000
0000
;

//---------------dance-single - ----------------
#NOTES:
     dance-single:
     :
     Easy:
     6:
     0.305,0.445,0.399,0.288,0.009:
0000
0000
0000
0000
,
0000
0000
0000
0000
,
0000
0000
0000
0000
,
0000
0000
0000
0000
,
0000
0000
0000
0000
,
0000
0000
0000
0000
,
0110
0000
0000
0110
0000
0000
2002
0000
,
3003
0100
0010
1001
,
0110
0000
0000
1001
0000
0000
0220
0000
,
0000
0000
0000
0330
,
2002
0000
0000
0000
,
0000
0000
0000
0000
,
3003
0000
0000
0000
0000
0001
0000
0100
,
0000
1000
0000
0010
0000
1000
0000
0001
,
0000
0100
0000
0100
,
0000
0010
0000
0010
,
0000
1000
0000
1000
,
0000
0001
0000
0001
,
2002
0000
3003
0000
0000
0010
0000
0000
,
0100
0000
0000
0010
0000
0000
0000
0000
,
2002
0000
3003
0000
0000
0100
0000
0000
,
0010
0000
0000
0100
0000
0000
0000
0000
,
2002
0000
3003
0000
0000
0001
0000
0000
,
1000
0000
0000
0001
0000
0000
0000
0000
,
2002
0000
3003
0000
0000
1000
0000
0000
,
0001
0000
0000
1000
0000
0000
0000
0000
,
1000
0010
0001
0000
,
1000
0100
0001
0000
,
0001
0100
1000
0000
,
0001
0010
1000
0000
,
0200
0301
2000
3001
,
0020
1030
0002
0103
,
1001
1001
1001
1001
,
0010
0000
0000
0010
0000
0000
0100
0000
0000
0100
0000
0000
1001
0000
0000
0000
,
1001
1000
0010
0100
,
0001
0100
0010
1000
,
0001
1000
0010
0100
,
0202
0303
2020
3030
,
0100
0100
0001
1000
,
0010
0010
1000
0001
,
1000
0100
0010
0001
,
1100
0100
0011
0010
,
0001
0001
1000
0001
,
0010
1000
0100
0001
,
0010
0001
1000
0001
,
0010
0010
0110
0110
,
1000
0100
0010
0001
,
0010
0010
0100
0100
,
0001
0100
0010
1000
,
0100
0100
0110
0110
,
1001
1001
1001
0020
,
0000
0100
0000
0130
,
1001
1001
1001
2002
,
0000
3003
0100
0001
,
0010
0010
1001
2002
,
3003
0001
0110
1100
,
1001
1001
1001
0220
,
0000
0000
0330
1001
,
2002
0000
0000
0000
,
0000
0000
0000
0000
,
3003
0000
0000
0000
;

//---------------dance-double - Copied from ----------------
#NOTES:
     dance-double:
     Copied from:
     Easy:
     6:
     0.302,0.501,0.417,0.408,0.000: // measure 1
00000000
00000000
00000000
00000000
,  // measure 2
00000000
00000000
00000000
00000000
,  // measure 3
00000000
00000000
00000000
00000000
,  // measure 4
00000000
00000000
00000000
00000000
,  // measure 5
00000000
00000000
00000000
00000000
,  // measure 6
00000000
00000000
00000000
00000000
,  // measure 7
00200000
00000000
00300000
20020000
,  // measure 8
00000000
30030000
00000000
00000000
,  // measure 9
00200000
00000000
00300000
00022000
,  // measure 10
00000000
00000000
00033000
00000000
,  // measure 11
00022000
00000000
00000000
00000000
,  // measure 12
00000000
00000000
00000000
00000000
,  // measure 13
00033000
00000000
00000000
00000000
,  // measure 14
00002000
00003000
00020000
00030000
,  // measure 15
02000000
00100000
00100000
00100000
,  // measure 16
00100000
00100000
00100000
03100000
,  // measure 17
20000000
00010000
00010000
00010000
,  // measure 18
00010000
00010000
00020000
30030000
,  // measure 19
01100000
00000000
00000000
00000000
,  // measure 20
00001000
00000000
00010000
00000000
,  // measure 21
00000110
00000000
00000000
00000000
,  // measure 22
00010000
00000000
00001000
00000000
,  // measure 23
01100000
00000000
00000000
00000000
,  // measure 24
00001000
00000000
00010000
00000000
,  // measure 25
00000110
00000000
00000000
00000000
,  // measure 26
00010000
00000000
00001000
00000000
,  // measure 27
01100000
00100000
00100000
10000000
,  // measure 28
01010000
00010000
00010000
00110000
,  // measure 29
00011000
00010000
00010000
00000100
,  // measure 30
00001010
00000010
00000010
00000101
,  // measure 31
00002002
00003003
00002200
00003300
,  // measure 32
00022000
00033000
02020000
03030000
,  // measure 33
10010000
10010000
01100000
01100000
,  // measure 34
00200000
00000000
00300000
10010000
,  // measure 35
10000000
00100000
01000000
00001000
,  // measure 36
00010000
00000010
00001000
00000001
,  // measure 37
00001000
00000010
00010000
00000100
,  // measure 38
00010000
00001000
00100000
00010000
,  // measure 39
00100000
00010000
01000000
10000000
,  // measure 40
00100000
10000000
01000000
00010000
,  // measure 41
00100000
00010000
00100000
00010000
,  // measure 42
00100000
00100000
00001000
00001000
,  // measure 43
00010000
00010100
00010000
00010100
,  // measure 44
00010000
00000010
00001000
00000001
,  // measure 45
00001000
00001001
00001000
00001001
,  // measure 46
00001000
00000100
00010000
00001000
,  // measure 47
01000000
01010000
01000000
01010000
,  // measure 48
00100000
00010000
01000000
10000000
,  // measure 49
00100000
00110000
00100000
00110000
,  // measure 50
00202000
00303000
00020200
00030300
,  // measure 51
00000220
00000000
00000330
00002002
,  // measure 52
00000000
00003003
00011000
00011000
,  // measure 53
02020000
00000000
03030000
20020000
,  // measure 54
00000000
30030000
00110000
00110000
,  // measure 55
00022000
00000000
00033000
00002020
,  // measure 56
00003030
00000001
00000100
00001000
,  // measure 57
00002002
00000000
00003003
00022000
,  // measure 58
00000000
00000000
00033000
00010000
,  // measure 59
00022000
00000000
00000000
00000000
,  // measure 60
00000000
00000000
00000000
00000000
,  // measure 61
00033000
00000000
00000000
00000000
;
