#TITLE:エンドマークに希望と涙を添えて;
#SUBTITLE:;
#ARTIST:cosMo@暴走P 「チュウニズム」より;
#TITLETRANSLIT:Endmark ni kibou to namida o soete;
#SUBTITLETRANSLIT:;
#ARTISTTRANSLIT:cosMo@BouSouP from "CHUNITHM";
#GENRE:;
#CREDIT:;
#BANNER:Endmark ni kibou to namida o soete.png;
#BACKGROUND:Endmark ni kibou to namida o soete-bg.png;
#LYRICSPATH:;
#CDTITLE:;
#MUSIC:Endmark ni kibou to namida o soete.ogg;
#OFFSET:0.005000;
#SAMPLESTART:46.685608;
#SAMPLELENGTH:13.073929;
#SELECTABLE:YES;
#BPMS:0.000000=257.000000
;
#STOPS:
;
#BGCHANGES:0.000=Endmark ni kibou to namida o soete.avi=1.000=0=0=0=StretchNoLoop====,
99999=-nosongbg-=1.000=0=0=0 // don't automatically add -songbackground-
;
#KEYSOUNDS:;
#ATTACKS:;

//---------------dance-single - ----------------
#NOTES:
     dance-single:
     :
     Hard:
     17:
     0.904312,1.095922,0.230435,0.338875,0.135550,934.000000,900.000000,34.000000,50.000000,0.000000,0.000000,0.904312,1.095922,0.230435,0.338875,0.135550,934.000000,900.000000,34.000000,50.000000,0.000000,0.000000:
0000
0000
0000
0000
,
0000
0000
0000
0000
,
0000
0000
0000
0000
,
0000
0000
0000
0000
,
0000
0000
0000
0000
,
0000
0000
0000
0000
,
0000
0000
0000
0000
,
1000
0100
1000
0100
0010
0001
0010
0002
,
0000
0103
0010
1000
0100
0010
0001
1000
,
0010
1000
0010
1000
0010
1000
0010
0000
,
0100
0001
0100
0001
0100
0001
0100
0000
,
1000
0100
1000
0100
1000
0100
1000
0000
,
0010
0100
0010
0000
1000
0100
0010
0001
,
0100
0010
0100
0010
1000
0010
0100
0001
,
1000
0100
1000
0100
0010
0001
0100
0010
,
1000
0001
0000
1000
0100
0000
0010
0022
,
0000
0000
0033
0000
0000
0000
1000
0100
,
0010
0100
0010
1000
,
0001
0000
1000
0010
1000
0000
0001
0100
,
0001
1000
0100
0010
,
0001
0010
0001
0010
0001
0000
1000
0100
,
1000
0000
0001
0100
0001
0000
1000
0010
,
1000
0000
0001
0010
0001
0000
1000
0100
,
0010
0000
0001
0000
0100
0001
0100
0010
,
0200
0000
0010
0000
0310
0000
1000
0100
,
0010
0000
0001
1000
0010
1000
0100
0000
,
1000
0000
0001
0100
0001
0000
1000
0100
,
1000
0000
0001
0000
1000
0100
0010
0100
,
1000
0000
0001
0010
0001
0000
1000
0100
,
0010
0000
0010
0001
0100
0000
0100
0010
,
1000
0000
1000
0001
0100
0000
0010
1000
,
0001
0000
1001
0000
0001
0010
0100
1000
,
0010
0100
0010
0100
0010
0100
0010
0100
,
0002
2003
3200
2300
,
3020
0230
0301
1000
,
0020
0230
0302
0203
,
0310
0000
1000
0010
1000
0000
0001
0000
,
2000
0000
0002
3003
,
1000
0000
0100
0000
0010
0001
0010
0001
,
0100
0010
0100
0010
0000
1000
0100
0010
,
0002
0000
1003
1001
,
1000
0100
0010
0100
1000
0000
0010
0000
,
0100
0010
0001
0010
0100
0000
0001
0000
,
0010
0100
1000
0100
0010
0000
1000
0000
,
0001
0010
0100
0010
0001
0000
1000
0000
,
0001
0100
0001
0100
1000
0100
1000
0100
,
0001
0100
0010
0100
0001
0010
1000
0010
,
0001
0010
0100
1000
1000
0100
0010
0001
,
0002
0000
0000
1003
2002
0000
3003
0000
,
0020
0100
0100
0130
,
0001
0000
1001
0000
1000
0010
1000
0100
,
1000
0000
0001
0100
0010
0000
1001
0000
,
1000
0100
1000
0100
0010
0001
0010
0001
,
0200
0320
2030
3002
,
2003
0000
3010
0000
1000
0100
0010
0001
,
0100
0000
0010
1000
0010
0000
0100
0010
,
0001
0010
0100
0010
0001
1000
0100
0010
,
0001
0010
0100
1000
0100
0001
0100
1000
,
0010
1000
0010
1000
0001
0100
0001
1000
,
0100
1000
0100
1000
0001
0010
0001
0010
,
0001
0100
0001
0100
0010
1000
0010
1000
,
0001
0010
0100
0010
0001
1000
0100
0010
,
0001
0100
0010
0100
0001
1000
0100
1000
,
0010
0100
0010
0100
0001
0010
0100
1000
,
0001
0010
0001
0010
0100
1000
0100
1000
,
0100
0010
0001
0100
0010
0000
1001
0000
,
0010
0000
1000
0000
0001
0100
0001
0000
,
1000
0000
0100
0000
0010
0000
0001
0010
,
0100
0010
0001
1000
,
0001
0100
0010
0100
0001
0000
1000
0000
,
0010
0000
1000
0000
0001
0010
0100
0000
,
0001
0100
0001
1000
0001
0000
1000
0000
,
0100
0000
0010
0000
0001
1000
0100
0000
,
1000
0100
0010
0001
0100
0000
0110
0000
,
0001
0000
1001
0000
0001
0010
0100
0010
,
0001
1000
1100
0010
,
0101
0000
0010
0000
1000
0100
0010
0001
,
0200
0310
0002
1003
,
1000
0000
0100
0000
1000
0100
0010
0001
,
0100
0000
0010
0000
0001
0010
0100
1000
,
0010
1000
0010
1000
0001
0100
0001
0100
,
0010
0000
0000
1000
0000
0000
0010
0000
0000
1000
0000
0000
0001
0000
0010
0000
0001
0000
0010
0000
0001
0000
0010
0000
,
0001
1000
0101
1000
,
0011
0000
1000
0100
1100
0000
0001
0100
,
0101
0000
0010
1000
0001
0000
0100
0000
,
1100
0000
0010
0001
0101
0000
0010
0000
,
1000
0100
0010
0100
1000
0001
0100
0010
,
0100
0001
1000
0010
0100
0000
1001
0000
,
0010
1000
0100
1000
0010
0001
0100
0001
,
2000
3001
0002
1003
,
0020
1030
0002
1003
,
0010
1000
0010
1000
0010
0100
0010
0100
0001
0100
0000
0000
,
0001
0010
0001
0010
0001
1000
0100
1000
0100
0010
0000
0000
,
0001
0100
0001
0100
0010
1000
0010
0100
0010
0100
0000
0000
,
1000
0100
0010
0001
0000
0100
0010
0100
,
0001
0010
0100
1000
0010
0100
0001
0100
,
0010
1000
0010
1000
0001
0100
0010
0000
,
1000
0000
0000
0100
0000
0000
1000
0000
0000
0100
0000
0000
0010
0000
0001
0000
0010
0000
0001
0000
0000
0100
0000
0000
,
0020
0000
0030
0000
1000
0100
1000
0010
,
0100
0001
0100
0010
0100
0001
1000
0010
,
1000
0100
0010
0001
0100
0010
0100
0001
,
1000
0100
1000
0001
0100
0010
0100
0001
,
1000
0000
0000
0100
0000
0000
1000
0000
0010
0000
1000
0000
0010
0000
1000
0000
0010
0000
1000
0000
0000
0001
0000
0000
,
0100
0000
0000
0010
0000
0000
0100
0000
0010
0000
0100
0000
0010
0000
0100
0000
0010
0000
0100
0000
0000
0001
0000
0000
,
2000
3010
0002
0103
,
0010
1000
0000
0001
0000
0100
0010
0000
,
2002
3003
2200
3300
,
0010
0001
0000
0101
0000
1000
0001
0000
,
1000
0000
1001
0000
1000
0010
0100
0001
,
1000
0000
0001
0100
1000
0000
0100
0001
,
1000
0010
1000
0010
0100
0001
0100
0001
,
0200
0320
2030
3002
,
2003
0000
3010
0000
1000
0100
0010
0001
,
0100
0000
0010
0100
0001
0000
1000
0100
,
0010
0001
1000
0010
0100
0010
1000
0001
,
0010
0100
1000
0010
0100
0001
0100
0010
,
1000
0010
1000
0010
0100
0001
0100
0001
,
1000
0100
1000
0100
0010
0001
0010
0001
,
0100
0010
0100
0010
1000
0001
1000
0001
,
0100
0010
1000
0010
0100
0010
0001
0010
,
0100
0100
0001
1000
0001
0001
1000
0100
,
0010
0010
0001
0010
0100
0100
0010
0100
,
1000
0100
0010
0100
1000
0100
1000
0100
,
0010
0001
0010
0001
0100
0010
1000
0001
,
1000
0000
1000
0100
1000
0000
0001
0000
,
0100
0010
1000
0010
0100
0000
0001
0000
,
1000
0000
0010
0100
0010
0000
1000
0000
,
0001
0010
0100
0010
0001
0000
1000
0000
,
0010
0100
0010
0100
0010
0000
2000
0000
,
0000
0000
3001
0010
0001
0010
0001
0000
,
0100
0010
0100
0000
0001
0000
1000
0100
,
1000
0000
0010
0000
0100
0010
0100
0000
,
0001
0000
0100
0010
0100
0010
0100
0000
,
1000
0000
0001
1001
0000
1000
0100
0010
,
0001
0000
1000
0010
0000
0100
0010
0100
,
0010
0000
1000
1010
0000
1000
0100
0010
,
0001
0000
0100
0010
0110
0000
0001
0000
,
1010
0000
0101
0000
1001
0000
0100
0010
,
0110
0000
0001
1000
0001
0000
1000
0000
,
0101
1010
1001
0000
,
0001
0100
0001
0100
0001
0100
0001
0000
,
1000
0100
1000
0100
1000
0100
1000
0000
,
0010
0100
0010
0100
0010
0100
0010
0000
,
1000
0001
1000
0000
1000
0100
0010
0001
,
1000
0000
0001
0000
1000
0000
0001
0000
0000
1000
0000
0000
0001
0000
1000
0000
0001
0000
1000
0000
0000
0001
0000
0000
,
0100
0000
0010
0000
0100
0000
0010
0000
0000
0100
0000
0000
0010
0000
0100
0000
0010
0000
0100
0000
0000
0010
0000
0000
,
1000
0100
0000
0010
0001
0000
0100
0010
,
0000
1000
1001
0000
0000
0000
0000
0000
,
0220
0000
0000
0300
,
2000
0000
0000
0030
,
0002
0000
0000
0000
,
0000
0000
0000
0003
,
0000
0001
0001
0001
,
0001
0001
0001
0002
,
3003
0000
0000
0000
;

//---------------dance-double - ----------------
#NOTES:
     dance-double:
     :
     Hard:
     17:
     0.843315,1.252482,0.216880,0.162660,0.182993,871.000000,839.000000,32.000000,24.000000,0.000000,0.000000,0.843315,1.252482,0.216880,0.162660,0.182993,871.000000,839.000000,32.000000,24.000000,0.000000,0.000000:
00000000
00000000
00000000
00000000
,
00000000
00000000
00000000
00000000
,
00000000
00000000
00000000
00000000
,
00000000
00000000
00000000
00000000
,
00000000
00000000
00000000
00000000
,
00000000
00000000
00000000
00000000
,
00000000
00000000
00000000
00000000
,
01000000
00100000
01000000
00100000
10000000
01000000
00100000
00010000
,
00000000
00100000
00001000
00000000
00010000
00000000
00000100
00000000
,
00001000
00000100
00000000
00000101
00000000
00001001
00000000
00000010
,
00001000
00000100
00000000
00001100
00000000
00010100
00000000
00001000
,
00010000
00001000
00000000
00101000
00000000
00110000
00000000
00010000
,
00100000
00000000
00010000
00000000
10000000
01000000
00100000
00010000
,
01000000
01000000
00000000
10100000
00000000
01010000
00000000
01000000
,
00100000
10000000
00000000
00100000
01000000
00100000
01000000
00100000
,
10000000
01000000
00000000
00100000
00010000
00000000
01000000
00200000
,
00000000
00000000
00300000
00000000
00000000
00000000
10000000
00010000
,
01000000
00100000
10000000
01000000
,
00100000
00000000
00010000
00100000
00010000
00000000
00100000
00001000
,
00010000
00000010
00001000
00000100
,
00000001
00000100
00001000
00000000
00000100
00000000
00010000
00000100
,
00010000
00000000
00001000
00100000
00001000
00000000
00100000
00010000
,
01000000
00000000
00100000
10000000
01000000
00000000
00100000
00010000
,
00100000
00000000
00010000
00000000
01000000
00010000
01000000
00010000
,
01000000
00000000
00100000
00000000
10010000
00000000
10000000
01000000
,
00100000
01000000
00010000
00100000
,
00001000
00000000
00010000
00001000
00010000
00000000
00000100
00001000
,
00000100
00001000
00000100
00000010
,
00000001
00000100
00000010
00000100
00000001
00000000
00001000
00000100
,
00000010
00000000
00001000
00000000
00000100
00000000
00010000
00001000
,
00010000
00000000
00001000
00000000
00100000
00000000
00010000
00100000
,
01000000
10000000
01000000
00010000
,
00001000
00000100
00000001
00001010
,
00000010
00001000
00000100
00000001
,
00001000
00000100
00010000
00001000
,
01000000
00010000
10000000
01000000
,
00100000
00001000
00010000
00000010
,
00001000
00000100
00000001
00000010
,
00001000
00000100
00010000
00001000
,
01000000
00010000
01000000
00100000
00000000
10000000
00100000
01000000
,
00020000
00000000
01030000
00000000
,
10000000
00000000
10000000
01000000
00100000
00000000
01000000
00000000
,
00001000
00010000
00000010
00001000
,
00000010
00001000
00000001
00001000
00000100
00000000
00010000
00000000
,
00001000
00000000
01000000
00010000
01000000
00000000
00100000
00000000
,
20000000
31000000
00200000
00310000
,
00100000
00000000
00001000
00010000
00000000
00010000
00001000
00000000
,
00010000
00000100
00010000
00000100
00000000
00001000
00000100
00000010
,
00000002
00000103
00002002
00003003
,
00000020
00000100
00000100
00000130
,
00000002
00000000
00000100
00000000
00000103
00000000
00000010
00001000
,
00000010
00000000
00001000
00000100
00001000
00000000
00000100
00000000
,
00010000
00001000
00010000
00000000
00000100
00010000
00000100
00000000
,
00010000
00001000
00100000
00010000
,
01000000
00000000
00100000
00000000
10000000
01000000
00100000
00010000
,
10000000
00000000
00100000
01000000
00100000
00000000
10000000
00100000
,
10000000
00100000
01000000
00010000
01000000
00010000
00100000
00000000
,
00001000
00010000
00001000
00010000
00000100
00001000
00000100
00000000
,
00001000
00000100
00000010
00000000
00000001
00000010
00000100
00000000
,
00001000
00000100
00001000
00000000
00000100
00010000
00001000
00000000
,
00100000
00010000
01000000
00000000
00100000
10000000
01000000
00000000
,
01000000
00100000
00010000
00000000
00100000
00001000
00010000
00000000
,
00001000
00010000
00001000
00010000
00000100
00001000
00000100
00001000
,
00000010
00000100
00000010
00000100
00000001
00000010
00000001
00000010
,
00000100
00001000
00000100
00000010
00000001
00001000
00000100
00010000
,
00000100
00010000
00001000
00010000
00001000
00000000
01000000
00000000
,
10010000
10000000
01000000
00100000
,
00001000
00010000
00000010
00000100
,
00000001
00000010
00000100
00001000
,
00000100
00000000
00010000
00001000
00010000
00000000
00000100
00000000
,
00010000
00000000
00001000
00000000
01000000
00010000
01000000
00000000
,
00100000
10000000
00100000
10000000
00100000
00000000
01000000
00000000
,
00010000
00000000
00100000
00000000
00001000
00010000
00001000
00000000
,
00010000
00000100
00001000
00000100
00010000
00000000
00000100
00000000
,
00001000
00000000
00000001
00000000
00001000
00000100
00000010
00000100
,
00001000
00000000
00000001
00000100
00000010
00000000
00001000
00000000
,
00000100
00010000
00001000
01000000
,
20000000
30000000
00020000
00030000
,
01000000
00000000
00000000
10000000
00100000
10000000
00100000
10000000
00100000
10000000
00000000
00000000
,
00010000
00000000
00000000
00100000
00001000
00100000
00001000
00100000
00001000
00100000
00000000
00000000
,
00001000
00000000
00000000
00010000
00000100
00010000
00000100
00010000
00000100
00010000
00000000
00000000
,
00000010
00001000
00000100
00000010
00000001
00001000
00000100
00010000
,
00001000
00011000
00101000
01001000
,
10010000
00000000
10000000
01000000
00100000
00000000
01010000
00000000
,
00110000
00000000
00100000
00001000
00010000
00000000
00011000
00000000
,
00010100
00000000
00001000
00000100
00000010
00000000
00001001
00000000
,
00001000
00000010
00000100
00000001
00001000
00000100
00000010
00000001
,
00001000
00000000
00000100
00010000
00001000
00000000
00010000
00001000
,
00100000
00010000
00100000
00010000
10000000
01000000
00100000
00010000
,
00100000
00001000
00100000
00001000
00010000
00000100
00001000
00000100
,
00002000
00003001
00000020
00001030
,
00000001
00000100
00000001
00000100
00000001
00000100
00000010
00000100
00000010
00000100
00000000
00000000
,
00000010
00001000
00000010
00001000
00000100
00001000
00000100
00001000
00000100
00001000
00000000
00000000
,
00000100
00010000
00000100
00010000
00000000
00000000
00001000
00100000
00001000
00100000
00000000
00000000
,
00010000
00100000
01000000
10000000
00000000
10000000
01000000
00100000
,
00010000
00100000
00010000
00100000
00001000
00000000
00010000
00000000
,
00000100
00001000
00000010
00001000
00000100
00000010
00000001
00000000
,
00001000
00000100
00001000
00000100
00010000
00001000
00010000
00000000
,
00002000
00000000
00003000
00000000
00100000
00010000
01000000
00100000
,
10000000
00010000
10000000
00100000
10000000
01000000
00100000
00010000
,
00100000
00001000
00010000
00001000
00100000
00001000
00010000
00000010
,
00001000
00000100
00000010
00000001
00001000
00000100
00010000
00001000
,
01000000
00000000
00000000
00010000
00000000
00000000
10000000
00000000
00100000
00000000
10000000
00000000
00100000
00000000
10000000
00000000
01000000
00000000
00100000
00000000
00010000
00000000
00100000
00000000
,
01000000
00000000
00000000
00010000
00000000
00000000
00100000
00000000
00001000
00000000
00100000
00000000
00001000
00000000
00010000
00000000
00000100
00000000
00010000
00000000
00000100
00000000
00010000
00000000
,
00002000
00003000
00020000
00030000
,
00001000
00000100
00000010
00000001
00000000
00000100
00000010
00000000
,
00000002
00000003
00020000
00030000
,
00001000
00100000
00010000
01000000
00000000
00100000
10000000
00000000
,
10000000
00000000
10000000
00100000
01000000
00000000
01000000
00010000
,
00100000
00000000
00001000
00010000
00001000
00000000
00010000
00000000
,
00000100
00001000
00000100
00000010
00000001
00000010
00000100
00001000
,
00000100
00010000
00001000
01000000
,
00010000
00100000
01000000
00000000
00010000
10000000
01000000
00100000
,
00010000
00000000
00100000
00001000
00010000
00000000
00000100
00000000
,
00001000
00000010
00001000
00000010
00000100
00000001
00000100
00000001
,
00001000
00000100
00010000
00000100
00001000
00000000
00001001
00000000
,
00001000
00000100
00001000
00000100
00010000
00001000
00010000
00001000
,
00100000
00010000
00100000
00010000
01000000
00100000
01000000
00100000
,
10000000
01000000
00100000
01000000
10000000
00010000
00100000
01000000
,
00100000
00010000
00100000
00001000
00010000
00000100
00001000
00000001
,
00001000
00000100
00000010
00000001
00001000
00000100
00010000
00000100
,
00010000
00001000
00010000
00001000
01000000
00010000
01000000
00010000
,
10000000
01000000
00100000
00010000
00100000
00001000
00010000
00000010
,
00001000
00000100
00000010
00000001
00001000
00000100
00001000
00000100
,
00010000
00000000
00001000
00010000
00001000
00000000
00100000
00000000
,
00010000
00000000
01000000
00010000
10000000
00000000
10010000
00000000
,
10000000
00000000
00100000
01000000
00010000
00000000
00100000
00000000
,
00001000
00010000
00000100
00010000
00001000
00000000
00010000
00000000
,
00000100
00001000
00000100
00000010
00000001
00000000
00000200
00000000
,
00000310
00000000
00000010
00001000
00000100
00001000
00000010
00000000
,
00000100
00000010
00000001
00000010
00000100
00000000
00000010
00001000
,
00000100
00010000
00001000
00100000
,
00010000
00000000
01000000
00100000
10000000
00010000
01000000
00000000
,
00100000
00000000
10000000
10000000
00000000
00010000
00100000
00010000
,
00100000
00000000
00001000
00010000
00000000
00000100
00001000
00000100
,
00000010
00000000
00000001
00000100
00000010
00000000
00001000
00000100
,
00001000
00000000
00010000
00001000
00010000
00000000
00101000
00000000
,
01001000
00000000
01010000
00000000
10010000
00000000
10000000
01000000
,
00100000
00000000
01000000
00100000
00010000
00000000
00101000
00000000
,
00011000
00010100
00002002
00003003
,
00000001
00000010
00001000
00000010
00000001
00000010
00001000
00000000
,
00000100
00010000
00001000
00010000
00000100
00010000
00001000
00000000
,
00100000
00010000
01000000
00010000
00100000
00010000
01000000
00000000
,
10000000
01000000
00100000
00000000
00001000
00010000
00000010
00000000
,
00001000
00000100
00001000
00000100
00000010
00000001
00000010
00000001
00001000
00000100
00000010
00000001
,
00001000
00000000
00000010
00000000
00001000
00000000
00000010
00000000
00000100
00000000
00000001
00000000
00000100
00000000
00000001
00000000
00000100
00000000
00000010
00000000
00000000
00001000
00000000
00000000
,
00000100
00000010
00000000
00010000
00001000
00000000
01000000
00100000
,
00000000
10000000
01000000
00000000
00000000
00000000
00000000
00000000
,
00022000
00000000
00000000
00000000
,
00000000
00000000
00000000
00000000
,
00000000
00000000
00000000
00000000
,
00000000
00000000
00000000
00000000
,
00003000
00001000
00001000
00001000
,
00001000
00001000
00001000
00002000
,
00033000
00000000
00000000
00000000
;

//---------------dance-double - ----------------
#NOTES:
     dance-double:
     :
     Medium:
     13:
     0.603198,0.834988,0.189770,0.237213,0.000000,623.000000,595.000000,28.000000,35.000000,0.000000,0.000000,0.603198,0.834988,0.189770,0.237213,0.000000,623.000000,595.000000,28.000000,35.000000,0.000000,0.000000:
00000000
00000000
00000000
00000000
,
00000000
00000000
00000000
00000000
,
00000000
00000000
00000000
00000000
,
00000000
00000000
00000000
00000000
,
00000000
00000000
00000000
00000000
,
00000000
00000000
00000000
00000000
,
00000000
00000000
00000000
00000000
,
10000000
01000000
00010000
00100000
,
00001000
00010000
00000010
00000100
,
00000001
00000000
00000000
00001100
00000000
00001100
00000000
00000000
,
00000010
00000000
00000000
00010100
00000000
00010100
00000000
00000000
,
00001000
00000000
00000000
01010000
00000000
01010000
00000000
00000000
,
00100000
00000000
10000000
00000000
01000000
00100000
01000000
00100000
,
01000000
00000000
00000000
10010000
00000000
10010000
00000000
00000000
,
00100000
00000000
00000000
00011000
00000000
00010000
00001000
00010000
,
00001000
00000000
00000000
00011000
00000000
00000000
00000020
00002000
,
00000000
00003030
00000000
00000000
,
00000001
00000100
00001000
00000100
,
00000001
00001000
00000100
00000000
,
00010000
00001000
00100000
00010000
,
01000000
00000000
00100000
00000000
10000000
00000000
10000000
01000000
,
10000000
00000000
01000000
00000000
00100000
00000000
00010000
00100000
,
00010000
00100000
00001000
00010000
,
00000100
00001000
00000010
00000100
,
00000001
00000000
00001000
00000001
00001000
00000000
00000010
00000000
,
00001000
00000100
00000010
00000001
,
00001000
00000000
00000100
00001000
00000100
00000000
00001000
00000000
,
00000100
00010000
00001000
01000000
,
00100000
00000000
10000000
00000000
10010000
00000000
10000000
00010000
,
10000000
00000000
00100000
00000000
01000000
00000000
00010000
00100000
,
00010000
00100000
00001000
00010000
,
00000010
00001000
00000100
00000010
,
00000001
00001000
00000001
00001000
00000001
00000000
00000100
00000000
,
00000010
00000000
00001000
00000000
,
00000100
00000000
00000001
00000000
,
00000100
00000000
00010000
00000000
,
01000000
00000000
10000000
00000000
,
00100000
00000000
00010000
00000000
,
00100000
00001000
00010000
00000000
,
00001000
00010000
00001000
00010000
00000000
00000000
00000100
00000000
,
00002000
00000000
00000002
00003003
,
00000010
00001000
00000100
00000010
,
00000001
00001000
00000100
00000000
,
00010000
00001000
01000000
00100000
,
10000000
01000000
00100000
00000000
,
00001000
00010000
00000100
00000000
,
00001000
00000100
00000010
00000000
,
00000001
00000100
00000001
00000100
00000000
00000010
00001000
00000010
,
00002000
00000000
00000002
00003003
,
00002000
00000100
00000100
00003100
,
00000200
00000300
00010000
00001000
,
01000000
01000000
00000000
00100000
,
10000000
01000000
10000000
00000000
00010000
01000000
00010000
00000000
,
10000000
01000000
00100000
00010000
,
00200000
00000000
00300000
00000000
00001000
00010000
00001000
00010000
,
00001000
00020000
00030000
00000100
,
00001000
00000100
00000010
00000001
,
00001000
00000100
00020000
00030000
,
00001000
00000000
00001000
00000000
00010000
00001000
00010000
00000000
,
00001000
00000000
00001000
00000000
01000000
00010000
01000000
00000000
,
00100000
00000000
00100000
00000000
10000000
01000000
10000000
00000000
,
00100000
00000000
00100000
00000000
01000000
00010000
01000000
00000000
,
00010000
00100000
00010000
00000000
00010000
10000000
00010000
00000000
,
00010000
01000000
00010000
00000000
00100000
00000000
00001000
00000000
,
00010000
00001000
00010000
00000000
00010000
00000100
00010000
00000000
,
00001000
00000100
00000010
00000001
,
00000100
00000010
00000200
00000300
,
00000001
00001000
00000100
00010000
,
00001000
01000000
00100000
10000000
,
00010000
01000000
01000000
00100000
,
10000000
01000000
00100000
00001000
,
00010000
00010000
00010000
00000100
,
00001000
00000001
00000100
00000010
,
00002020
00003030
00000202
00000303
,
00000010
00000000
00000100
00000000
00000001
00001000
00000001
00001000
,
00000001
00001000
00000100
00010000
,
00001000
01000000
00100000
10000000
,
20020000
30030000
02200000
03300000
,
20000000
01000000
00100000
30010000
,
10000000
01000000
00001000
00010000
,
00000020
00001000
00000100
00001030
,
00000001
00000100
00000010
00001000
,
00000100
00010100
00010100
00010100
,
00001000
00000000
00010000
00001000
00010000
00000000
00001000
00010000
,
00001000
00100000
00010000
01000000
,
00100000
00000000
10000000
00010000
10000000
00000000
00010000
10000000
,
00010000
10000000
00100000
01000000
,
00001000
00000000
00010000
00001000
00010000
00000000
00001000
00010000
,
00001000
00100000
00001000
00010000
,
00000010
00001000
00000010
00001000
00000010
00000000
00000100
00000000
,
00002002
00000000
00003003
00000000
,
00000010
00001000
00000010
00001000
00000010
00000000
00000100
00000000
,
00000001
00000010
00000001
00000010
00000001
00000000
00000100
00000000
,
00000001
00001000
00000001
00001000
00000001
00000000
00001000
00000000
,
00000100
00000000
00001000
00000100
00000000
00001000
00000100
00000000
,
00010000
00001000
01000000
00010000
,
10000000
00100000
01000000
00001000
,
00010000
00000010
00002000
00000000
,
00003002
00000000
00001003
00000100
,
00000010
00000001
00000010
00000000
00000001
00000010
00000001
00000000
,
00001000
00000000
00000100
00000000
00010000
00001000
00010000
00000000
,
00001000
01000000
00100000
10000000
,
10000000
01000000
10000000
00000000
00010000
01000000
00010000
00000000
,
00100000
00001000
00100000
00000000
00001000
00010000
00001000
00000000
,
00020000
00030000
00000020
00000030
,
00001000
00000001
00000000
00000100
00000000
00000000
00000001
00000000
,
00002000
00003000
00000200
00000300
,
00010000
00001000
00000000
01000000
00000000
00000000
00010000
00000000
,
10000000
00000000
01000000
00000000
00100000
00000000
00010000
01000000
,
00010000
01000000
00100000
10000000
,
00010000
10000000
00010000
00000000
00010000
00100000
00010000
00000000
,
00100000
00001000
00010000
00000010
,
00002000
00000000
00003000
00000000
00000001
00000100
00000001
00000100
,
00000001
00002000
00003000
00000100
,
00010000
00001000
01000000
00100000
,
10000000
00010000
10000000
00010000
10000000
00000000
00100000
00000000
,
10000000
01000000
10000000
00000000
00010000
00000000
00100000
00000000
,
00001000
00010000
00001000
00000000
00010000
00000000
00000010
00000000
,
00001000
00000001
00001000
00000000
00000100
00000000
00010000
00000000
,
00001000
01000000
00001000
00000000
01000000
00000000
00100000
00000000
,
10000000
01000000
10000000
00000000
00010000
00100000
00010000
00000000
,
00010000
01000000
00010000
00000000
00001000
00000000
00010000
00000000
,
00000100
00001000
00000100
00000000
00001000
00000010
00001000
00000000
,
00000001
00000100
00000010
00001000
,
00000100
00000000
00010000
00000100
00010000
00000000
00001000
00000000
,
00100000
00010000
01000000
10000000
,
01000000
00000000
00010000
01000000
00010000
00000000
00100000
00000000
,
00001000
00010000
00000010
00001000
,
00000001
00000100
00000001
00000100
00000001
00000000
00002000
00000000
,
00000000
00003010
00000100
00000001
,
00001000
00000100
00001000
00000000
00000100
00000000
00010000
00000000
,
00001000
01000000
00100000
10000000
,
01000000
00000000
00100000
00000000
00010000
00100000
00010000
00000000
,
00100000
00000000
00001000
00001000
00000000
00000000
00010000
00000000
,
00000100
00000000
00001000
00001000
00000000
00000000
00000010
00000000
,
00000100
00000000
00000001
00000001
00000000
00000000
00001000
00000000
,
00000001
00001000
00000100
00010000
,
00001000
00010000
00011000
00001000
,
01000000
00100000
10000000
00010000
,
00100000
00001000
00011000
00000000
,
00010000
00000100
00000000
00001100
00000000
00001100
00000000
00000010
,
00000001
00000010
00000000
00000101
00000000
00000101
00000000
00000010
,
00001000
00000100
00000000
00001100
00000000
00001100
00000000
00000100
,
00010000
00000000
00001000
00000000
00100000
00010000
00100000
00010000
,
01000000
00000000
00100000
00000000
10000000
01000000
10000000
00000000
,
00010000
00000000
00100000
00000000
00001000
00010000
00001000
00000000
,
00010000
00000010
00000000
00000010
00001000
00000000
00001000
00000001
,
00000000
00000001
00001000
00000000
00000000
00000000
00000000
00000000
,
00022000
00000000
00000000
00000000
,
00000000
00000000
00000000
00000000
,
00000000
00000000
00000000
00000000
,
00000000
00000000
00000000
00000000
,
00000000
00000000
00000000
00000000
,
00000000
00000000
00000000
00000000
,
00033000
00000000
00000000
00000000
;

//---------------dance-double - ----------------
#NOTES:
     dance-double:
     :
     Easy:
     10:
     0.397936,0.469681,0.108440,0.291433,0.000000,411.000000,395.000000,16.000000,43.000000,0.000000,0.000000,0.397936,0.469681,0.108440,0.291433,0.000000,411.000000,395.000000,16.000000,43.000000,0.000000,0.000000:
00000000
00000000
00000000
00000000
,
00000000
00000000
00000000
00000000
,
00000000
00000000
00000000
00000000
,
00000000
00000000
00000000
00000000
,
00000000
00000000
00000000
00000000
,
00000000
00000000
00000000
00000000
,
00000000
00000000
00000000
00000000
,
00200000
00000000
20300000
00000000
,
30020000
00000000
00230000
00000000
,
00301000
00010000
00001000
00010000
,
00000010
00000100
00000010
00000100
,
00000001
00001000
00000001
00001000
,
00000100
00010000
00001000
01000000
,
00100000
01000000
00100000
01000000
,
00010000
10000000
00010000
00100000
,
00001000
00000000
00000000
00010000
00000000
00000000
00022000
00000000
,
00000000
00033000
00000000
00000000
,
00001000
00000000
00010000
00000000
,
00000010
00001000
00000010
00000000
,
00000100
00000001
00000100
00000000
,
00000010
00001000
00000010
00000000
,
00001000
00000000
00000100
00000000
,
00010000
00010000
00010000
00000000
,
00001000
00000000
01000000
00000000
,
00100000
00000000
10010000
00000000
,
10000000
00010000
10000000
00010000
,
10000000
00010000
10000000
00000000
,
00010000
00100000
00010000
00100000
,
00010000
00100000
00001000
00000000
,
00010000
00000100
00001000
00000000
,
00001000
00000001
00001000
00000000
,
00000010
00001000
00000100
00001000
,
00000010
00000010
00000010
00000000
,
00000002
00000000
00000203
00000000
,
00002300
00000000
00023000
00000000
,
02030000
00000000
23000000
00000000
,
30200000
00000000
00320000
00000000
,
00032000
00000000
00003200
00000000
,
00000301
00000100
00001000
00000000
,
00000010
00001000
00000010
00001000
,
00000002
00000000
00002003
00000000
,
00003010
00001000
00000100
00001000
,
00000010
00000100
00000100
00000000
,
00010000
00000100
00010000
00001000
,
00100000
00100000
00100000
00000000
,
00010000
01000000
00100000
00000000
,
10000000
00100000
01000000
00000000
,
00020000
00000000
00230000
00000000
,
00302000
00000000
00013000
00000000
,
00022000
00000000
00000000
00033000
,
00011000
00000000
00000000
00010000
,
00000100
00001000
00000000
00000010
,
00000010
00001000
00000100
00000010
,
00000001
00000000
00001000
00000000
,
00000010
00000000
00001000
00000100
,
00000010
00000001
00000000
00001000
,
00000100
00000000
00010000
00000000
,
00001000
00001000
01000000
00000000
,
00010000
10000000
00010000
10000000
,
00100000
01000000
00100000
01000000
,
00010000
10000000
00010000
10000000
,
00010000
00100000
00010000
00000000
,
00100000
00100000
00001000
00000000
,
00010000
00010000
00000010
00000000
,
00001000
00000100
00000010
00000001
,
00000200
00000000
00000310
00000000
,
00000002
00000000
00000003
00000000
,
00001000
00000000
00000100
00000000
,
00010000
00000000
00001000
00000000
,
01000000
01000000
01000000
00000000
,
00010000
00000000
01000000
00000000
,
10000000
10000000
10000000
00000000
,
01000000
00000000
00010000
00000000
,
00100000
00000000
00101000
00000000
,
00001000
00010000
00001000
00010000
,
00001000
00000000
00010010
00000000
,
00000100
00000010
00000100
00000010
,
00000100
00000000
00001001
00000000
,
00000220
00000000
00000000
00000000
,
00000000
00000000
00000330
00000000
,
00020000
00000000
00000000
00000000
,
00002000
00000000
00033000
00000000
,
00001000
00100000
00010000
00100000
,
00010000
00010000
01000000
00000000
,
00100000
10000000
00100000
00000000
,
01000000
00010000
01000000
00000000
,
00010000
00100000
00001000
00001000
,
00010000
00000010
00001000
00000000
,
00000001
00000000
00000100
00000000
,
00002002
00000000
00003003
00000000
,
00000020
00000000
00000030
00000000
,
00000002
00000000
00001003
00000000
,
00020000
00000000
00031000
00000000
,
20000000
00000000
30010000
00000000
,
00100000
00001000
00010000
00000000
,
00000010
00010000
00001000
00000000
,
00010000
00001000
01000000
00010000
,
01000000
00001000
00010000
00000000
,
00000100
00000100
00001000
00000000
,
00000010
00000010
00000001
00000000
,
00001000
00001000
00000100
00000000
,
00010000
00010000
00001000
00000000
,
01000000
00100000
01000000
00100000
,
10000000
00010000
10000000
00010000
,
20000000
00000000
30020000
00000000
,
00230000
00000000
00300000
00000000
,
00002000
00000000
00023000
00000000
,
00030020
00000000
00000030
00000000
,
00001001
00000000
00000000
00000010
,
00000010
00000010
00000000
00001000
,
00000100
00000010
00000001
00000100
,
00000010
00001000
00000100
00001000
,
00000100
00000000
00010000
00001000
,
01000000
01000000
00000000
00100000
,
10010000
00000000
01100000
00000000
,
10000000
01000000
00100000
00010000
,
01000000
01000000
00010000
00010000
,
00001000
00001000
00000010
00000010
,
00000100
00000100
00000001
00000001
,
00001000
00000100
00000010
00000001
,
00001000
00001000
00000100
00000100
,
00010000
00010000
00001000
00001000
,
01000000
00100000
01000000
00100000
,
10000000
01000000
00100000
00010000
,
01000000
00000000
00010000
00000000
,
00100000
00100000
00100000
00000000
,
00001000
00000000
00010000
00000000
,
00000010
00000010
00000010
00000000
,
00001000
00000100
00000010
00000001
,
00000000
00000010
00000100
00001000
,
00000100
00000000
00010000
00000000
,
00001000
00000000
01000000
00000000
,
00010000
00100000
01000000
10000000
,
00100000
00000000
10010000
00000000
,
00100000
00001000
00010000
00000010
,
00000100
00000000
00001001
00000000
,
00000010
00000000
00001000
00000000
,
00000001
00000001
00000001
00000000
,
00001000
00000000
00000100
00000000
,
00010000
00010000
00010000
00000000
,
00001000
01000000
00001000
00000000
,
10000000
01000000
10000000
00000000
,
00010000
00100000
00010000
00000000
,
00100000
00000000
00000010
00000000
,
00010000
00000100
00010000
00000100
,
00001000
00000001
00001000
00000001
,
00001000
00000000
00000000
00000100
00000000
00000000
00011000
00000000
,
00000000
00000000
00000000
00000000
,
00022000
00000000
00000000
00000000
,
00000000
00000000
00000000
00000000
,
00000000
00000000
00000000
00000000
,
00000000
00000000
00000000
00000000
,
00000000
00000000
00000000
00000000
,
00000000
00000000
00000000
00000000
,
00033000
00000000
00000000
00000000
;

//---------------dance-single - ----------------
#NOTES:
     dance-single:
     :
     Beginner:
     8:
     0.282719,0.365307,0.047443,0.216880,0.000000,292.000000,285.000000,7.000000,32.000000,0.000000,0.000000,0.282719,0.365307,0.047443,0.216880,0.000000,292.000000,285.000000,7.000000,32.000000,0.000000,0.000000:
0000
0000
0000
0000
,
0000
0000
0000
0000
,
0000
0000
0000
0000
,
0000
0000
0000
0000
,
0000
0000
0000
0000
,
0000
0000
0000
0000
,
0000
0000
0000
0000
,
1000
0000
0001
0000
,
0100
0000
0010
0000
,
1000
1000
1000
0000
,
0001
0001
0001
0000
,
0100
0100
0100
0000
,
0010
0010
0010
0000
,
1000
0000
0100
0000
,
0010
0000
0001
0000
,
1000
0000
0000
0001
0000
0000
2002
0000
,
0000
3003
0000
0000
,
0010
0000
1000
0000
,
0001
0000
1000
0000
,
0100
0000
0010
0000
,
0001
0000
0100
0000
,
0010
0000
1000
0000
,
0100
0000
1000
0000
,
0001
0000
0010
0000
,
0200
0000
0300
0000
,
0001
1000
0001
0000
,
1000
0000
1000
0000
,
1000
0001
1000
0000
,
0001
0000
0001
0000
,
0100
0100
0100
0000
,
0010
0010
0010
0000
,
1000
0000
0100
0000
,
0010
0000
0001
0000
,
1000
0000
0100
0000
,
1000
0000
0001
1000
,
0001
0000
0010
0000
,
0100
0000
1000
0000
,
0010
0000
0100
0000
,
0001
0000
1000
0000
,
0001
1000
0001
0000
,
2000
0000
3000
0000
,
0010
0000
0100
0000
,
0001
0000
0001
0000
,
0100
0000
0010
0000
,
1000
0000
1000
0000
,
0001
0000
0100
0000
,
0010
0000
1000
0000
,
0010
0010
0010
0000
,
0100
0000
0001
0000
,
2002
0000
3003
0000
,
0010
0000
0000
1000
,
1000
1000
0000
0001
,
1000
0000
0010
0000
,
0100
0000
0001
0000
,
0100
0000
0000
0000
,
0001
1000
0000
0000
,
0010
0000
0100
0000
,
0001
0000
1000
0000
,
0200
0000
0310
0000
,
0002
0000
0103
0000
,
2000
0000
3100
0000
,
0020
0000
0031
0000
,
1000
0000
0100
0000
,
0010
0000
0001
0000
,
0010
0000
0100
0000
,
2002
0000
3003
0000
,
0010
0000
0000
0000
,
1000
0000
0000
0000
,
0100
0000
0100
0000
,
0100
0000
0100
0000
,
0001
0000
0001
0000
,
0010
0000
0010
0000
,
0001
0000
0100
0000
,
2000
0000
3000
0000
,
0001
1000
0001
0000
,
1000
0000
1000
0000
,
1000
0001
1000
0000
,
0001
0000
0100
0000
,
0020
0000
0000
0000
,
0030
0000
0000
0000
,
0200
0000
0000
0300
,
0020
0000
0000
0030
,
1000
1000
1000
0000
,
0001
1000
0001
0000
,
0001
0001
0001
0000
,
1000
0001
1000
0000
,
0010
0000
0100
0000
,
0010
0100
0010
0000
,
0100
0000
0010
0000
,
2000
0000
3000
0000
,
0002
0000
0003
0000
,
1000
0000
0100
0000
,
0010
0000
0001
0000
,
0100
0000
0010
0000
,
1000
0000
0001
0000
,
1000
0001
1000
0000
,
0001
0000
1000
0000
,
0001
1000
0001
0000
,
1000
0000
0100
0000
,
0010
0000
0001
0000
,
0100
0000
0010
0000
,
1000
0000
1001
0000
,
0001
0000
0100
0000
,
0010
0000
1000
0000
,
0002
0000
0003
0000
,
1000
0000
1000
0000
,
2000
0000
3000
0000
,
0001
0000
0001
0000
,
0100
0000
0000
0000
,
0010
0010
0000
0000
,
1000
0100
1000
0000
,
0001
0000
0010
0000
,
0100
0000
1000
0000
,
0001
0001
0000
0000
,
1000
0000
0100
0000
,
0010
0000
0001
0000
,
0100
0010
0100
0000
,
0010
0100
0010
0000
,
1000
0001
1000
0000
,
0001
1000
0001
0000
,
1000
0000
0100
0000
,
0010
0000
0001
0000
,
0010
0000
0100
0000
,
2000
0000
3000
0000
,
0001
0000
0100
0000
,
1000
0000
0100
0000
,
0001
0000
0010
0000
,
1000
0000
0010
0000
,
0001
0000
1000
0100
,
0000
1000
0100
0000
,
0010
0000
0001
0000
,
0200
0000
0300
0000
,
0010
0000
1000
0000
,
2002
0000
3003
0000
,
0010
0000
0001
0000
,
2002
0000
3003
0000
,
0010
0000
0010
0000
,
0100
0010
0100
0000
,
0100
0000
0100
0000
,
0010
0100
0010
0000
,
2000
0000
3000
0000
,
0002
0000
0003
0000
,
0200
0000
0300
0000
,
0020
0000
0030
0000
,
1000
0000
0001
0000
,
0100
0000
0010
0000
,
1000
0000
0000
1000
0000
0000
0001
0000
,
0000
0001
0000
0000
0000
0000
0000
0000
,
2002
0000
0000
0000
,
0000
0000
0000
0000
,
0000
0000
0000
0000
,
0000
0000
0000
0000
,
0000
0000
0000
0000
,
0000
0000
0000
0000
,
3003
0000
0000
0000
;

//---------------dance-single - ----------------
#NOTES:
     dance-single:
     :
     Medium:
     13:
     0.616753,0.730615,0.169438,0.203325,0.000000,637.000000,612.000000,25.000000,30.000000,0.000000,0.000000,0.616753,0.730615,0.169438,0.203325,0.000000,637.000000,612.000000,25.000000,30.000000,0.000000,0.000000:
0000
0000
0000
0000
,
0000
0000
0000
0000
,
0000
0000
0000
0000
,
0000
0000
0000
0000
,
0000
0000
0000
0000
,
0000
0000
0000
0000
,
0000
0000
0000
0000
,
0001
0000
0010
0000
0100
0000
1000
0001
,
0000
0001
1000
0000
0100
0000
0010
0000
,
0001
0100
0000
0101
0000
0101
0000
0000
,
1000
0010
0000
1010
0000
1010
0000
0000
,
0010
0100
0000
0110
0000
0110
0000
0000
,
1000
0001
0000
1000
0001
0000
0100
0000
,
0010
1000
0000
1010
0000
1010
0000
0000
,
0001
0100
0000
0101
0000
0101
0000
0000
,
1000
0100
0000
1000
0100
0000
1000
0100
,
0000
0000
0000
0010
,
1000
0100
0010
0001
,
0100
0100
0010
1000
,
0100
0010
0001
0100
,
0010
0100
0010
0000
0100
0000
0001
0010
,
0001
0000
1000
0000
0100
0000
1000
0100
,
1000
0010
0001
0100
,
0010
1000
0100
0001
,
0020
0000
0130
0000
,
0001
1000
0100
1000
,
0001
0000
0100
0000
0010
0000
0100
0010
,
0100
0000
0010
0100
0010
0000
1000
0000
,
0100
0010
0001
0100
,
1001
0000
0001
1000
0001
0000
1000
0001
,
1000
0000
0010
0100
0010
0000
0100
0010
,
0100
0001
1000
0100
,
0010
0000
0001
0000
1000
0001
1000
0001
,
1000
0010
1000
0010
,
0100
0001
0100
0001
,
1000
0100
0010
0100
,
1000
0010
0100
0010
,
1000
0000
0001
0000
,
1000
0010
0100
0000
,
0001
1000
0001
1000
0000
0001
1000
0001
,
2000
0000
3001
0000
,
0001
0010
0001
0010
,
0100
1000
0100
1000
,
0010
0100
0010
0100
,
1000
0100
0010
0001
,
0200
0000
0320
0000
,
1030
0000
0001
1000
0000
0001
0000
0000
,
1000
0100
1000
0100
0000
0010
0001
0010
,
0002
0000
2000
3003
,
2000
0001
0001
3001
,
1001
0000
0000
0000
0000
0010
0100
0010
,
0100
0001
0000
1000
,
0001
1000
0001
0000
1000
0001
1000
0000
,
0010
0100
0001
1000
,
0100
0000
0000
0000
1000
0010
1000
0010
,
1000
0000
1001
0000
0000
0000
0001
0100
,
0001
0000
1000
0010
1000
0000
0010
0000
,
1000
0001
1000
0001
1000
0001
1000
0000
,
0010
1000
0010
0000
0100
0000
0001
0000
,
0010
0001
0010
0000
0001
0000
0100
0000
,
0010
0100
0010
0000
1000
0000
0001
0000
,
1000
0001
1000
0000
0010
0000
0100
0000
,
0010
1000
0010
0000
0010
0100
0010
0000
,
1000
0010
1000
0000
1000
0001
1000
0000
,
0001
0010
0001
0000
0100
0000
0010
0000
,
1000
0100
1000
0000
0001
1000
0001
0000
,
1001
0000
1000
0000
,
0100
0010
0001
0000
,
0100
0010
0100
0010
,
1000
0001
1000
0100
,
0010
0000
0001
0000
0100
0001
0100
0000
,
0001
1000
0001
1000
0001
0000
1000
0000
,
0010
0100
0001
1000
,
1000
0001
1000
0001
1000
0000
0001
0000
,
0100
0000
0000
0000
0010
1000
0010
1000
,
0010
0100
0010
0100
,
0001
1000
0010
0100
,
0001
0000
1000
0000
,
2002
0000
0000
3003
,
0100
0010
1000
0100
,
0020
0000
0000
0000
,
0032
0000
0103
0000
,
0001
0010
0100
1000
,
0010
0000
0010
0100
0010
0000
1000
0000
,
0100
0010
0001
0100
,
0100
0000
0010
0100
0010
0000
0100
0000
,
0001
1000
0001
1000
0001
0000
1000
0000
,
0100
0010
0001
0100
,
0020
0000
2030
0000
,
3200
0000
0302
0000
,
2003
0000
3000
0000
,
0001
0010
0001
0000
0100
0000
0100
0000
,
0010
1000
0010
0000
0100
0000
0100
0000
,
0001
1000
0001
0000
1000
0001
1000
0000
,
0001
0100
0001
0100
0000
0000
0010
0000
,
1000
0100
0010
0001
,
1000
0000
0100
0000
1000
0100
1000
0000
,
0001
0000
0100
0000
0001
0100
0001
0000
,
2000
0000
3001
0100
,
0001
0010
0100
1000
,
0020
0000
1030
0100
,
0010
0001
0100
0010
,
2000
3001
0200
0301
,
0020
0031
0200
0301
,
2000
0000
3002
0000
,
0103
0010
0000
0100
0000
0000
0001
0000
,
2000
0000
3002
0000
,
1003
0100
0000
0010
0000
0000
0001
0000
,
1001
0000
0000
0000
0000
0010
0100
0010
,
0100
0001
0000
1000
,
0001
1000
0001
0000
1000
0001
1000
0000
,
0010
0100
0001
1000
,
0010
0000
0000
0000
0100
0010
0100
0010
,
0100
0000
0110
0000
0000
0000
0001
1000
,
0001
0010
0100
1000
,
0001
1000
0001
1000
0001
0000
1000
0000
,
0001
1000
0001
0000
0100
0000
0010
0000
,
1000
0001
1000
0000
0010
0000
0100
0000
,
0010
0100
0010
0000
1000
0000
0100
0000
,
0010
0001
0010
0000
0100
0000
1000
0000
,
0010
1000
0010
0000
0001
0100
0001
0000
,
0001
1000
0001
0000
0001
0010
0001
0000
,
1000
0010
1000
0000
0010
0000
0100
0000
,
0001
0100
0001
0000
1000
0001
1000
0000
,
0001
0000
0001
0010
0001
0000
1000
0000
,
0100
0000
0010
0000
1000
0001
0000
0001
,
1000
0000
0010
1000
0010
0000
1000
0000
,
0100
0000
0010
0000
0001
0100
0000
0100
,
0001
1000
0001
1000
0001
0000
2000
0000
,
0000
0000
3001
0000
1000
0001
1000
0000
,
0001
0100
0020
1030
,
1000
0010
0100
0001
,
1000
0000
0001
1000
0001
1000
0001
0000
,
1000
0000
1000
0100
0000
0000
0010
0000
,
0001
0000
1000
0001
1000
0000
0001
0000
,
1000
0000
1000
0001
0000
0000
0010
0000
,
1000
0100
0010
0001
,
0100
0000
0010
0000
1000
0000
0001
1000
,
0001
0000
1000
0001
1000
0000
0001
0000
,
0010
0100
1001
0000
,
0010
1000
0000
1010
0000
1010
0000
0000
,
0001
0100
0000
0101
0000
0101
0000
0000
,
1000
0001
0000
1001
0000
1001
0000
0000
,
0010
1000
0010
0000
1000
0010
1000
0000
,
0001
1000
0001
0000
1000
0001
1000
0000
,
0001
1000
0001
0000
1000
0010
1000
0010
,
1000
0010
0000
0100
0001
0000
1000
0001
,
0000
1000
0001
0000
0000
0000
0000
0000
,
2002
0000
0000
0000
,
0000
0000
0000
0000
,
0000
0000
0000
0000
,
0000
0000
0000
0000
,
0000
0000
0000
0000
,
0000
0000
0000
0000
,
3003
0000
0000
0000
;

//---------------dance-single - ----------------
#NOTES:
     dance-single:
     :
     Easy:
     11:
     0.461838,0.521868,0.081330,0.284655,0.000000,477.000000,465.000000,12.000000,42.000000,0.000000,0.000000,0.461838,0.521868,0.081330,0.284655,0.000000,477.000000,465.000000,12.000000,42.000000,0.000000,0.000000:
// measure 0
0000
0000
0000
0000
,  // measure 1
0000
0000
0000
0000
,  // measure 2
0000
0000
0000
0000
,  // measure 3
0000
0000
0000
0000
,  // measure 4
0000
0000
0000
0000
,  // measure 5
0000
0000
0000
0000
,  // measure 6
0000
0000
0000
0000
,  // measure 7
0001
0010
0100
1000
,  // measure 8
1000
0100
0010
0001
,  // measure 9
1000
0001
1000
0001
,  // measure 10
1000
0100
0010
0001
,  // measure 11
1000
0001
1000
0001
,  // measure 12
0100
0100
0020
0030
,  // measure 13
0001
1000
0001
1000
,  // measure 14
0001
0010
0100
1000
,  // measure 15
0010
0000
0000
0100
0000
0000
2002
0000
,  // measure 16
0000
3003
0000
0010
,  // measure 17
1000
0100
1000
0100
,  // measure 18
1000
0100
0010
0001
,  // measure 19
0010
0001
0010
0001
,  // measure 20
0010
0100
1000
0001
,  // measure 21
1000
0100
0010
0100
,  // measure 22
1000
0010
0100
0001
,  // measure 23
0010
0100
0010
0100
,  // measure 24
0002
0000
1003
0000
,  // measure 25
0001
0010
0100
1000
,  // measure 26
0001
1000
0001
1000
,  // measure 27
0100
0010
0001
0010
,  // measure 28
0100
1000
0001
0100
,  // measure 29
0010
0010
1000
0100
,  // measure 30
0010
0010
0001
0100
,  // measure 31
0010
0100
0010
0100
,  // measure 32
0001
1000
1001
0000
,  // measure 33
2000
3000
0002
0003
,  // measure 34
0200
0300
0002
2003
,  // measure 35
3002
0003
0020
0030
,  // measure 36
2000
3000
0002
0003
,  // measure 37
2000
0000
3002
0000
,  // measure 38
1003
0010
1000
0000
,  // measure 39
0001
0001
0000
1000
,  // measure 40
2000
0000
3001
0000
,  // measure 41
1000
0100
0010
0001
,  // measure 42
0100
0100
0100
0100
,  // measure 43
0001
0010
0100
1000
,  // measure 44
0010
0010
0010
0010
,  // measure 45
1000
0000
0001
0000
,  // measure 46
1000
0100
0010
0001
,  // measure 47
0100
0010
0100
0010
,  // measure 48
1001
0000
0110
0000
,  // measure 49
2002
0000
0000
3003
,  // measure 50
1000
0000
0001
0010
,  // measure 51
0100
1000
0000
0001
,  // measure 52
1000
0001
1000
1000
,  // measure 53
0010
0100
0010
0100
,  // measure 54
0001
0000
1000
0100
,  // measure 55
0010
0001
0000
1000
,  // measure 56
0001
0001
1000
1000
,  // measure 57
0001
0010
0100
1000
,  // measure 58
0010
0010
0100
0100
,  // measure 59
0001
0001
1000
1000
,  // measure 60
0001
1000
0001
1000
,  // measure 61
0010
0100
0010
0100
,  // measure 62
0001
0001
0010
0010
,  // measure 63
0100
0100
1000
1000
,  // measure 64
0001
0010
0100
1000
,  // measure 65
1000
0100
0010
0001
,  // measure 66
1000
0000
0010
0000
,  // measure 67
0100
0000
0001
0000
,  // measure 68
1000
0000
0100
0000
,  // measure 69
0010
0010
0010
0000
,  // measure 70
0001
0000
0100
0000
,  // measure 71
0010
0010
0010
0000
,  // measure 72
1000
0001
1000
0000
,  // measure 73
0001
1000
0001
0000
,  // measure 74
2000
0000
3100
0000
,  // measure 75
0010
0001
0100
0000
,  // measure 76
0002
0000
0103
0000
,  // measure 77
0010
0000
1000
0000
,  // measure 78
2002
0000
0000
0000
,  // measure 79
0000
0000
0000
3003
,  // measure 80
0020
0000
0000
0000
,  // measure 81
0200
0000
0000
0330
,  // measure 82
0001
0100
0001
0100
,  // measure 83
0010
1000
0100
0010
,  // measure 84
0001
0001
1000
1000
,  // measure 85
0001
0010
0100
1000
,  // measure 86
0001
1000
0001
1000
,  // measure 87
0010
0100
0010
0000
,  // measure 88
2000
0000
0000
0000
,  // measure 89
3002
0000
0203
0000
,  // measure 90
0320
0000
0000
0030
,  // measure 91
1000
0100
1000
0100
,  // measure 92
0010
0001
0010
0001
,  // measure 93
1000
0100
0010
0001
,  // measure 94
1000
0010
0100
0010
,  // measure 95
1000
0100
0010
0001
,  // measure 96
0100
0001
0100
0010
,  // measure 97
0001
0010
0100
1000
,  // measure 98
0010
1000
0010
0001
,  // measure 99
0010
1000
0100
0010
,  // measure 100
0001
0100
0001
0100
,  // measure 101
1000
0100
0001
0100
,  // measure 102
0010
0010
1000
0100
,  // measure 103
0010
0010
0001
0100
,  // measure 104
0020
0000
0230
0000
,  // measure 105
0301
0000
1001
0000
,  // measure 106
0200
0000
0320
0000
,  // measure 107
1030
0000
1001
0000
,  // measure 108
0020
0000
0030
1000
,  // measure 109
0100
0010
0000
0001
,  // measure 110
0001
1000
0010
0100
,  // measure 111
0010
0010
1000
0100
,  // measure 112
0020
0000
0031
0100
,  // measure 113
0001
0100
0000
0010
,  // measure 114
1000
0100
1000
0010
,  // measure 115
0100
0100
0001
0001
,  // measure 116
1000
1000
0010
0010
,  // measure 117
1000
1000
0100
0100
,  // measure 118
0010
0010
0001
0001
,  // measure 119
1000
0100
0010
0001
,  // measure 120
0100
0100
0010
0010
,  // measure 121
0001
0010
0100
1000
,  // measure 122
0001
0100
0010
1000
,  // measure 123
1000
0010
0100
0001
,  // measure 124
2000
0000
3001
0100
,  // measure 125
0001
1000
0001
1000
,  // measure 126
0020
0000
0130
0001
,  // measure 127
1000
0100
0010
0001
,  // measure 128
0100
0010
0100
0220
,  // measure 129
0330
0010
1000
0100
,  // measure 130
0010
0001
0100
0100
,  // measure 131
0001
0010
0100
1000
,  // measure 132
0010
0010
1000
0001
,  // measure 133
2000
0000
3001
0000
,  // measure 134
0100
0100
0010
1000
,  // measure 135
0002
0000
1003
0000
,  // measure 136
0001
0010
0001
1000
,  // measure 137
0100
0010
0001
0000
,  // measure 138
1000
0100
1000
0100
,  // measure 139
0010
0001
1001
0000
,  // measure 140
0001
0100
1000
0100
,  // measure 141
0001
0100
1000
0100
,  // measure 142
0001
0010
1000
0010
,  // measure 143
0001
0100
1001
0000
,  // measure 144
0010
0010
1000
1000
,  // measure 145
0100
0100
0001
0001
,  // measure 146
1000
0000
0000
0001
0000
0000
1000
0000
,  // measure 147
0000
0001
0000
0000
0000
0000
0000
0000
,  // measure 148
2002
0000
0000
0000
,  // measure 149
0000
0000
0000
0000
,  // measure 150
0000
0000
0000
0000
,  // measure 151
0000
0000
0000
0000
,  // measure 152
0000
0000
0000
0000
,  // measure 153
0000
0000
0000
0000
,  // measure 154
3003
0000
0000
0000
;
