#TITLE:End of Mythology;
#SUBTITLE:;
#ARTIST:Alice Schach and the Magic Orchestra;
#TITLETRANSLIT:;
#SUBTITLETRANSLIT:;
#ARTISTTRANSLIT:;
#GENRE:;
#CREDIT:;
#BANNER:End of Mythology.png;
#BACKGROUND:End of Mythology-bg.png;
#LYRICSPATH:;
#CDTITLE:;
#MUSIC:End of Mythology.ogg;
#OFFSET:-0.014000;
#SAMPLESTART:80.989609;
#SAMPLELENGTH:11.707321;
#SELECTABLE:YES;
#BPMS:0.000000=123.000000
;
#STOPS:
;
#BGCHANGES:0.000=End of Mythology.avi=1.000=0=0=0=StretchNoLoop====,
99999=-nosongbg-=1.000=0=0=0 // don't automatically add -songbackground-
;
#KEYSOUNDS:;
#ATTACKS:;

//---------------dance-single - ----------------
#NOTES:
     dance-single:
     :
     Hard:
     13:
     0.491228,0.626828,0.073474,0.455541,0.804544,468.000000,458.000000,10.000000,62.000000,0.000000,0.000000,0.491228,0.626828,0.073474,0.455541,0.804544,468.000000,458.000000,10.000000,62.000000,0.000000,0.000000:
0000
0000
0000
0000
,
0000
0000
0000
0000
,
0000
0000
0000
0000
,
0000
0000
0000
0000
,
0000
0000
0000
0000
,
0002
0000
0000
1003
0010
0100
0002
0000
0000
2003
0000
0000
,
3020
0000
0000
1030
0010
0100
0002
0000
0000
2003
0000
0000
,
3200
0000
0000
1300
0010
0100
0002
0000
0000
2003
0000
0000
,
3020
0000
0000
0130
0001
1000
0020
0000
0000
0000
0000
0000
,
0200
0330
0002
0103
,
2000
0000
0000
3100
0000
0000
0002
0000
0000
0103
0000
0100
,
0001
1000
0002
0013
,
1000
0000
1000
0010
0000
0010
0200
0000
0000
0301
0010
0001
,
0200
0310
2000
3002
,
0203
0000
0000
0301
0000
0001
0100
0000
0000
1000
0000
1000
,
0001
0000
0000
1001
0000
0000
1000
0010
1000
0010
0100
0001
,
0100
0001
1000
0001
1000
0001
0200
0000
0000
0000
0301
1000
,
0002
0000
0000
0003
0000
0000
1000
0010
1000
0010
1000
0010
,
0100
0000
0000
0001
0000
0000
0100
0001
0100
0001
0100
0001
,
1000
0000
0000
0010
0000
0000
1000
0001
1000
0001
0000
0001
,
0100
0000
0100
0010
0000
0010
1000
0010
1000
0010
0000
0010
,
0100
0010
0100
0010
0100
0010
1000
0010
1000
0010
0000
0010
,
0100
0010
0100
0010
0000
0010
1000
0010
1000
0001
0000
0001
,
1000
0000
1000
0010
0000
0010
0100
0000
0000
0100
0001
0100
,
0001
0000
0000
1000
0000
1000
0002
0000
0000
0000
0000
0000
,
0200
0303
2002
3003
,
0100
0010
0100
0010
0000
0000
1000
0001
1000
0001
0000
0000
,
0100
0010
0100
0010
0000
0000
1000
0001
1000
0001
1000
0001
,
0100
0010
0100
0010
0100
0010
1000
0001
1000
0100
1000
0010
,
0100
0001
0100
0010
0100
0001
2000
0000
0000
3010
0100
0001
,
2000
0000
0000
3002
0000
0000
0023
0000
0000
0031
0100
0001
,
1000
0010
1000
0002
0000
0000
0203
0000
0000
0310
1000
0010
,
0200
0000
0000
0302
0000
0000
2003
0000
0000
3001
0010
0100
,
1000
0100
0010
0002
0000
0000
1003
0100
1000
0001
0100
0001
,
2000
0000
0000
3020
0000
0000
0130
0001
0100
0010
1000
0010
,
0100
0010
0100
0020
0000
0000
1030
0010
1000
0001
1000
0001
,
0100
0010
0100
0020
0000
0000
1030
0100
0010
0001
0010
0100
,
1000
0100
0010
0002
0000
0000
0103
0000
0000
0000
0000
0000
,
1000
0000
0010
0000
,
0001
0000
0000
0000
0000
0000
1000
0100
1000
0100
0010
0001
,
1000
0010
1000
0010
0100
0001
1000
0001
1000
0010
0100
0001
,
1000
0001
1000
0100
0010
0001
1000
0000
1000
0001
0000
0001
,
0100
0000
0100
0010
0000
0010
1000
0000
0000
1001
0000
2002
,
0000
3003
0000
1001
0000
0000
0001
0010
0001
0100
0010
1000
,
0020
0000
0000
0130
0000
0000
1000
0010
1000
0010
0100
0001
,
0020
0000
0000
0031
0000
0000
0101
0000
0001
0100
0000
0100
,
1000
0000
1000
0100
0000
0100
0001
0000
0001
1000
0000
2002
,
0000
3003
0000
1001
0000
0000
0001
0100
0001
0100
1000
0100
,
0001
0000
0001
1000
0000
1000
0010
0000
0010
0100
0000
0100
,
0001
0000
0001
0100
0000
0100
0020
0000
0000
0000
0000
0000
,
0200
0000
0000
0330
0000
0000
0001
0000
0100
0100
0001
1000
,
0020
0000
0000
0230
0000
0000
0301
0000
1000
1000
0010
0100
,
0002
0000
0000
2003
0000
0000
3010
0000
0000
1000
0010
0100
,
0001
0000
0000
1000
0000
0000
1000
0000
0000
0001
0100
0010
,
1000
0000
0000
0001
0000
0000
0001
0000
0000
0100
0010
1000
,
0001
0000
0000
0100
0000
0000
0100
0000
0000
0001
0010
0100
,
1000
0000
0000
0001
0000
0000
1000
0000
0000
0010
0100
0001
,
1000
0000
0000
0010
0000
0000
0010
0000
0000
0100
0010
1000
,
0001
0000
0000
0100
0000
0000
0100
0000
0000
0001
0100
1000
,
0100
0000
0000
0001
0000
0000
0010
0000
0000
1000
0100
0001
,
0100
0000
0000
1000
0000
0000
0011
0000
0001
0100
0010
0100
,
0001
0000
0001
1000
0000
1000
0010
0000
0010
1000
0100
1000
,
0010
1000
0001
0100
0000
0100
0001
0000
0001
1000
0010
1000
,
0001
0000
0001
0100
0000
0100
0010
0000
0010
1000
0010
0100
,
0001
0100
0010
1000
0000
0000
0101
0000
1000
0100
0010
0001
,
2000
0000
0000
3002
0000
0000
2003
0000
3001
0010
0100
1000
,
0100
0010
0001
2000
0000
0000
3020
0000
0130
0001
0100
0010
,
0200
0000
0000
0302
0000
0000
2003
0000
3010
0100
0001
0010
,
0100
1000
0010
0100
0000
0000
0000
0000
0000
0000
0000
0000
;

//---------------dance-single - 328 combo (49 shock arrows)----------------
#NOTES:
     dance-single:
     :
     Challenge:
     11:
     0.292848,0.426243,0.000000,0.051432,0.315940,279.000000,279.000000,0.000000,7.000000,196.000000,0.000000,0.292848,0.426243,0.000000,0.051432,0.315940,279.000000,279.000000,0.000000,7.000000,196.000000,0.000000:
0000
0000
0000
0000
,
0000
0000
0000
0000
,
0000
0000
0000
0000
,
0000
0000
0000
0000
,
0000
0000
0000
0000
,
0001
0000
0000
0001
1000
0001
1000
0000
0000
MMMM
0000
0000
,
1000
0000
0000
1000
0001
1000
0001
0000
0000
MMMM
0000
0000
,
0010
0000
0000
0010
0100
0010
0100
0000
0000
MMMM
0000
0000
,
1000
0000
0000
1000
0001
1000
0002
0000
0000
0000
0000
0000
,
2000
3003
0010
0001
,
0100
0000
0000
1000
0000
0000
0010
0000
0000
0010
0000
0010
,
0100
0000
0000
MMMM
0000
0000
0001
0000
0000
1000
0000
1000
,
0001
0000
0000
0001
0000
0001
1000
0000
0000
MMMM
0000
0000
,
MMMM
0000
0010
0100
,
0001
0000
0000
0001
0000
0001
1000
0000
0000
1000
0000
1000
,
0001
0000
0000
0100
0000
0000
0010
0000
0000
1000
0000
1000
,
0001
0000
0000
MMMM
0000
0000
0010
0000
0000
0001
1000
0001
,
1000
MMMM
0010
0100
,
0001
MMMM
0010
1000
,
0100
MMMM
0010
0001
,
1000
MMMM
0001
MMMM
,
1000
MMMM
1000
0010
,
0100
0000
0000
0001
0000
0001
1000
0000
0000
1000
0000
1000
,
0010
0100
0002
0000
,
0003
MMMM
2000
0000
,
3000
MMMM
0002
0000
,
0003
0000
0000
0000
0000
0000
0001
1000
0001
1000
0000
0000
,
0001
1000
0001
1000
0000
0000
0001
0100
0001
0100
0000
0000
,
0001
0100
0001
0100
0000
0000
0001
1000
0001
1000
0000
0000
,
0010
0100
0010
0100
0000
0000
0001
0000
0000
0001
1000
0001
,
1000
0000
0000
MMMM
0000
0000
1000
0000
0000
1000
0001
1000
,
0001
0000
0000
MMMM
0000
0000
0010
0000
0000
0010
0100
0010
,
0100
0000
0000
MMMM
0000
0000
0001
0000
0000
1000
0001
1000
,
0001
0000
0000
MMMM
0000
0000
0100
0000
0000
0001
0000
0001
,
0100
0000
0000
MMMM
0000
0000
1000
0000
0000
0100
0000
0100
,
1000
0000
0000
MMMM
0000
0000
0010
0000
0000
0100
0000
0100
,
0010
0000
0000
MMMM
0000
0000
0001
0000
0000
1000
0000
1000
,
0001
MMMM
0010
MMMM
,
0001
MMMM
0100
MMMM
,
1000
0000
0000
MMMM
0000
0000
0010
0100
0010
0100
0000
0000
,
0001
1000
0001
1000
0000
0000
0010
0100
0010
0100
0000
0000
,
0001
1000
0001
1000
0000
0000
0001
0000
0000
0100
0000
0000
,
1000
0000
0000
0010
0000
0000
0001
0000
0000
0001
0000
0001
,
1000
0000
0000
MMMM
0000
0000
0010
0000
0010
1000
0000
1000
,
0001
0000
0000
MMMM
0000
0000
0010
0000
0010
0001
0000
0001
,
1000
MMMM
0010
0001
,
0100
0000
0000
0001
0000
0000
1000
0000
0000
0001
0000
0001
,
1000
0000
0000
MMMM
0000
0000
0001
0000
0000
1000
0001
1000
,
0001
0000
0000
MMMM
0000
0000
1000
0000
0000
0001
1000
0001
,
1000
MMMM
0020
0000
,
0200
0000
0000
0330
0000
0000
0001
0000
0000
0001
1000
0001
,
1000
0000
0000
MMMM
0000
0000
1000
0000
0000
1000
0001
1000
,
0001
0000
0000
MMMM
0000
0000
0010
0000
0000
0001
1000
0001
,
1000
0000
0000
MMMM
0000
0000
0010
0000
0000
1000
0001
1000
,
0001
0000
0000
MMMM
0000
0000
0001
0000
0000
1000
0010
0100
,
0001
0000
0000
MMMM
0000
0000
1000
0000
0000
0001
0100
0010
,
1000
0000
0000
MMMM
0000
0000
0010
0000
0000
0100
0000
0100
,
0010
0000
0000
MMMM
0000
0000
0100
0000
0000
0010
0000
0010
,
0100
0000
0000
MMMM
0000
0000
1000
0000
0000
0001
0000
1000
,
0001
0000
0000
MMMM
0000
0000
0001
0000
0000
1000
0000
0001
,
1000
0000
0000
MMMM
0000
0000
0010
0000
0010
0100
0000
0100
,
0001
0000
0000
MMMM
0000
0000
0100
0000
0100
0010
0000
0010
,
1000
0000
0000
MMMM
0000
0000
1000
0000
0001
1000
0000
0001
,
1000
0000
0000
MMMM
0000
0000
0001
0000
1000
0001
0000
1000
,
0001
MMMM
0010
0001
,
0100
MMMM
0010
1000
,
0100
MMMM
0001
0100
,
1000
0010
0010
0001
,
1000
0001
1000
0001
0000
0000
0000
0000
0000
0000
0000
0000
;

//---------------dance-double - ----------------
#NOTES:
     dance-double:
     :
     Challenge:
     10:
     0.277103,0.426243,0.110211,0.058779,0.154296,264.000000,249.000000,15.000000,8.000000,256.000000,0.000000,0.277103,0.426243,0.110211,0.058779,0.154296,264.000000,249.000000,15.000000,8.000000,256.000000,0.000000:
00000000
00000000
00000000
00000000
,
00000000
00000000
00000000
00000000
,
00000000
00000000
00000000
00000000
,
00000000
00000000
00000000
00000000
,
00000000
00000000
00000000
00000000
,
00100000
00000000
00000000
00010000
10000000
00010000
10000000
00000000
00000000
MMMMMMMM
00000000
00000000
,
00100000
00000000
00000000
00001000
00010000
00001000
00010000
00000000
00000000
MMMMMMMM
00000000
00000000
,
00010000
00000000
00000000
00000100
00010000
00000100
00010000
00000000
00000000
MMMMMMMM
00000000
00000000
,
00001000
00000000
00000000
00000001
00001000
00000001
00001000
00000000
00000000
00000000
00000000
00000000
,
00000001
00000000
00001000
00000010
,
00010000
00001000
01000000
00010000
,
10000000
MMMMMMMM
10000000
00010000
,
00100000
00001000
00010000
00000010
,
00001000
MMMMMMMM
00001000
00000100
,
00010000
00001000
01000000
00100000
,
10000000
MMMMMMMM
20000000
00100000
,
31000000
MMMMMMMM
00020000
00100000
,
01030000
00000000
00000000
MMMMMMMM
00000000
00000000
10000000
00010000
10000000
00010000
00000000
00000000
,
01000000
00001000
00010000
00000100
,
00001000
00000000
00000000
MMMMMMMM
00000000
00000000
00001000
00000001
00001000
00000001
00000000
00000000
,
00000100
00010000
00001000
01000000
,
00010000
MMMMMMMM
10000000
00100000
,
01000000
00010000
00100000
00001000
,
00010000
00000010
00000200
00000001
,
00000310
MMMMMMMM
00002000
00000001
,
00003100
MMMMMMMM
00002002
00000000
,
00000000
00003003
00000000
00000000
,
00000000
00000000
00000000
00000000
00000000
00000000
00000100
00001000
00000100
00001000
00000000
00000000
,
00000100
00010000
00000100
00010000
00000000
00000000
00001000
00010000
00001000
00010000
00000000
00000000
,
00001000
00100000
00001000
00100000
00000000
00000000
00010000
00000000
00000000
01000000
00000000
00000000
,
10000000
MMMMMMMM
10000000
00100000
,
00010000
MMMMMMMM
00100000
00001000
,
00010000
MMMMMMMM
00000010
00001000
,
00000001
MMMMMMMM
00001000
00000100
,
00000010
MMMMMMMM
00000001
00000100
,
00001000
MMMMMMMM
00001000
00010000
,
00000100
MMMMMMMM
01000000
00001000
,
00010000
00100000
00010000
MMMMMMMM
,
00011000
MMMMMMMM
00001000
MMMMMMMM
,
00011000
MMMMMMMM
00010000
00001000
,
00000010
00001000
00000001
00001000
,
00000010
00010000
00001000
00100000
,
00010000
00000000
00000000
01000000
00000000
00000000
10000000
00000000
00000000
00010000
00000000
00010000
,
10000000
00000000
00000000
MMMMMMMM
00000000
00000000
10000000
00000000
10000000
00100000
00000000
00100000
,
01000000
00000000
00000000
00010000
00000000
00000000
00100000
00000000
00100000
00001000
00000000
00001000
,
00010000
MMMMMMMM
00010000
00000010
,
00001000
00000000
00000000
00000001
00000000
00000000
00001000
00000000
00000000
00000100
00000000
00000100
,
00001000
00000000
00000000
MMMMMMMM
00000000
00000000
00000001
00000000
00000001
00000100
00000000
00000100
,
00000010
00000000
00000000
00001000
00000000
00000000
00000100
00000000
00000100
00010000
00000000
00010000
,
00001000
01000000
00020000
00000000
,
20000000
30030000
00100000
10000000
,
00010000
MMMMMMMM
00100000
00010000
,
10000000
MMMMMMMM
00100000
00000000
,
00001000
00010000
00000100
00000000
,
00001000
00000001
00000100
00000000
,
00000010
00010000
00001000
00000000
,
00001000
00000000
00000000
00100000
00000000
00000000
00010000
00000000
00000000
00010000
01000000
00010000
,
01000000
00000000
00000000
00100000
00000000
00000000
10000000
00000000
00000000
00010000
10000000
00010000
,
10000000
00000000
00000000
00100000
00000000
00000000
01000000
00000000
00000000
00010000
00100000
00010000
,
00100000
00000000
00000000
00001000
00000000
00000000
00010000
00000000
00000000
00000100
00001000
00000100
,
00001000
00000010
00001001
00001100
,
00001001
MMMMMMMM
00000101
00001100
,
00001010
MMMMMMMM
00010010
00011000
,
01001000
MMMMMMMM
10010000
01010000
,
01001000
MMMMMMMM
00100000
00001000
,
00010000
00000010
00001000
00000001
,
00001000
00000100
00010000
00001000
,
01000000
00000000
00000000
00010000
00000000
00000000
10000000
00000000
00000000
00100000
10000000
00100000
,
10000000
00100000
10000000
00100000
00000000
00000000
00000000
00000000
00000000
00000000
00000000
00000000
;

//---------------dance-double - ----------------
#NOTES:
     dance-double:
     :
     Hard:
     13:
     0.470236,0.626828,0.051432,0.249813,0.727396,448.000000,441.000000,7.000000,34.000000,0.000000,0.000000,0.470236,0.626828,0.051432,0.249813,0.727396,448.000000,441.000000,7.000000,34.000000,0.000000,0.000000:
00000000
00000000
00000000
00000000
,
00000000
00000000
00000000
00000000
,
00000000
00000000
00000000
00000000
,
00000000
00000000
00000000
00000000
,
00000000
00000000
00000000
00000000
,
00100000
00000000
00000000
10000000
00100000
01000000
00010000
00000000
00000000
00100000
00000000
00000000
,
00001000
00000000
00000000
00010000
00000100
00001000
00000010
00000000
00000000
00001000
00000000
00000000
,
00000001
00000000
00000000
00000100
00000010
00001000
00000001
00000000
00000000
00001000
00000000
00000000
,
00000100
00000000
00000000
00010000
00000100
00010000
00002000
00000000
00000000
00000000
00000000
00000000
,
00020000
00033000
00200000
00310000
,
20000000
00000000
00000000
31000000
00000000
00000000
00200000
00000000
00000000
00301000
00000000
00001000
,
00020000
00030010
00002000
00003001
,
00000002
00000000
00000000
00000103
00000000
00000000
00000020
00000000
00000000
00001030
00000010
00001000
,
00000020
00020030
00032000
02003000
,
03020000
00000000
00000000
10030000
00000000
10000000
00020000
00000000
00000000
00130000
00000000
00100000
,
00020000
00000000
00000000
00230000
00000000
00000000
00301000
00000000
00000000
00010000
00001000
00010000
,
00000100
00010000
00000100
00001000
00000100
00001000
00000010
00000000
00000000
00000001
00000100
00000001
,
00001000
00000000
00000000
00000010
00000000
00000000
00001000
00000100
00001000
00000100
00000000
00000000
,
00000010
00000001
00000010
00000001
00000000
00000000
00001000
00000000
00000000
00000100
00000000
00000000
,
00010000
00000000
00000000
00001000
00000000
00000000
01000000
00000000
01000000
00010000
00000000
00010000
,
10000000
00000000
10000000
00010000
00000000
00010000
00100000
00010000
00100000
00010000
00000000
10000000
,
01000000
10000000
01000000
10000000
00000000
00010000
01000000
00000000
01000000
00010000
00000000
00010000
,
00100000
00000000
00100000
00001000
00000000
00001000
00010000
00000000
00010000
00000010
00000000
00000010
,
00000100
00000001
00000100
00000010
00001000
00000010
00000100
00000000
00000000
00000010
00001000
00000010
,
00001000
00000010
00001000
00000100
00000000
00000000
00010000
00000000
00000000
00001000
00100000
00001000
,
00100000
00001000
00100000
00010000
00000000
00000000
02000000
00000000
00000000
03000000
00000000
00000000
,
00010000
10000000
00010000
10000000
00000000
00000000
10000000
00010000
10000000
00010000
00000000
00010000
,
10000000
00100000
01000000
00100000
00000000
00000000
10000000
00100000
10000000
00100000
10000000
00100000
,
01000000
00010000
01000000
00010000
01000000
00010000
00100000
00001000
00100000
00001000
00100000
00001000
,
00010000
00001000
00010000
00001000
00000000
00000000
00010000
00000000
00010000
00000100
00001000
00000100
,
00010000
00000000
00000000
00000100
00000000
00000000
00001000
00000000
00000001
00001000
00000100
00001000
,
00000001
00000010
00000100
00001000
00000000
00000000
00000100
00000000
00000100
00010000
00001000
00010000
,
00001000
00000000
00000000
00100000
00000000
00000000
00010000
00000000
00010000
01000000
00100000
10000000
,
00100000
01000000
00010000
00100000
00000000
00000000
00200000
00000000
00000000
00301000
00010000
00001000
,
00020000
00000000
00000000
00030200
00000000
00000000
00002300
00000000
00000000
00003010
00000100
00000001
,
00000100
00000010
00000100
00000002
00000000
00000000
00002003
00000000
00000000
00003100
00010000
00000100
,
00002000
00000000
00000000
00003200
00000000
00000000
00020300
00000000
00000000
00031000
00100000
00010000
,
00100000
00001000
00100000
00010000
00000000
00000000
01000000
00000000
00000000
00000000
00000000
00000000
,
10000000
00000000
00100000
00000000
,
00010000
00000000
00000000
00000000
00000000
00000000
00100000
00010000
00100000
00010000
00100000
00010000
,
10000000
01000000
10000000
01000000
10000000
01000000
00100000
00010000
00100000
00001000
00100000
00010000
,
00100000
00001000
00010000
00001000
00100000
00001000
00010000
00000000
00010000
00000100
00000000
00000100
,
00001000
00000000
00001000
00000001
00000000
00000001
00001000
00000000
00001000
00000010
00000000
00002020
,
00000000
00003030
00000000
00001010
00000000
00000000
00000010
00000000
00000010
00001000
00000000
00001000
,
00000100
00000000
00000100
00010000
00000000
00000000
00010000
00000000
00010000
00001000
00000000
00001000
,
01000000
00000000
00000000
01010000
00000000
00000000
00010000
00000000
00010000
00100000
00000000
00100000
,
01000000
00000000
01000000
10000000
00000000
10000000
00100000
00000000
00000000
10010000
00000000
20020000
,
00000000
30030000
00000000
10010000
00000000
00000000
10000000
00000000
10000000
00100000
01000000
00010000
,
01000000
00000000
00000000
00010000
00000000
00100000
00001000
00000000
00000000
00010000
00000000
00000100
,
00001000
00000010
00002002
00003000
,
00000200
00000000
00000000
00000303
00000000
00000000
00000001
00000000
00000001
00000100
00000000
00000100
,
00000010
00000000
00000000
00001000
00000000
00000000
00000100
00000000
00000100
00010000
00001000
00010000
,
00000100
00000000
00000000
00010000
00000000
00000000
00001000
00000000
00000000
00001000
00100000
00010000
,
00100000
00000000
00000000
00001000
00000000
00000000
00100000
00000000
00000000
00010000
01000000
00100000
,
01000000
00000000
00000000
00010000
00000000
00000000
10000000
00000000
00000000
00100000
10000000
01000000
,
10000000
00000000
00000000
00100000
00000000
00000000
01000000
00000000
00000000
00010000
00100000
00010000
,
00100000
00000000
00000000
00001000
00000000
00000000
00010000
00000000
00000000
00000100
00001000
00000010
,
00001000
00000000
00000000
00000001
00000000
00000000
00001000
00000000
00000000
00000100
00010000
00001000
,
00010000
00000000
00000000
00001000
00000000
00000000
00100000
00000000
00000000
00010000
01000000
00100000
,
10000000
00000000
00000000
00100000
00000000
00000000
01000000
00000000
00000000
00010000
00100000
00001000
,
00010000
00000000
00000000
00000100
00000000
00000000
00001000
00000100
00001000
00000001
00000100
00000001
,
00001000
00000000
00001000
00000100
00000000
00000100
00010000
00001000
00010000
00000100
00010000
00001000
,
00010000
00000000
00010000
00001000
00000000
00001000
00100000
00010000
00100000
00001000
00100000
00010000
,
00100000
00000000
00100000
00010000
00000000
00010000
01000000
00000000
01000000
00100000
10000000
01000000
,
00100000
00010000
01000000
00100000
00000000
00000000
10000000
00000000
10000000
01000000
00100000
00010000
,
10000000
00000000
00000000
00010000
00000000
00000000
00100000
00000000
00100000
00001000
00000000
00001000
,
00010000
00000000
00010000
00000100
00000000
00000000
00001000
00000000
00000100
00001000
00000100
00000010
,
00000001
00000000
00000001
00001000
00000000
00001000
00000010
00000000
00000010
00001000
00000000
00001000
,
00000100
00010000
00000100
00001000
00000000
00000000
00000000
00000000
00000000
00000000
00000000
00000000
;

//---------------dance-double - ----------------
#NOTES:
     dance-double:
     :
     Medium:
     9:
     0.313840,0.376097,0.110211,0.058779,0.191033,299.000000,284.000000,15.000000,8.000000,0.000000,0.000000,0.313840,0.376097,0.110211,0.058779,0.191033,299.000000,284.000000,15.000000,8.000000,0.000000,0.000000:
00000000
00000000
00000000
00000000
,
00000000
00000000
00000000
00000000
,
00000000
00000000
00000000
00000000
,
00000000
00000000
00000000
00000000
,
00000000
00000000
00000000
00000000
,
10000000
00010000
00100000
00001000
,
00010000
00000010
00001000
00000100
,
00000001
00001000
00000100
00010000
,
00001000
01000000
00020000
00000000
,
20000000
30030000
00100000
10000000
,
00100000
00000000
00000000
01000000
00000000
00000000
00010000
00000000
00000000
00010000
00000000
00010000
,
01000000
00010000
10000000
00010000
,
00100000
00000000
00000000
00001000
00000000
00000000
00010000
00000000
00000000
00001000
00000000
00001000
,
00010000
00000100
00001000
00000010
,
00000100
00000000
00000000
00000001
00000000
00000001
00001000
00000000
00000000
00001000
00000000
00001000
,
00000001
00000100
00000010
00001000
,
00000100
00010000
00001000
00000000
,
00100000
00000000
00010000
00110000
,
10000000
00000000
00000000
11000000
00000000
00000000
00100000
00000000
00100000
00001000
00000000
00001000
,
00010000
00011000
00001000
00101000
,
00010000
00010100
00001000
00001010
,
00000101
00000000
00000000
00001010
00000000
00000000
00000100
00000000
00000100
00001000
00000000
00000000
,
00000100
00000000
00000100
00010000
00000000
00000000
00001000
00000000
00001000
00100000
00000000
00100000
,
00010000
00000000
00000000
01000000
00000000
00000000
00100000
00000000
00000000
10000000
00000000
10000000
,
00010000
00000000
00000000
00100000
00000000
00000000
00001000
00000000
00000000
00010000
00000000
00010000
,
00000100
00002000
00000002
00000000
,
00000000
00003003
00000000
00000000
,
00000000
00000000
00000000
00000000
00000000
00000000
00000001
00000000
00000001
00001000
00000000
00000000
,
00001000
00000000
00001000
00000100
00000000
00000000
00000100
00000000
00000100
00010000
00000000
00010000
,
00001000
00000000
00001000
01000000
00000000
00000000
00010000
00000000
00000000
00100000
00000000
00010000
,
00100000
00000000
00000000
00010000
00000000
00000000
10000000
00000000
00000000
01000000
00000000
10000000
,
01000000
00000000
00000000
00100000
00000000
00000000
00001000
00000000
00000000
00010000
00000000
00001000
,
00010000
00000000
00000000
00000100
00000000
00000000
00001000
00000000
00000000
00000001
00000000
00000001
,
00001000
00000000
00001000
00000001
00000000
00000000
00001000
00000000
00000000
00000100
00000000
00000100
,
00001000
00000000
00000000
00000010
00000000
00000000
00010000
00000000
00000000
00001000
00000000
00001000
,
00010000
00000000
00000000
00001000
00000000
00000000
01000000
00000000
00000000
00010000
00000000
00010000
,
00100000
00000000
00000000
00010000
00000000
00000000
10000000
00000000
00000000
00100000
00000000
00100000
,
01000000
00000000
01000000
00010000
00000000
00000000
00100000
00000000
00000000
00000000
00000000
00000000
,
00001000
00000000
00000100
00000000
,
00000001
00000000
00000000
00000000
00000000
00000000
00000010
00000000
00000010
00001000
00000000
00000000
,
00000010
00000000
00000010
00001000
00000000
00000000
00000001
00000000
00000001
00001000
00000000
00000000
,
00000001
00001001
00001000
00000100
,
00010000
00001000
00100000
00110000
,
11000000
00000000
00000000
00000000
00000000
00000000
00100000
00000000
00100000
10000000
00000000
10000000
,
00010000
00000000
00000000
00000000
00000000
00000000
00100000
00000000
00100000
00010000
00000000
00010000
,
10000000
00000000
00010000
00110000
,
00001000
00011000
00010000
00010010
,
00001000
00000000
00000000
00001001
00000000
00000000
00000100
00000000
00000100
00001000
00000000
00001000
,
00000010
00001000
00000100
00010000
,
00001000
01000000
00020000
00000000
,
20000000
30030000
00100000
10000000
,
00020000
00030000
00100000
00001000
,
00020000
00030000
00000100
00001000
,
00000010
00000001
00000100
00001000
,
00000100
00010000
00001000
01000000
,
00010000
00100000
00010000
01000000
,
10000000
01000000
00010000
00100000
,
00001000
00010000
00000010
00001000
,
00000100
00000001
00000100
00001000
,
00000100
00010000
00001000
00100000
,
00010000
00000000
00000000
01000000
00000000
00000000
00100000
00000000
00000000
10000000
00100000
10000000
,
00100000
00000000
00000000
01000000
00000000
00000000
00010000
00000000
00000000
00100000
00010000
00100000
,
00010000
00000000
00000000
00100000
00000000
00000000
00001000
00000000
00000000
00010000
00001000
00010000
,
00001000
00010000
00000100
00001000
,
00000001
00001000
00000001
00001000
00000000
00000000
00000010
00000000
00000000
00001000
00000100
00001000
,
00000100
00000000
00000000
00010000
00000000
00000000
00001000
00000000
00000000
00100000
00010000
00100000
,
00010000
00000000
00000000
01000000
00000000
00000000
00100000
00000000
00000000
10000000
00010000
10000000
,
00010000
00100000
00001000
00010000
,
00000100
00001000
00000100
00001000
00000000
00000000
00000000
00000000
00000000
00000000
00000000
00000000
;

//---------------dance-single - ----------------
#NOTES:
     dance-single:
     :
     Medium:
     9:
     0.311741,0.376097,0.066127,0.058779,0.213075,297.000000,288.000000,9.000000,8.000000,0.000000,0.000000,0.311741,0.376097,0.066127,0.058779,0.213075,297.000000,288.000000,9.000000,8.000000,0.000000,0.000000:
0000
0000
0000
0000
,
0000
0000
0000
0000
,
0000
0000
0000
0000
,
0000
0000
0000
0000
,
0000
0000
0000
0000
,
0010
0001
0100
1000
,
0010
1000
0100
0001
,
0010
0001
0100
0001
,
0010
0001
2000
0000
,
0002
3003
0010
0100
,
0010
0000
0000
0100
0000
0000
0001
0000
0000
0001
0000
0001
,
1000
0010
0100
0001
,
0100
0000
0000
0010
0000
0000
1000
0000
0000
0001
0000
0001
,
1000
0010
0100
0001
,
0100
0000
0000
0010
0000
0010
0100
0000
0000
0010
0000
0010
,
0100
0001
1000
0010
,
0100
0001
1000
0000
,
0001
0000
1000
1010
,
0001
0000
0000
1001
0000
0000
0001
0000
0001
1000
0000
1000
,
0001
1001
1000
0010
,
0100
0001
0100
0110
,
1001
0000
0000
0110
0000
0000
0010
0000
0010
1000
0000
1000
,
0001
0000
0001
1000
0000
0000
0010
0000
0000
1000
0000
1000
,
0001
1000
0010
0100
,
0001
0000
0001
1000
0000
0000
0001
0000
0000
1000
0000
0000
,
0010
0200
0020
0000
,
0000
0330
0000
0000
,
0000
0000
0000
0000
0000
0000
1000
0000
1000
0001
0000
0000
,
1000
0000
1000
0100
0000
0000
1000
0000
1000
0001
0000
0001
,
1000
0000
0000
0100
0000
0000
0001
0000
0000
0100
0000
0100
,
0001
0000
0000
1000
0000
0000
0001
0000
0000
1000
0000
1000
,
0001
0000
0000
1000
0000
0000
0010
0000
0000
0100
0000
0100
,
0001
0000
0000
0100
0000
0000
0010
0000
0000
1000
0000
1000
,
0001
0000
0001
1000
0000
0000
0010
0000
0010
0100
0000
0100
,
0001
0000
0000
0100
0000
0000
0010
0000
0010
1000
0000
1000
,
0001
0000
0000
1000
0000
0000
0100
0000
0100
1000
0000
1000
,
0001
0000
0000
0100
0000
0000
0010
0000
0000
0010
0000
0010
,
0100
0000
0100
0001
0000
0000
0010
0000
0000
0000
0000
0000
,
1000
0000
0100
0000
,
0001
0000
0000
0000
0000
0000
1000
0000
1000
0001
0000
0000
,
1000
0000
1000
0001
0000
0000
0100
0000
0100
0001
0000
0000
,
1000
0000
1000
0001
0000
0000
1000
0000
0000
0100
0000
0000
,
0001
0010
1000
0101
,
1010
0000
0000
0000
0000
0000
0010
0000
0010
1000
0000
1000
,
0001
0000
0000
0000
0000
0000
0010
0000
0010
0001
0000
0001
,
1000
0000
0000
0000
0000
0000
0001
0000
0001
0010
0000
0000
,
1000
0000
1000
0100
0000
0000
0010
0000
0000
0001
0000
0000
,
0100
0000
0000
1001
0000
0000
0010
0000
0010
0100
0000
0100
,
0010
1000
0001
0100
,
0001
1000
0020
0000
,
0200
0330
0010
1000
,
0002
0003
0010
0001
,
2000
3000
0010
0001
,
0100
0000
0010
1000
,
0100
0000
0010
0001
,
0100
1000
0010
1000
,
0100
0000
0000
0001
0000
0000
0010
0000
0000
0001
0000
0001
,
1000
0000
0000
0010
0000
0000
0010
0000
0000
1000
0000
1000
,
0001
0000
0000
0100
0000
0000
0100
0000
0000
0001
0000
1000
,
0001
0000
0000
0100
0000
0000
0100
0000
0000
1000
0000
0001
,
1000
0000
0000
0010
0000
0000
0010
0000
0000
1000
0010
1000
,
0010
0000
0000
0100
0000
0000
0100
0000
0000
1000
0001
1000
,
0001
0000
0000
0010
0000
0000
0010
0000
0000
0001
0100
0001
,
0100
0001
1000
0001
,
0100
0010
0100
0010
0000
0000
1000
0000
0000
0001
1000
0001
,
1000
0000
0000
0001
0000
0000
1000
0000
0000
0001
1000
0001
,
1000
0010
0100
0001
,
1000
0010
0100
0001
,
1000
0001
1000
0001
0000
0000
0000
0000
0000
0000
0000
0000
;

//---------------dance-double - ----------------
#NOTES:
     dance-double:
     :
     Easy:
     4:
     0.184735,0.250731,0.014695,0.117559,0.000000,176.000000,174.000000,2.000000,16.000000,0.000000,0.000000,0.184735,0.250731,0.014695,0.117559,0.000000,176.000000,174.000000,2.000000,16.000000,0.000000,0.000000:
00000000
00000000
00000000
00000000
,
00000000
00000000
00000000
00000000
,
00000000
00000000
00000000
00000000
,
00000000
00000000
00000000
00000000
,
00000000
00000000
00000000
00000000
,
00100000
00000000
00010000
10000000
,
00010000
00000000
00100000
00010000
,
10000000
00000000
00100000
10000000
,
00010000
00000000
00200000
00000000
,
02000000
03300000
00100000
00000000
,
10000000
00000000
00010000
00000000
,
00100000
00000000
00001000
00000000
,
00010000
00000000
00000100
00000000
,
00001000
00000000
00000001
00000000
,
00000100
00000000
00001000
00000000
,
00010000
00000000
00100000
00000000
,
01000000
00000000
10000000
00000000
,
00010000
00000000
10000000
00010000
,
10000000
00000000
00010000
10000000
,
00010000
00000000
01000000
00010000
,
00100000
00000000
00001000
00010000
,
00000100
00000000
00001000
00000001
,
00001000
00000000
00000001
00001000
,
00000001
00000000
00002000
00003000
,
00000002
00000003
00000200
00000300
,
00000020
00000030
00002002
00000000
,
00000000
00003003
00000000
00000000
,
00000000
00000000
00000010
00000010
,
00000010
00000010
00000001
00000001
,
00000100
00000100
00001000
00000001
,
00001000
00000000
00000100
00010000
,
00001000
00000000
00010000
00001000
,
00010000
00000000
00001000
01000000
,
00010000
00000000
01000000
01000000
,
00100000
01000000
00010000
00010000
,
10000000
00010000
00100000
00100000
,
00001000
00010000
00000010
00000010
,
00001000
00000001
00000100
00000000
,
00000010
00000000
00001000
00000000
,
00000001
00000000
00001000
00001000
,
00000100
00000100
00010000
00010000
,
00001000
00011000
00001000
00100000
,
00010000
01000000
00200000
00300000
,
02000000
03000000
00100000
10000000
,
02000000
03000000
00100000
00010000
,
02000000
03000000
00010000
00100000
,
00002000
00003000
00010000
00000100
,
00002000
00003000
00000010
00000001
,
00000200
00000300
00000010
00001000
,
00000200
00000300
00010000
00000000
,
00001000
00000000
00010000
00001000
,
00010000
00000000
00001000
00010000
,
00001000
00000000
00010000
00000000
,
01000000
00000000
10000000
00000000
,
00100000
00000000
00001000
00000000
,
00000100
00000000
00000001
00000000
,
00000010
00000000
00001000
00010000
,
00001000
00000000
00010000
00000000
,
01000000
00000000
10000000
00100000
,
00010000
00000000
01000000
00000000
,
00001000
00000000
00010000
00010000
,
00000100
00001000
00000001
00000001
,
00001000
00000010
00001000
00001000
,
00000100
00010000
00001000
00001000
,
00100000
00010000
10000000
00000000
,
00010000
00000000
00001000
00000000
,
00000001
00000000
00000001
00000000
,
00001000
00000000
00010000
00000000
,
00001000
00010000
00000000
00000000
;

//---------------dance-single - ----------------
#NOTES:
     dance-single:
     :
     Easy:
     4:
     0.184735,0.250731,0.029390,0.124906,0.000000,176.000000,172.000000,4.000000,17.000000,0.000000,0.000000,0.184735,0.250731,0.029390,0.124906,0.000000,176.000000,172.000000,4.000000,17.000000,0.000000,0.000000:
// measure 0
0000
0000
0000
0000
,  // measure 1
0000
0000
0000
0000
,  // measure 2
0000
0000
0000
0000
,  // measure 3
0000
0000
0000
0000
,  // measure 4
0000
0000
0000
0000
,  // measure 5
0010
0000
0001
0000
,  // measure 6
0100
0000
1000
0000
,  // measure 7
0010
0000
1000
0000
,  // measure 8
0100
0000
0002
0000
,  // measure 9
2000
3003
1000
0000
,  // measure 10
0001
0000
1000
0000
,  // measure 11
0001
0000
0100
0000
,  // measure 12
0010
0000
0200
0000
,  // measure 13
0300
0000
0001
0001
,  // measure 14
0001
0000
1000
0000
,  // measure 15
0001
0000
1000
0000
,  // measure 16
0001
0000
0200
0000
,  // measure 17
0300
0000
0010
1000
,  // measure 18
0001
0000
0010
0001
,  // measure 19
1000
0000
0100
1000
,  // measure 20
1000
0001
0100
0001
,  // measure 21
0001
0000
1000
0010
,  // measure 22
0010
0000
0001
0010
,  // measure 23
0010
0000
2000
3000
,  // measure 24
0002
0003
0200
0300
,  // measure 25
0020
0030
2002
0000
,  // measure 26
0000
3003
0000
0000
,  // measure 27
0000
0000
0010
0010
,  // measure 28
0010
0010
1000
1000
,  // measure 29
0001
0001
1000
0100
,  // measure 30
0001
0000
0001
0100
,  // measure 31
1000
0000
1000
0100
,  // measure 32
1000
0100
0001
0100
,  // measure 33
0001
0000
1000
0010
,  // measure 34
0001
0000
0001
0010
,  // measure 35
1000
0000
0001
0010
,  // measure 36
0001
0010
1000
0010
,  // measure 37
1000
0000
0010
0000
,  // measure 38
1000
0000
0100
0000
,  // measure 39
0001
0000
0010
0010
,  // measure 40
0100
0100
1000
0001
,  // measure 41
1000
0001
1000
0100
,  // measure 42
0010
0001
2000
3000
,  // measure 43
0002
0003
1000
0010
,  // measure 44
1001
0000
0001
0010
,  // measure 45
1001
0000
0001
0100
,  // measure 46
1000
0100
0001
1000
,  // measure 47
1001
0000
0010
0100
,  // measure 48
0002
0003
0100
0010
,  // measure 49
1000
0001
2000
3000
,  // measure 50
0002
0003
1000
0010
,  // measure 51
0002
0003
0001
0010
,  // measure 52
2000
3000
0010
0000
,  // measure 53
0100
0000
0001
0000
,  // measure 54
1000
0000
0010
0000
,  // measure 55
1000
0000
0100
0000
,  // measure 56
0001
0000
0010
0000
,  // measure 57
0001
0001
1000
0000
,  // measure 58
1000
1000
0001
0000
,  // measure 59
0010
0010
0100
0000
,  // measure 60
0100
0000
0001
0001
,  // measure 61
1000
1000
0010
0010
,  // measure 62
0100
0100
0001
0100
,  // measure 63
0010
1000
1000
0010
,  // measure 64
0100
0001
1000
0000
,  // measure 65
0100
0000
0001
0000
,  // measure 66
0010
0000
1000
0000
,  // measure 67
0001
0000
0010
0000
,  // measure 68
1000
0001
0000
0000
;

//---------------dance-single - ----------------
#NOTES:
     dance-single:
     :
     Beginner:
     1:
     0.114410,0.175512,0.014695,0.051432,0.000000,109.000000,107.000000,2.000000,7.000000,0.000000,0.000000,0.114410,0.175512,0.014695,0.051432,0.000000,109.000000,107.000000,2.000000,7.000000,0.000000,0.000000:
// measure 0
0000
0000
0000
0000
,  // measure 1
0000
0000
0000
0000
,  // measure 2
0000
0000
0000
0000
,  // measure 3
0000
0000
0000
0000
,  // measure 4
0000
0000
0000
0000
,  // measure 5
0010
0000
0000
0000
,  // measure 6
0001
0000
0000
0000
,  // measure 7
0100
0000
0000
0000
,  // measure 8
1000
0000
0000
0000
,  // measure 9
0000
0000
0001
0000
,  // measure 10
0001
0000
0001
0000
,  // measure 11
0000
0000
1000
0000
,  // measure 12
1000
0000
1000
0000
,  // measure 13
0000
0000
0010
0000
,  // measure 14
0010
0000
0010
0000
,  // measure 15
0000
0000
0100
0000
,  // measure 16
0100
0000
0100
0000
,  // measure 17
0000
0000
0001
0000
,  // measure 18
1000
0000
0001
0000
,  // measure 19
0000
0000
1000
0000
,  // measure 20
0001
0000
1000
0000
,  // measure 21
0000
0000
0100
0000
,  // measure 22
0100
0000
0100
0000
,  // measure 23
0100
0000
0100
0000
,  // measure 24
0000
0000
0010
0000
,  // measure 25
0000
0000
2002
0000
,  // measure 26
0000
3003
0000
0000
,  // measure 27
0000
0000
0010
0000
,  // measure 28
0010
0000
0010
0000
,  // measure 29
0010
0000
1000
0000
,  // measure 30
0001
0000
1000
0000
,  // measure 31
0001
0000
0100
0000
,  // measure 32
0010
0000
0100
0000
,  // measure 33
0010
0000
1000
0000
,  // measure 34
0001
0000
0100
0000
,  // measure 35
0010
0000
1000
0000
,  // measure 36
0001
0000
0100
0000
,  // measure 37
0010
0000
1000
0000
,  // measure 38
0100
0000
0001
0000
,  // measure 39
0010
0000
1000
0000
,  // measure 40
1000
0000
0001
0000
,  // measure 41
0001
0000
1000
1000
,  // measure 42
1000
0000
2000
0000
,  // measure 43
3000
0000
0001
0001
,  // measure 44
0001
0000
0002
0000
,  // measure 45
0003
0000
1000
1000
,  // measure 46
1000
0000
0001
0001
,  // measure 47
0001
0000
1000
0000
,  // measure 48
0001
0000
1000
0000
,  // measure 49
0001
0000
2002
0000
,  // measure 50
3003
0000
0010
0010
,  // measure 51
0010
0000
0100
0100
,  // measure 52
0100
0000
0020
0000
,  // measure 53
0000
0000
0030
0000
,  // measure 54
0000
0000
0100
0000
,  // measure 55
0000
0000
0100
0000
,  // measure 56
0100
0000
0100
0000
,  // measure 57
0000
0000
0001
0000
,  // measure 58
0000
0000
1000
0000
,  // measure 59
0000
0000
0001
0000
,  // measure 60
1000
0000
0010
0010
,  // measure 61
0010
0000
0100
0000
,  // measure 62
0100
0000
0010
0010
,  // measure 63
0010
0000
0100
0000
,  // measure 64
0100
0000
0010
0000
,  // measure 65
0000
0000
0001
0000
,  // measure 66
0000
0000
0100
0000
,  // measure 67
0000
0000
1000
0000
,  // measure 68
0001
0001
0000
0000
;
