#TITLE:EMOTiON TRiPPER;
#SUBTITLE:;
#ARTIST:sky_delta;
#TITLETRANSLIT:;
#SUBTITLETRANSLIT:;
#ARTISTTRANSLIT:;
#GENRE:;
#CREDIT:;
#MENUCOLOR:;
#METERTYPE:DDR X;
#BANNER:EMOTiON TRiPPER.png;
#BACKGROUND:EMOTiON TRiPPER-bg.png;
#LYRICSPATH:;
#CDTITLE:;
#MUSIC:EMOTiON TRiPPER.ogg;
#OFFSET:0.007;
#SAMPLESTART:58.607;
#SAMPLELENGTH:13.000;
#SELECTABLE:YES;
#LISTSORT:;
#DISPLAYBPM:170.000;
#BPMS:0.000=170.000;
#STOPS:;
#BGCHANGES:;
#ATTACKS:;

//---------------dance-single - ----------------
#NOTES:
     dance-single:
     :
     Hard:
     11:
     0.556,0.595,0.331,0.306,0.187:
0000
0000
0000
0000
,
0000
0000
0000
0000
,
0000
0000
0000
0000
,
0000
0000
0000
0000
,
0000
0000
0000
0000
,
0010
0001
0010
0001
0010
0000
0001
1000
,
0001
1000
0001
0000
0100
0010
0100
0000
,
0001
0000
0000
0000
1000
0000
0000
1000
0000
0000
1000
0000
0000
0000
2002
0000
,
0000
0000
0000
3003
0010
0000
0100
0000
,
0001
0000
0000
0000
1000
0000
0000
0000
0100
0000
0000
0100
0000
0000
0100
0000
,
0000
0001
0010
0100
1000
0000
1001
0000
,
1000
0000
0000
0000
0001
0000
0000
0000
0010
0000
0000
0010
0000
0000
0010
0000
,
0000
1000
0100
0010
0001
0000
0100
0000
,
0001
1000
0001
1000
0001
0000
0100
0010
,
0100
0010
0100
0000
0001
0100
0010
0000
,
2000
3002
0203
0020
,
0000
0330
0000
0002
0000
1003
1001
0000
,
0220
0000
0000
0330
,
1001
0000
0001
0100
0000
0010
0000
0110
,
0000
0000
0000
0000
0001
0000
0000
1001
0000
0000
0001
0000
0000
0000
1001
0000
,
0000
0000
0010
0100
0000
0110
0000
1001
,
0000
0001
0100
0001
0000
1000
0100
1000
,
0010
0000
1000
0001
0000
1001
0000
1010
,
0000
0000
0000
0000
0010
0000
0000
0100
0000
0000
0010
0000
0000
0000
1001
0000
,
0000
0001
0010
0001
0000
1000
0010
1000
,
0002
0000
1003
2000
0000
3010
0010
0000
,
1001
0000
0100
0010
1000
0010
0000
1010
,
0000
0000
0001
0000
0100
0000
0000
1001
0000
0000
0100
0000
0010
0000
1000
0000
,
0001
0000
1000
0100
1000
0010
1000
0001
,
0000
1000
0100
0010
0000
0100
0010
0001
,
1000
0000
0001
0100
0001
1000
0001
0010
,
0000
0000
1000
0000
0001
0000
0000
1001
0000
0000
1000
0000
0010
0000
0100
0000
,
0000
0000
0001
0010
0001
0000
0000
0000
1000
0001
1000
0000
0001
0000
0000
0000
,
2002
0000
3003
0000
0010
1000
0001
0100
,
0010
0000
0000
0010
1000
0000
0000
0000
1000
0000
0000
1000
0001
0000
0000
0000
,
0001
0000
0000
0001
0100
0000
0000
0000
0110
0000
0000
0000
0000
0000
0001
1000
,
0001
0000
0000
0001
0010
0000
0000
0000
0010
0000
0000
0010
0001
0000
0000
0000
,
0001
0000
0000
0001
1000
0000
0000
1000
0010
0000
0000
0000
0000
0000
1000
0001
,
1000
0001
1000
0020
0000
1030
0001
0200
,
0000
0310
1000
0000
0001
0000
1000
0010
,
0200
0000
0301
1001
0000
1000
2002
0000
,
0000
3003
0000
0000
1000
0001
0100
0001
,
1000
0000
0000
1000
0010
0000
0000
0000
0010
0000
0000
0100
0000
0000
1001
0000
,
0000
0001
0100
0010
1000
0001
0001
0000
,
1000
0000
0000
1000
0010
0000
0000
0000
0100
0000
0000
1001
0000
0000
1000
0000
,
0000
0001
0010
0100
1000
0001
0001
0000
,
1000
0010
0001
0010
1000
0000
0001
0100
,
1000
0100
0001
0000
1000
0100
0010
0001
,
0100
0110
1001
0022
,
0000
0000
0033
0000
1000
0100
0010
0000
,
0002
0000
0000
0000
0003
0000
1000
0010
1000
0000
0000
0001
0000
0000
1000
0000
,
0100
1100
0011
1010
,
0200
0000
0000
0000
0300
0000
0001
1000
0001
0000
0000
0100
0000
0000
0010
0000
,
2000
0000
0000
0000
3000
0000
0001
1000
0002
0000
0000
0000
0003
0000
0100
0010
,
0100
0000
0000
0100
0000
0000
0001
0000
0000
0000
1000
0000
0000
0000
0002
0000
,
0000
0103
0000
0001
0100
0000
1001
0000
,
1000
0000
0000
0000
0001
0000
0000
0000
1000
0000
0000
1000
0000
0000
1000
0000
,
0000
0001
0100
0010
1000
0000
0000
0000
,
0001
0000
0000
0000
0001
0000
0000
0000
1000
0000
0000
1000
0000
0000
0010
0000
,
0000
1000
0001
0100
0010
0000
0000
0000
,
0001
0100
1000
0100
0001
0000
1000
0010
,
0001
0010
1000
0000
0001
0100
0010
0000
,
2000
3002
0203
0020
,
0000
0000
0330
0000
1000
0100
0001
0000
,
2020
0000
0000
0000
3030
0000
1000
0010
1000
0000
0000
0010
0000
0000
0100
0000
,
0010
0000
0000
0010
1000
0000
0000
1000
0001
0000
0000
0001
1000
0000
0000
1000
,
0010
0000
0000
0000
0000
0000
0001
1000
0001
0000
0000
0001
0000
0000
0200
0000
,
0020
0000
0000
0000
0330
0000
0010
0100
0020
0000
0000
0000
0030
0000
1000
0010
,
1000
0000
0000
0001
0000
0000
1000
0000
0000
0000
0110
0000
0000
0000
0002
0000
,
0000
0103
0000
0010
1000
0000
0101
0000
,
1000
1100
0001
0011
,
0100
0001
1000
0001
1000
0000
0110
0000
,
0001
0011
1000
1100
,
0001
0010
0100
1000
0010
0000
0110
0000
,
0001
0000
0000
0000
0001
0000
0000
0000
1000
0000
0000
1000
0000
0000
1000
0000
,
0000
0001
0100
1000
0100
0000
0010
0000
,
0001
0000
0000
0000
1000
0000
0000
0000
0100
0000
0000
0100
0000
0000
0100
0000
,
0000
0001
1000
0020
0000
0000
0000
0030
;

//---------------dance-double - ----------------
#NOTES:
     dance-double:
     :
     Hard:
     11:
     0.567,0.628,0.535,0.255,0.166:
00000000
00000000
00000000
00000000
,
00000000
00000000
00000000
00000000
,
00000000
00000000
00000000
00000000
,
00000000
00000000
00000000
00000000
,
00000000
00000000
00000000
00000000
,
10000000
00100000
10000000
00100000
10000000
00000000
00010000
01000000
,
00010000
01000000
00010000
00000000
10000000
00100000
01000000
00000000
,
00001000
00000000
00000000
00000000
00010000
00000000
00000000
00010000
00000000
00000000
00010000
00000000
00000000
00000000
00022000
00000000
,
00000000
00000000
00033000
00000000
00001000
00010000
00000100
00000000
,
00001100
00000000
00000011
00000000
00001100
00000000
00000010
00001000
,
00000000
00000100
00010000
00001000
00010000
00000000
00011000
00000000
,
00100000
00000000
00110000
00000000
11000000
00000000
00100000
01000000
,
00000000
00010000
10000000
00100000
01000000
00000000
10010000
00000000
,
00100000
10000000
00100000
01000000
00010000
00000000
00100000
00001000
,
00010000
00001000
00100000
00000000
00001000
00010000
00000100
00000000
,
00001100
00000011
00000110
00002002
,
00000000
00003003
00000000
00000000
00000010
00001000
00000100
00000000
,
00022000
00000000
00000000
00033000
,
00110000
00000000
01000000
00100000
00000000
10100000
00000000
01010000
,
00000000
00000000
00000000
00000000
00100000
00000000
00000000
00010000
00000000
00000000
01010000
00000000
00000000
00000000
00110000
00000000
,
00000000
00000000
00100000
00001000
00000000
00010000
00000000
00010100
,
00000000
00000100
00001000
00000010
00000000
00000100
00000001
00001000
,
00000000
00000000
00000010
00001000
00000000
00001100
00000000
00000110
,
00000000
00000000
00000000
00000000
00000010
00000000
00000000
00001000
00000000
00000000
00000100
00000000
00000000
00000000
00001100
00000000
,
00000000
00000100
00010000
00001000
00000000
00001000
00100000
00010000
,
01000000
00000000
00100000
20000000
00000000
30010000
10010000
00000000
,
10000000
00000000
00100000
01100000
00000000
10010000
00000000
01100000
,
00000000
00000000
01000000
00000000
00010000
00000000
00000000
00010000
00000000
00000000
00110000
00000000
00000000
00000000
00011000
00000000
,
00000000
00000000
00001000
00010000
00000000
00010100
00000000
00001100
,
00000000
00001000
00000010
00000100
00000000
00000001
00000100
00000010
,
00001000
00000000
00000100
00001000
00000000
00001100
00000000
00010100
,
00000000
00000000
00000000
00000000
00001000
00000000
00000000
00010000
00000000
00000000
00110000
00000000
00000000
00000000
01010000
00000000
,
00000000
00100000
10000000
00010000
01000000
00010000
10000000
00200000
,
02000000
00000000
03300000
00000000
00010000
01000000
00100000
10000000
,
00010000
00000000
00000000
00010000
00100000
00000000
00000000
00000000
00100000
00000000
00000000
00100000
00001000
00000000
00000000
00000000
,
00001000
00000000
00000000
00001000
00010000
00000000
00000000
00010000
00001000
00000000
00000000
00000000
00000000
00000000
00010000
00000100
,
00010000
00000000
00000000
00010000
00000100
00000000
00000000
00000000
00001000
00000000
00000000
00001000
00000010
00000000
00000000
00000000
,
00000100
00000000
00000000
00000100
00000001
00000000
00000000
00000001
00001000
00000000
00000000
00000000
00000000
00000000
00000010
00001000
,
00000010
00001000
00000010
00001000
00000000
00000100
00010000
00001000
,
00000000
00100000
00010000
00000000
10000000
01000000
00100000
00010000
,
02000000
00000000
03100000
20000000
00000000
30010000
00200000
00000000
,
00000000
00000000
00301000
00000000
00010000
00001000
00010000
00000100
,
00001000
00000000
00000000
00000000
00001100
00000000
00000000
00000000
00000001
00000000
00000000
00000100
00000000
00000000
00000101
00000000
,
00000000
00000010
00001000
00000100
00010000
00001000
00001000
00000000
,
01000000
00000000
00000000
00000000
01010000
00000000
00000000
00000000
00100000
00000000
00000000
10000000
00000000
00000000
10100000
00000000
,
00000000
00100000
01000000
00010000
00100000
00001000
00001000
00000000
,
00010000
00000100
00001000
00000010
00000100
00000000
00000001
00001000
,
00000100
00010000
00001000
00000000
00100000
00010000
01000000
00100000
,
10000000
10010000
00110000
00022000
,
00000000
00000000
00033000
00000000
00010000
00000100
00001000
00000000
,
00000020
00000000
00000000
00000000
00000030
00000000
00001000
00000010
00001000
00000000
00000000
00000001
00000000
00000000
00000100
00000000
,
00000010
00001010
00010000
00011000
,
02002000
00000000
00000000
00000000
03003000
00000000
01000000
00010000
01000000
00000000
00000000
00100000
00000000
00000000
00100000
00000000
,
10000000
00000000
00000000
00010000
00000000
00000000
20020000
00000000
00000000
00000000
00000000
00000000
30030000
00000000
00100000
01000000
,
00100000
00000000
00000000
10000000
00000000
00000000
00010000
00000000
00000000
00000000
00110000
00000000
00000000
00000000
00022000
00000000
,
00000000
00033000
00000000
00010000
00000100
00000000
00001100
00000000
,
00001000
00000000
00000000
00000000
00000010
00000000
00000000
00000000
00000001
00000000
00000000
00000001
00000000
00000000
00000001
00000000
,
00000000
00001000
00000100
00000000
,
00010000
00000000
00000000
00000000
00001000
00000000
00000000
00000000
00100000
00000000
00000000
00100000
00000000
00000000
00100000
00000000
,
00000000
00010000
01000000
00000000
00100000
00000000
00000000
00000000
,
10000000
00100000
00010000
00100000
10000000
00000000
00010000
01000000
,
10000000
01000000
00010000
00000000
00100000
00001000
00010000
00000000
,
00020000
00000000
00030200
00000000
00002300
00003000
00002002
00000000
,
00000000
00003003
00000000
00000100
00000001
00001000
00000010
00000000
,
00002002
00000000
00000000
00000000
00003003
00000000
00000001
00001000
00000001
00000000
00000000
00001001
00000000
00000000
00001000
00000000
,
00000100
00000000
00000000
00000100
00010000
00000000
00000000
00010000
00001000
00000000
00000000
00001000
00100000
00000000
00000000
00100000
,
00020000
00000000
00000000
00000000
00030000
00000000
01000000
00100000
01000000
00000000
00000000
10010000
00000000
00000000
00100000
00000000
,
10000000
00000000
00000000
10000000
00000000
00000000
00010000
10000000
00010000
00000000
00000000
00000000
00100000
00000000
00001000
00000000
,
00010000
00000000
00000000
00010000
00000000
00000000
00000100
00000000
00000000
00000000
00001000
00000000
00000010
00000000
00000001
00000000
,
00000000
00001000
00000100
00000010
00000001
00001000
00001100
00000000
,
00001010
00000000
00011000
00000000
00101000
00000000
00100000
00010000
,
00000000
10000000
01000000
00100000
00010000
00000000
01010000
00000000
,
10100000
00000000
01010000
00000000
00110000
00000000
00100000
00001000
,
00000000
00010000
00000100
00001000
00000010
00000000
00001001
00000000
,
00001100
00000000
00000000
00000000
00000100
00000000
00000000
00000000
00000100
00000000
00000000
00000100
00000000
00000000
00000100
00000000
,
00000000
00010000
00001000
00100000
00010000
00000000
00000000
00000000
,
01000000
00000000
00000000
00000000
10010000
00000000
00000000
00000000
00100000
00000000
00000000
00100000
00000000
00000000
00001000
00000000
,
00000000
00010000
00000100
00002000
00000000
00000000
00000000
00003000
;

//---------------dance-double - ----------------
#NOTES:
     dance-double:
     :
     Medium:
     8:
     0.420,0.529,0.306,0.382,0.000:
00000000
00000000
00000000
00000000
,
00000000
00000000
00000000
00000000
,
00000000
00000000
00000000
00000000
,
00000000
00000000
00000000
00000000
,
00000000
00000000
00000000
00000000
,
00100000
00100000
00100000
00001000
,
00001000
00001000
00010000
00000100
,
00002000
00000000
00000000
00000000
00000000
00003000
00000000
00002002
,
00000000
00003003
00000000
00000000
00000010
00001000
00000100
00001000
,
00000010
00001000
00000100
00010000
,
00001000
00100000
00001000
00000000
00220000
00000000
00330000
00000000
,
00010000
01000000
00100000
10000000
,
00010000
10000000
00010000
00000000
20020000
00000000
30030000
00000000
,
00100000
01000000
00100000
00000000
10000000
00000000
00010000
00100000
,
00010000
00100000
00001000
00010000
,
00001000
00010000
00000010
00000200
,
00000000
00000300
00000001
00001001
,
00002002
00000000
00003003
00000000
,
00000001
00000000
00001000
00000000
00000000
00000100
00000000
00000100
,
00000000
00010000
00001000
00010000
,
00001000
00000000
00100000
00000000
00000000
00010000
00000000
00010000
,
00000000
10000000
00000000
00010000
00000000
10000000
00010000
00000000
,
00000000
00000000
00100000
00000000
00000000
00001000
00000000
00001000
,
00000000
00010000
00001000
00010000
,
00000000
00000010
00001000
00000010
00000000
00000000
00001000
00000000
,
00000100
00000000
00000000
00010000
00000000
00001000
00001000
00000000
,
00010000
00001000
00100000
00010000
,
01000000
00000000
00010000
10000000
00010000
00000000
00100000
00000000
,
00001000
00010000
00000100
00001000
,
00000001
00000100
00000001
00000000
00001000
00000100
00001000
00000000
,
00000010
00010000
00001000
01000000
,
00010000
00000000
10000000
00010000
10000000
00000000
00100000
00000000
,
02000000
00000000
03000000
00200000
00000000
00300000
10000000
00000000
,
00020000
00000000
00100000
00130000
,
00100000
00001000
00010000
00000010
,
00001000
00000001
00000101
00000000
,
00000010
00001000
00000100
00010000
,
00001000
00000000
00100000
00000000
01010000
00000000
00000000
00100000
,
10000000
00000000
00010000
01000000
00000000
00010000
00100000
00010000
,
00000000
00100000
00001000
00000000
00010000
00000000
00000100
00000000
,
00001000
00000000
00000000
00000101
00000000
00000000
00002002
00000000
,
00000000
00003003
00000110
00001001
,
00000010
00001000
00000100
00010000
,
00001000
00100000
00001000
00100000
00001000
00000000
00000000
00000000
,
01000000
00010000
10000000
00010000
,
00100000
00010000
00100000
00010000
00100000
00000000
00000000
00000000
,
00001000
00010000
00010100
00001000
,
00000010
00000000
00000110
00000000
00000001
00000100
00000010
00000000
,
00001010
00000101
00001000
00020200
,
00000000
00000000
00000000
00030300
00001000
00010000
00001000
00000000
,
00200000
00300000
00010000
01000000
,
10100000
01010000
00110000
10100000
,
02020000
03030000
00100000
00001000
,
00022000
00033000
00020200
00030300
,
00000100
00000000
00001000
00000001
00000000
00000110
00000000
00002002
,
00000000
00003003
00000010
00001000
,
00000100
00000100
00000100
00000000
,
00010000
00001000
00010000
00000000
,
00001000
00001000
00001000
00000000
,
01000000
00100000
01000000
00000000
,
00010000
00000000
00100000
00010000
00100000
00000000
10000000
00000000
,
01000000
10000000
01000000
00000000
00010000
00000000
00100000
00000000
,
00001000
00010000
00001000
00022000
,
00000000
00033000
00010000
00000010
,
00002020
00003030
00000202
00000303
,
00001010
00001100
00010100
00000000
,
00022000
00033000
02020000
03030000
,
01000000
00100000
20020000
30030000
,
10000000
00000000
00010000
01000000
00000000
00010000
00000000
00220000
,
00000000
00330000
00001000
00010000
,
00000010
00000010
00001000
00000001
,
00001000
00000100
00010000
00001000
,
01000000
01000000
00100000
10000000
,
00010000
01100000
10000000
00010000
,
00200000
00300000
00002000
00003000
,
00010000
00000010
00002000
00003000
,
00000001
00000100
00001000
00000000
,
00010000
00000000
00020000
00002000
00000000
00000000
00000000
00033000
;

//---------------dance-single - ----------------
#NOTES:
     dance-single:
     :
     Medium:
     8:
     0.420,0.529,0.323,0.408,0.000:
0000
0000
0000
0000
,
0000
0000
0000
0000
,
0000
0000
0000
0000
,
0000
0000
0000
0000
,
0000
0000
0000
0000
,
0010
0010
0010
1000
,
0001
1000
0001
0100
,
2002
0000
0000
0000
3003
0000
0000
2002
,
0000
3003
0000
0000
0001
1000
0001
1000
,
0001
0010
0100
0010
,
1000
0001
1000
0000
2002
0000
3003
0000
,
0001
0100
0010
1000
,
0001
1000
0001
0000
2002
0000
3003
0000
,
0010
0100
0010
0000
1000
0000
0001
0010
,
0001
0010
1000
0001
,
1000
0001
0010
0200
,
0000
0300
0001
1001
,
2002
0000
3003
0000
,
0001
0000
1000
0000
0000
0100
0000
0100
,
0000
0001
1000
0001
,
1000
0000
0010
0000
0000
0100
0000
0100
,
0000
0001
0000
1000
0000
0000
1001
0000
,
0000
0000
0010
0000
0000
1000
0000
0001
,
0000
1000
0001
1000
,
0000
0010
0100
0010
0000
0000
0010
0000
,
0010
0000
0000
0010
0000
1000
1000
0000
,
0001
1000
0010
0100
,
0001
0100
0010
1000
,
0001
0010
0100
1000
,
0001
0100
0001
0000
1000
0100
1000
0000
,
0001
0010
0100
1000
,
0001
0000
1000
0001
1000
0000
0010
0000
,
0200
0000
0300
0020
0000
0030
1000
0000
,
0002
0000
0010
0013
,
0001
1000
0001
0010
,
0100
1000
1001
0000
,
0010
1000
0100
0001
,
1000
0000
0010
0000
1001
0000
0000
0001
,
1000
0000
0001
1000
0000
0001
1000
0001
,
0000
1000
1000
0000
0001
0000
0100
0000
,
1001
0000
0000
0110
0000
0000
2002
0000
,
0000
3003
0110
1001
,
0010
1000
0100
0001
,
1000
0010
1000
0010
1000
0000
0000
0000
,
0010
0001
0100
1000
,
0010
0001
0010
0001
0010
0000
0000
0000
,
1000
0001
0100
1000
,
0001
0000
0010
0000
1000
0001
1000
0000
,
0110
1001
0110
2002
,
0000
0000
3003
0000
1000
0001
1000
0000
,
2002
3003
0001
0100
,
1010
0101
0011
1010
,
0202
0303
0010
1000
,
2002
3003
0202
0303
,
0100
0000
1000
0001
0000
0110
0000
2002
,
0000
3003
0010
1000
,
0100
0100
0100
0000
,
0001
1000
0001
0000
,
0010
0010
0010
0000
,
1000
0001
1000
0000
,
0010
0000
1000
0001
1000
0000
0010
0000
,
0001
1000
0001
0000
0100
0000
0010
0000
,
1000
0001
1000
2002
,
0000
3003
0100
0010
,
2002
3003
0220
0330
,
0110
1001
0110
0000
,
2002
3003
0220
0330
,
0100
0010
2002
3003
,
1000
0000
0001
1000
0000
0001
0000
0220
,
0000
0330
1000
0001
,
0100
0010
1000
0001
,
1000
0100
0001
0000
,
0010
0100
0010
0001
,
0010
0100
1000
0000
,
0020
0030
2000
3000
,
0002
0003
2000
3000
,
0001
0100
1000
0000
,
0001
0000
0002
2000
0000
0000
0000
3003
;

//---------------dance-single - ----------------
#NOTES:
     dance-single:
     :
     Easy:
     5:
     0.285,0.331,0.110,0.297,0.000: // measure 1
0000
0000
0000
0000
,  // measure 2
0000
0000
0000
0000
,  // measure 3
0000
0000
0000
0000
,  // measure 4
0000
0000
0000
0000
,  // measure 5
0000
0000
0000
0000
,  // measure 6
0010
0010
0010
0000
,  // measure 7
0001
1000
0001
0000
,  // measure 8
0200
0000
0000
0000
0300
0000
0000
2002
,  // measure 9
0000
3003
0010
0010
,  // measure 10
0010
0000
0100
0000
,  // measure 11
0001
1000
0002
0003
,  // measure 12
0100
0000
0100
0000
,  // measure 13
1000
0001
2000
3000
,  // measure 14
0001
0010
0100
1000
,  // measure 15
0100
0010
0001
1000
,  // measure 16
0001
0010
0100
2002
,  // measure 17
0000
3003
0001
1000
,  // measure 18
2002
0000
3003
0000
,  // measure 19
0001
1000
0000
1000
,  // measure 20
0000
0001
0000
0001
,  // measure 21
0000
0010
0000
0100
,  // measure 22
0000
0010
0000
0100
,  // measure 23
0000
0010
0000
0010
,  // measure 24
0000
0100
0000
0100
,  // measure 25
0000
1000
0000
0001
,  // measure 26
2002
0000
3003
1001
,  // measure 27
0000
1000
1000
0100
,  // measure 28
0000
0001
0001
0100
,  // measure 29
0000
0010
0010
0100
,  // measure 30
0000
1001
0000
1001
,  // measure 31
0000
0010
0100
0010
,  // measure 32
0000
1000
0001
1000
,  // measure 33
0001
0000
0000
1000
0000
0000
0001
0000
,  // measure 34
2002
3003
0010
0100
,  // measure 35
0010
0010
0100
0100
,  // measure 36
1000
0001
1000
0000
,  // measure 37
0100
0100
0010
0010
,  // measure 38
0001
1000
0001
0000
,  // measure 39
0001
0010
0100
1000
,  // measure 40
0000
1001
0000
0000
,  // measure 41
0010
0000
0000
0100
0000
0000
2002
0000
,  // measure 42
0000
3003
0010
0010
,  // measure 43
1000
0001
1000
0000
,  // measure 44
0100
0100
0100
0000
,  // measure 45
0001
1000
0001
0000
,  // measure 46
0100
0100
0100
0000
,  // measure 47
1000
0100
0010
0001
,  // measure 48
0010
0100
1000
0010
,  // measure 49
0100
0100
0100
2002
,  // measure 50
0000
3003
0010
0100
,  // measure 51
0002
0003
2000
3000
,  // measure 52
0010
0010
0010
0000
,  // measure 53
2000
3000
0002
0003
,  // measure 54
0100
0100
0100
0000
,  // measure 55
0002
0003
2000
3000
,  // measure 56
0020
0030
0200
0300
,  // measure 57
0001
0000
0000
0000
,  // measure 58
1000
0000
0000
0000
,  // measure 59
0010
0000
0000
0000
,  // measure 60
0100
0000
0000
0000
,  // measure 61
0001
0000
0001
0000
,  // measure 62
1000
0000
1000
0000
,  // measure 63
0001
0010
0100
2002
,  // measure 64
0000
3003
0010
0010
,  // measure 65
2000
3000
0002
0003
,  // measure 66
1000
0100
0001
0000
,  // measure 67
0002
0003
2000
3000
,  // measure 68
0001
0010
1000
0000
,  // measure 69
0001
0100
0010
1000
,  // measure 70
0002
0003
2000
3000
,  // measure 71
0010
0010
0010
0000
,  // measure 72
1000
0100
0001
0000
,  // measure 73
0100
0100
0100
0000
,  // measure 74
0001
0010
1000
0000
,  // measure 75
0100
0000
1000
0000
,  // measure 76
0010
0000
0001
0000
,  // measure 77
0100
0000
0000
0000
,  // measure 78
2002
0000
0000
0000
0000
0000
0000
3003
;

//---------------dance-single - ----------------
#NOTES:
     dance-single:
     :
     Beginner:
     2:
     0.150,0.231,0.059,0.144,0.000: // measure 1
0000
0000
0000
0000
,  // measure 2
0000
0000
0000
0000
,  // measure 3
0000
0000
0000
0000
,  // measure 4
0000
0000
0000
0000
,  // measure 5
0000
0000
0000
0000
,  // measure 6
0001
0000
0000
0000
,  // measure 7
1000
0000
0000
0000
,  // measure 8
0010
0000
0000
0000
,  // measure 9
0100
0000
0000
0000
,  // measure 10
0001
0000
0001
0000
,  // measure 11
0001
0000
0000
0000
,  // measure 12
1000
0000
1000
0000
,  // measure 13
1000
0000
0000
0000
,  // measure 14
0010
0000
0000
0100
,  // measure 15
0000
0000
0010
0000
,  // measure 16
0100
0000
0000
2002
,  // measure 17
0000
0000
3003
0000
,  // measure 18
0000
0000
0000
0000
,  // measure 19
0001
0000
0000
0000
,  // measure 20
1000
0000
0000
0000
,  // measure 21
0010
0000
0000
0000
,  // measure 22
0100
0000
0000
0000
,  // measure 23
1000
0000
0000
0000
,  // measure 24
0001
0000
0000
0000
,  // measure 25
0100
0000
0000
0000
,  // measure 26
0020
0000
0030
0000
,  // measure 27
0000
1000
0000
1000
,  // measure 28
0000
0010
0000
0010
,  // measure 29
0000
0100
0000
0100
,  // measure 30
0000
0001
0000
0001
,  // measure 31
0000
1000
0000
1000
,  // measure 32
0000
0001
0000
0001
,  // measure 33
0002
0000
0003
0000
,  // measure 34
1001
0000
0000
0000
,  // measure 35
0010
0000
0010
0000
,  // measure 36
0100
0000
0100
0000
,  // measure 37
0010
0000
0010
0000
,  // measure 38
0100
0000
0100
0000
,  // measure 39
0001
0000
0000
1000
,  // measure 40
0000
1000
0000
0000
,  // measure 41
0010
0000
0000
0220
,  // measure 42
0000
0330
0000
0000
,  // measure 43
0001
0000
0001
0000
,  // measure 44
0002
0000
0003
0000
,  // measure 45
1000
0000
1000
0000
,  // measure 46
2000
0000
3000
0000
,  // measure 47
0010
0000
0000
0100
,  // measure 48
0000
0000
0010
0000
,  // measure 49
1000
0000
0000
2002
,  // measure 50
0000
3003
0000
0000
,  // measure 51
0001
0000
0100
0000
,  // measure 52
1000
0000
0100
0000
,  // measure 53
0001
0000
0010
0000
,  // measure 54
1000
0000
0010
0000
,  // measure 55
0001
0000
0100
0000
,  // measure 56
2002
0000
3003
0000
,  // measure 57
0010
0000
0000
0000
,  // measure 58
0001
0000
0000
0000
,  // measure 59
0100
0000
0000
0000
,  // measure 60
1000
0000
0000
0000
,  // measure 61
0010
0000
0010
0000
,  // measure 62
0100
0000
0100
0000
,  // measure 63
0001
0000
0000
2002
,  // measure 64
0000
3003
0000
0000
,  // measure 65
0001
0000
1000
0000
,  // measure 66
0010
0000
0010
0000
,  // measure 67
1000
0000
0001
0000
,  // measure 68
0010
0000
0010
0000
,  // measure 69
0001
0000
0100
0000
,  // measure 70
2000
0000
3000
0000
,  // measure 71
0001
0000
0000
0000
,  // measure 72
1000
0000
0000
0000
,  // measure 73
0010
0000
0000
0000
,  // measure 74
0100
0000
0000
0000
,  // measure 75
0001
0000
0000
0000
,  // measure 76
1000
0000
0000
0000
,  // measure 77
2002
0000
0000
0000
,  // measure 78
0000
0000
0000
0000
0000
0000
0000
3003
;

//---------------dance-double - ----------------
#NOTES:
     dance-double:
     :
     Easy:
     5:
     0.277,0.331,0.068,0.289,0.000:
00000000
00000000
00000000
00000000
,
00000000
00000000
00000000
00000000
,
00000000
00000000
00000000
00000000
,
00000000
00000000
00000000
00000000
,
00000000
00000000
00000000
00000000
,
00010000
00000000
00010000
00000000
,
10000000
00000000
10000000
00000000
,
00100000
01000000
00100000
00000000
,
20020000
00000000
30030000
00000000
,
00100000
00100000
00100000
00000000
,
00001000
00010000
00001000
00000000
,
00010000
00010000
00010000
00000000
,
00000010
00000100
00000010
00000000
,
00000002
00000003
00002000
00003000
,
00000200
00000300
00020000
00030000
,
00001000
00100000
00010000
20020000
,
00000000
30030000
00100000
01000000
,
20020000
00000000
30030000
00000000
,
00000000
10000000
00000000
00010000
,
00000000
10000000
00000000
00010000
,
00000000
00100000
00000000
00100000
,
00000000
00001000
00000000
00010000
,
00000000
00000010
00000000
00000010
,
00000000
00000100
00000000
00000100
,
00000000
00001000
00000000
00000001
,
00002000
00000000
00003000
00000001
,
00001000
00000100
00000000
00001000
,
00000100
00010000
00000000
00001000
,
00100000
00010000
00000000
01000000
,
00000000
00100000
10000000
01000000
,
00000000
00100000
00000000
00100000
,
00000000
00010000
00100000
00001000
,
00010000
00000000
00000000
00001000
00000000
00000000
00000000
00000000
,
00022000
00000000
00033000
00000000
,
00010000
00010000
00000010
00000010
,
00001000
00000100
00000001
00000000
,
00001000
00001000
00000100
00000100
,
00010000
00001000
01000000
00000000
,
00010000
01000000
10000000
00100000
,
00020000
00030000
02000000
03000000
,
00001000
00000000
00000000
00011000
00000000
00000000
00022000
00000000
,
00000000
00033000
00010000
00000100
,
00001000
00001000
00000001
00000001
,
00001000
00000100
00000001
00000000
,
00001000
00001000
00000100
00000100
,
00010000
00001000
01000000
00000000
,
00010000
01000000
10000000
00010000
,
00100000
10000000
00010000
00100000
,
00001000
00010000
00001000
00022000
,
00000000
00033000
00010000
00000100
,
00002000
00003000
00000002
00000003
,
00000010
00001000
00000100
00000000
,
00020000
00030000
00002000
00003000
,
01000000
00100000
10000000
00000000
,
00010000
00100000
00001000
00020000
,
00002000
00000000
00033000
00000000
,
00010000
00000000
00000000
00000000
,
00000010
00000000
00000000
00000000
,
00001000
00000000
00000000
00000000
,
00000001
00000000
00000000
00000000
,
00001000
00001000
00000100
00010000
,
00010000
00001000
00100000
00010000
,
01000000
00100000
10000000
20020000
,
00000000
30030000
00100000
10000000
,
00020000
00030000
00200000
00300000
,
00001000
00010000
00001000
00000000
,
00020000
00030000
00000020
00000030
,
00001000
00000100
00000001
00000000
,
00000010
00001000
00000100
00000000
,
00020000
00000000
00002000
00033000
,
00001000
00000000
00100000
00000000
,
00010000
01000000
10000000
00000000
,
00100000
00000000
00001000
00000000
,
00010000
00000100
00001000
00000000
,
00000010
00000000
00000100
00000000
,
00000001
00000100
00001000
00000000
,
00010000
00000000
00001000
00000000
,
00020000
00000000
00000000
00000000
00000000
00000000
00000000
00030000
;
