#TITLE:Drastic Dramatic;
#SUBTITLE:;
#ARTIST:KING & Princess;
#TITLETRANSLIT:;
#SUBTITLETRANSLIT:;
#ARTISTTRANSLIT:;
#GENRE:;
#CREDIT:;
#BANNER:Drastic Dramatic.png;
#BACKGROUND:Drastic Dramatic-bg.png;
#LYRICSPATH:;
#CDTITLE:;
#MUSIC:Drastic Dramatic.ogg;
#OFFSET:0.285000;
#SAMPLESTART:100.794334;
#SAMPLELENGTH:13.132530;
#SELECTABLE:YES;
#BPMS:0.000000=166.000000
;
#STOPS:
;
#BGCHANGES:0.813=Drastic Dramatic.avi=1.000=0=0=0=StretchNoLoop====,
99999=-nosongbg-=1.000=0=0=0 // don't automatically add -songbackground-
;
#KEYSOUNDS:;
#ATTACKS:;

//---------------dance-single - ----------------
#NOTES:
     dance-single:
     :
     Hard:
     13:
     0.688912,0.713170,0.577328,0.059431,0.479692,568.000000,500.000000,68.000000,7.000000,0.000000,0.000000,0.688912,0.713170,0.577328,0.059431,0.479692,568.000000,500.000000,68.000000,7.000000,0.000000,0.000000:
// measure 0
0000
0000
0000
0000
,  // measure 1
0000
0000
0000
0000
,  // measure 2
0000
0000
0000
0000
,  // measure 3
0000
0000
0000
0000
,  // measure 4
0000
0000
0000
0000
,  // measure 5
0000
0000
0000
0000
,  // measure 6
1000
0000
0001
1001
0000
0010
1010
0000
,  // measure 7
0001
1001
0000
1000
1010
0000
0110
0000
,  // measure 8
0101
0000
0010
1010
0000
0100
0101
0000
,  // measure 9
0001
0000
1001
0000
0000
0000
0100
0000
0010
0000
0000
1001
0000
0000
0000
0000
,  // measure 10
1000
0000
0000
1000
0010
0000
0000
0010
0100
0000
0000
0100
0001
0000
0000
0001
,  // measure 11
1000
0000
0000
1000
0010
0000
0000
0010
1000
0000
0100
0000
0010
0000
0001
0000
,  // measure 12
0100
0000
0000
0100
0010
0000
0000
0010
1000
0000
0000
1000
0001
0000
0000
0001
,  // measure 13
1000
0000
0000
1000
0010
0000
0000
0010
0100
0000
0000
0000
1001
0000
0000
0000
,  // measure 14
0010
0000
0000
0010
0001
0000
0000
0001
1000
0000
0000
1000
0100
0000
0000
0100
,  // measure 15
0010
0000
0000
0010
0001
0000
0000
0001
1000
0000
0000
0000
1001
0000
0000
0000
,  // measure 16
0010
0000
0000
0010
1000
0000
0000
1000
0010
0000
0000
0010
0100
0000
0000
0100
,  // measure 17
0001
0000
0000
0001
1000
0000
0000
1000
0000
0001
0000
0000
1001
0000
0000
0000
,  // measure 18
0010
0000
0100
0000
0000
1001
0000
0000
0000
1001
0000
0000
0001
0000
0000
0000
,  // measure 19
1000
0010
0001
0000
1000
0100
0001
0000
,  // measure 20
1000
0000
0001
0000
0000
0101
0000
0000
0000
0101
0000
0000
0100
0000
0000
0000
,  // measure 21
0010
0000
0000
1010
0000
0000
0101
0000
0000
0000
0000
0000
1001
0000
0000
0000
,  // measure 22
0010
0100
0000
0010
0000
0010
0000
0000
1000
0000
0001
0000
0000
0100
0000
0000
,  // measure 23
0000
0010
0000
0000
0110
0000
0000
0000
0001
0000
0100
0000
0010
0000
0000
0000
,  // measure 24
1000
0000
0010
0000
0100
0000
0000
0000
0001
0000
1000
0000
0000
1001
0000
0000
,  // measure 25
0001
0000
1000
0000
0100
0000
0010
0000
0001
0000
0000
0101
0000
0000
1001
0000
,  // measure 26
0000
0000
0010
0000
1000
0000
0001
0000
0100
0000
0000
0110
0000
0000
1001
0000
,  // measure 27
0000
0010
0100
0010
1000
0100
0010
0001
,  // measure 28
1000
0001
1000
0000
0001
0000
0100
0000
0010
0000
0000
0000
1000
0000
0000
0000
,  // measure 29
0001
1000
0001
0000
1000
0000
0010
0000
0100
0000
0000
0000
0001
0000
0000
0000
,  // measure 30
1000
0100
1000
0000
0001
0000
0010
0000
0100
0000
0000
0000
1000
0000
0000
0000
,  // measure 31
0001
0010
0001
0000
1000
0000
0100
0000
0010
0000
0001
0000
0100
0000
0010
0000
,  // measure 32
1000
0010
1000
0000
0010
1000
0000
0010
0000
0000
0100
0000
0001
0000
1000
0000
,  // measure 33
0001
0010
0001
0000
0010
0001
0000
0100
0000
0000
0010
0000
1000
0000
0001
0000
,  // measure 34
1000
0100
0020
0000
0130
0010
0001
0100
,  // measure 35
0010
0100
0010
1000
0001
1001
1001
0000
,  // measure 36
0100
0001
0100
0000
0001
0000
0000
0000
1000
0010
1000
0000
0010
0000
0000
0010
,  // measure 37
0000
0000
0001
1001
0000
1000
0100
0010
,  // measure 38
0001
0100
0001
0000
1000
0000
0000
0000
0010
1000
0010
0000
0100
0000
0000
0100
,  // measure 39
0000
0000
0001
0011
0000
0100
0010
1000
,  // measure 40
0001
0100
0001
0000
1000
0000
0010
0000
0100
0000
0001
0000
1000
0000
0000
1001
,  // measure 41
0000
0000
0010
1010
0000
0001
0100
0010
,  // measure 42
1000
0000
0001
0000
1000
0000
0001
0000
1000
0000
0100
0000
0010
0000
0000
0101
,  // measure 43
0000
0000
0001
1001
0000
0010
0100
0001
,  // measure 44
2000
0000
0000
0000
,  // measure 45
0002
0000
0000
0000
3003
0000
0000
0000
1000
0000
0001
0000
0000
1001
0000
0000
,  // measure 46
1000
0000
0100
0000
0010
0000
0001
0000
1000
0000
0100
0000
0010
0000
0000
1001
,  // measure 47
0000
1001
0000
0000
0001
0000
0100
0000
0010
0000
1000
0000
0100
0000
0010
0000
,  // measure 48
0001
0000
0000
0001
0000
0100
0000
0000
0010
0000
0000
0010
0000
1000
0000
0000
,  // measure 49
0001
0000
0000
0001
0000
0000
1000
0000
0100
0000
0010
0000
0001
0000
0000
0000
,  // measure 50
1000
0000
0010
0000
1000
0010
0000
0010
0000
0000
0100
0000
0000
1001
0000
0000
,  // measure 51
0001
0100
0010
0100
0001
1000
0100
0000
,  // measure 52
0010
0000
0001
0000
0100
0001
0000
0000
1000
0000
0000
0010
0000
1000
0010
0000
,  // measure 53
1000
0001
1000
0001
0100
0010
0110
0000
,  // measure 54
1000
0001
1000
0001
1000
0100
0010
0001
,  // measure 55
0100
0010
0100
0000
0010
0100
0010
0000
,  // measure 56
1000
0000
0001
0000
1000
0000
0000
0001
0000
0001
0000
0000
1000
0000
0100
0000
,  // measure 57
0010
0001
0010
0001
1000
0100
1000
0100
,  // measure 58
0010
0001
0010
0001
0010
0000
0001
1000
0001
1000
0001
0000
1000
0000
0010
0000
,  // measure 59
1000
0100
0010
0001
1000
0010
0100
0001
,  // measure 60
1000
0000
0001
0010
0000
0100
0000
0010
0000
0001
0000
1000
0100
0000
0010
0000
,  // measure 61
0001
0000
0000
1000
0000
1000
0000
1000
0000
1001
0000
0000
0000
0000
0000
0000
,  // measure 62
0101
0000
0000
1001
0000
0000
0101
0000
1001
0000
0000
1001
0000
0000
1000
0000
,  // measure 63
1100
0000
0000
1010
0000
0000
1001
0000
0000
0000
0000
0000
0010
0000
0000
0000
,  // measure 64
1100
0000
0000
1010
0000
0000
1001
0000
1001
0000
0000
0101
0000
0000
0011
0000
,  // measure 65
0110
0000
0000
0110
0000
0000
0110
0000
0000
0000
2002
0000
0000
0000
3003
0000
,  // measure 66
0001
1000
0100
0010
0001
0010
0100
1000
,  // measure 67
0010
0100
0001
0100
0010
1000
0100
1000
,  // measure 68
0001
0010
0100
1000
0001
0010
0100
1000
,  // measure 69
0010
0000
0100
0000
0010
0000
0100
0010
0000
0000
0000
0000
1001
0000
0000
0000
,  // measure 70
0100
0000
1000
0100
0000
1000
0100
0000
1000
0100
0000
0010
0001
0000
0010
0001
,  // measure 71
0000
0010
0001
0000
0100
0010
0000
0100
0010
0000
0000
0000
1001
0000
0000
0000
,  // measure 72
0001
0000
0010
0001
0000
0010
0001
0000
1000
0100
0000
1000
0100
0000
1000
0100
,  // measure 73
0000
0010
0001
0100
1000
0100
0001
1000
,  // measure 74
0001
0000
1000
0001
0000
0000
0000
0000
1000
0000
0001
1000
0000
0000
0000
1001
,  // measure 75
0000
0001
0100
0010
0100
0001
1000
0100
,  // measure 76
0010
0000
0001
0000
0100
0010
0100
0010
0000
0000
1001
0000
0000
0000
0000
0000
,  // measure 77
1001
0000
1000
0000
0001
0000
0101
0000
0100
0000
0010
0000
0110
0000
0000
1001
,  // measure 78
0000
1000
0100
0010
0001
0100
0010
1001
,  // measure 79
0000
0220
0000
0000
,  // measure 80
0330
0000
0000
0000
;

//---------------dance-single - ----------------
#NOTES:
     dance-single:
     :
     Medium:
     10:
     0.539729,0.577328,0.670719,0.050941,0.131597,445.000000,366.000000,79.000000,6.000000,0.000000,0.000000,0.539729,0.577328,0.670719,0.050941,0.131597,445.000000,366.000000,79.000000,6.000000,0.000000,0.000000:
// measure 0
0000
0000
0000
0000
,  // measure 1
0000
0000
0000
0000
,  // measure 2
0000
0000
0000
0000
,  // measure 3
0000
0000
0000
0000
,  // measure 4
0000
0000
0000
0000
,  // measure 5
0000
0000
0000
0000
,  // measure 6
0001
0000
0000
1001
0000
0000
0110
0000
,  // measure 7
0000
1001
0000
0000
0110
0000
1010
0000
,  // measure 8
0101
0000
0000
1010
0000
0000
0011
0000
,  // measure 9
0000
0000
0110
0000
0000
0000
0000
0000
1000
0000
0000
1001
0000
0000
0000
0000
,  // measure 10
1000
0010
1000
0000
0100
1000
0100
0000
,  // measure 11
1000
0010
1000
0000
0001
0000
0101
0000
,  // measure 12
0010
0100
0010
0000
1000
0001
1000
0000
,  // measure 13
0100
0010
0100
0000
0011
0000
1100
0000
,  // measure 14
0001
0010
0001
0000
1000
0100
1000
0000
,  // measure 15
0010
0100
0001
0000
1001
0000
0110
0000
,  // measure 16
0010
1000
0100
0000
0100
0010
0001
0000
,  // measure 17
0001
0000
0100
0000
0010
0000
0100
0000
0000
0001
0000
0000
1000
0000
0000
0000
,  // measure 18
0010
0100
0000
0000
0001
1000
0100
0000
,  // measure 19
1000
0100
0010
0000
0100
0010
0001
0000
,  // measure 20
1000
0001
0000
0000
0010
1000
0100
0000
,  // measure 21
0010
0000
0000
0001
0000
0000
1001
0000
0000
0000
0000
0000
0110
0000
0000
0000
,  // measure 22
1001
0000
0000
1001
0000
0000
0000
0000
1000
0000
0100
0000
0000
0000
0000
0000
,  // measure 23
1000
0001
0100
0000
0001
1000
1000
0000
,  // measure 24
0001
0010
0010
0000
0001
1000
0000
0000
,  // measure 25
0010
0000
0100
0000
0001
0000
0000
0000
1000
0000
0000
1100
0000
0000
1100
0000
,  // measure 26
0000
0000
0000
0000
0000
0000
0000
0000
0001
0000
0000
0011
0000
0000
0011
0000
,  // measure 27
0000
0000
0200
0310
,  // measure 28
1001
0000
0110
0000
1000
0001
0100
0000
,  // measure 29
1001
0000
0110
0000
0001
1000
0010
0000
,  // measure 30
1100
0000
0011
0000
1000
0010
0100
0000
,  // measure 31
0011
0000
1100
0000
0001
0100
0010
0000
,  // measure 32
1001
0000
1100
0000
0001
0100
1000
0000
,  // measure 33
1001
0000
0101
0000
1000
0100
0001
0000
,  // measure 34
1010
0000
0011
0000
1000
0010
0001
0000
,  // measure 35
0011
0000
1010
0000
0001
0010
1000
0000
,  // measure 36
0001
0000
0010
0000
0001
0000
0000
0000
1000
0000
0010
0000
0100
0000
0000
0100
,  // measure 37
0000
0000
1000
0001
0000
1000
0100
0000
,  // measure 38
0001
0000
1000
0000
0001
0000
0000
0000
0010
0000
0100
0000
0010
0000
0000
0010
,  // measure 39
0000
0000
0001
1000
0000
0010
1000
0010
,  // measure 40
1000
0000
0001
0000
1000
0000
0000
0000
0100
0000
0000
0000
1000
0000
0000
1001
,  // measure 41
0000
0000
1000
0010
0000
0100
0010
1000
,  // measure 42
0001
0000
0000
0000
1000
0000
0000
0000
0001
0000
0100
0000
0010
0000
0000
1010
,  // measure 43
0000
0000
0001
0000
1000
0010
0100
0000
,  // measure 44
0002
0000
0000
0000
,  // measure 45
1003
0000
0000
0000
0000
0000
0000
0000
0000
0000
0010
0000
0000
0010
0000
0000
,  // measure 46
1001
0000
1000
0000
0001
0100
0010
0000
,  // measure 47
1000
1000
0001
0000
1000
0100
0010
0000
,  // measure 48
0100
0001
0100
0001
0100
0010
0100
0000
,  // measure 49
0001
1000
0001
1000
0010
0100
0010
0000
,  // measure 50
1000
0000
0101
0000
1000
0001
1000
0000
,  // measure 51
0001
0000
1010
0000
0001
0100
0010
0000
,  // measure 52
1000
1000
0001
0000
1000
1000
0100
0000
,  // measure 53
0010
0001
0100
0001
0010
0001
0100
0000
,  // measure 54
0010
1000
0100
0000
1000
0000
1001
0000
,  // measure 55
0010
0001
0100
0000
0110
0000
1001
0000
,  // measure 56
0001
0010
0001
0000
1000
0100
1000
0000
,  // measure 57
0001
0010
0100
0000
1100
0000
0101
0000
,  // measure 58
1000
0100
0010
0000
0001
0000
1010
0000
,  // measure 59
0001
0010
0100
0000
1000
0000
0110
0000
,  // measure 60
1000
0001
1000
0000
0010
0100
0010
0000
,  // measure 61
1100
0000
0101
0000
0010
0100
0001
0000
,  // measure 62
1100
0000
0000
1100
0000
0000
0000
0000
0011
0000
0000
0011
0000
0000
0000
0000
,  // measure 63
0110
0000
0000
0110
0000
0000
0110
0000
0000
0000
0000
0000
0000
0000
0000
0000
,  // measure 64
1001
0000
0000
1001
0000
0000
0000
0000
0110
0000
0000
0110
0000
0000
0000
0000
,  // measure 65
1100
0000
0000
1100
0000
0000
2000
0000
0000
0000
0002
0000
0000
0000
3003
0000
,  // measure 66
1001
0000
1100
0000
0001
0100
0010
0000
,  // measure 67
0001
1000
0100
0000
0001
1000
0010
0000
,  // measure 68
1000
0100
1000
0100
0010
0001
0010
0001
,  // measure 69
1000
0100
0010
0001
0010
0100
1000
0000
,  // measure 70
0100
0000
0000
0100
0000
0000
0100
0000
0000
0100
0000
0000
0001
0000
0000
1000
,  // measure 71
0000
0000
0001
0000
0000
0100
0000
0000
0010
0000
0000
0000
1001
0000
0000
0000
,  // measure 72
0001
0000
0000
0001
0000
0000
0001
0000
0000
0100
0000
0000
0100
0000
0000
0000
,  // measure 73
0100
0010
0100
0010
0000
0000
0000
0000
0000
0000
0100
0000
0000
1001
0000
0000
,  // measure 74
0001
0000
0000
1001
0000
0000
0000
0000
1000
0000
0000
1001
0000
0000
0000
1001
,  // measure 75
0000
0100
0001
1000
,  // measure 76
0010
0000
0001
0000
1000
0000
0000
1000
0000
0000
1001
0000
0000
0000
0000
0000
,  // measure 77
1001
0000
0000
0000
0000
0000
0110
0000
0000
0000
0000
0000
1001
0000
0000
1001
,  // measure 78
0000
0000
0100
0000
0010
0100
0010
0100
,  // measure 79
0000
0220
0000
0000
,  // measure 80
0330
0000
0000
0000
;

//---------------dance-single - ----------------
#NOTES:
     dance-single:
     :
     Easy:
     7:
     0.372352,0.441486,0.322624,0.229233,0.021225,307.000000,269.000000,38.000000,27.000000,0.000000,0.000000,0.372352,0.441486,0.322624,0.229233,0.021225,307.000000,269.000000,38.000000,27.000000,0.000000,0.000000:
// measure 0
0000
0000
0000
0000
,  // measure 1
0000
0000
0000
0000
,  // measure 2
0000
0000
0000
0000
,  // measure 3
0000
0000
0000
0000
,  // measure 4
0000
0000
0000
0000
,  // measure 5
0000
0000
0000
0000
,  // measure 6
1000
0000
0000
0001
0000
0000
1000
0000
,  // measure 7
0000
0001
0000
0000
1001
0000
0110
0000
,  // measure 8
1001
0000
0000
1000
0000
0000
0001
0000
,  // measure 9
0000
1000
0000
0000
0020
0000
0000
0000
,  // measure 10
0130
0001
1000
0100
,  // measure 11
0010
0001
0100
0100
,  // measure 12
0010
1000
0001
0010
,  // measure 13
0100
1000
0010
0010
,  // measure 14
1001
0100
0010
0001
,  // measure 15
0100
0100
0010
1001
,  // measure 16
0010
0100
0010
0100
,  // measure 17
0001
0000
1000
0000
,  // measure 18
0001
0100
0001
0100
,  // measure 19
1000
0100
0001
0100
,  // measure 20
1000
0100
1000
0100
,  // measure 21
0001
0010
0100
1000
,  // measure 22
0020
0030
1000
1001
,  // measure 23
0100
0110
0001
0100
,  // measure 24
1000
0100
0001
1001
,  // measure 25
0010
0110
1000
0100
,  // measure 26
1001
0000
0001
0100
,  // measure 27
1001
0000
0020
0030
,  // measure 28
1000
0100
1000
0100
,  // measure 29
0001
0100
0001
0100
,  // measure 30
1000
0100
0001
0010
,  // measure 31
1000
0010
0001
0100
,  // measure 32
1000
1000
0001
0001
,  // measure 33
1000
0010
0001
0100
,  // measure 34
1000
0001
1000
0001
,  // measure 35
1000
0100
0001
0010
,  // measure 36
0100
0000
0100
0000
0001
0100
0001
0000
,  // measure 37
1000
1000
0001
0001
,  // measure 38
0010
0000
0010
0000
1000
0010
1000
0000
,  // measure 39
0001
0001
1000
1000
,  // measure 40
0001
0010
1000
0100
,  // measure 41
0010
0001
0100
1000
,  // measure 42
0020
0130
0200
0310
,  // measure 43
2002
3003
0100
0010
,  // measure 44
2002
0000
0000
0000
,  // measure 45
3003
0000
0100
0000
,  // measure 46
1001
0001
1000
0001
,  // measure 47
1000
0100
0010
0001
,  // measure 48
0100
0100
0010
0010
,  // measure 49
0100
0010
1001
0000
,  // measure 50
0001
0010
0100
1000
,  // measure 51
0010
0001
0100
1000
,  // measure 52
0100
0010
0001
0100
,  // measure 53
0010
0010
2002
3003
,  // measure 54
0010
0001
0100
0100
,  // measure 55
0010
1000
0100
0100
,  // measure 56
0001
0110
1000
0110
,  // measure 57
0001
1001
0100
1001
,  // measure 58
0010
0010
0001
1000
,  // measure 59
0100
0100
1000
0001
,  // measure 60
1000
1100
0010
0011
,  // measure 61
0100
0110
1001
0000
,  // measure 62
0001
0000
0000
0001
0000
0000
0001
0000
0001
0000
0000
0000
0000
0000
0000
0000
,  // measure 63
1000
0000
0000
1000
0000
0000
1000
0000
0000
0000
0000
0000
0000
0000
0000
0000
,  // measure 64
0010
0000
0000
0010
0000
0000
0010
0000
0010
0000
0000
0000
0000
0000
0000
0000
,  // measure 65
0100
0000
0000
0100
0000
0000
0100
0000
0000
0000
1001
0000
0000
0000
0000
0000
,  // measure 66
0001
1000
0010
0100
,  // measure 67
0001
1000
0001
1000
0001
0000
1000
0000
,  // measure 68
0100
0010
0001
0100
,  // measure 69
0110
0110
1001
0000
,  // measure 70
0002
0010
0100
1003
,  // measure 71
0020
0031
2000
3100
,  // measure 72
2000
0001
0010
3100
,  // measure 73
0002
0013
2000
3100
,  // measure 74
0020
0100
1030
1010
,  // measure 75
0200
0010
0301
0101
,  // measure 76
0220
0330
2002
3003
,  // measure 77
0011
0000
0000
0000
0000
0000
1100
0000
0000
0000
0000
0000
0110
0000
0000
0110
,  // measure 78
0000
0000
2002
0000
,  // measure 79
3003
0220
0000
0000
,  // measure 80
0330
0000
0000
0000
;

//---------------dance-single - ----------------
#NOTES:
     dance-single:
     :
     Beginner:
     4:
     0.179505,0.271684,0.110372,0.059431,0.000000,148.000000,135.000000,13.000000,7.000000,0.000000,0.000000,0.179505,0.271684,0.110372,0.059431,0.000000,148.000000,135.000000,13.000000,7.000000,0.000000,0.000000:
// measure 0
0000
0000
0000
0000
,  // measure 1
0000
0000
0000
0000
,  // measure 2
0000
0000
0000
0000
,  // measure 3
0000
0000
0000
0000
,  // measure 4
0000
0000
0000
0000
,  // measure 5
0000
0000
0000
0000
,  // measure 6
1000
0000
0000
0001
,  // measure 7
0000
0000
0000
0000
,  // measure 8
0001
0000
0000
1000
,  // measure 9
0000
0000
0000
0000
,  // measure 10
0010
0000
0010
0000
,  // measure 11
0001
0000
0100
0000
,  // measure 12
0010
0000
0010
0000
,  // measure 13
1000
0000
0100
0000
,  // measure 14
0001
0000
1000
0000
,  // measure 15
0001
0000
0001
0000
,  // measure 16
1000
0000
0001
0000
,  // measure 17
1000
0000
1000
0000
,  // measure 18
0010
0000
0001
0000
,  // measure 19
0100
0000
1000
0000
,  // measure 20
0010
0000
1000
0000
,  // measure 21
0100
0000
0000
0100
0000
0000
0000
0000
,  // measure 22
0000
0000
0010
0000
,  // measure 23
0001
0000
1000
0000
,  // measure 24
0100
0000
0010
0000
,  // measure 25
0001
0000
0100
0000
,  // measure 26
0000
0000
0010
0000
,  // measure 27
0000
0000
0100
0000
,  // measure 28
0100
0000
0001
0000
,  // measure 29
0100
0000
1000
0000
,  // measure 30
0001
0000
0010
0000
,  // measure 31
1000
0000
0010
0000
,  // measure 32
0001
0000
0010
0000
,  // measure 33
0100
0000
1000
0000
,  // measure 34
0010
0000
0010
0000
,  // measure 35
2002
0000
3003
0000
,  // measure 36
1000
0000
0001
0000
,  // measure 37
1000
0000
0001
0000
,  // measure 38
0100
0000
0010
0000
,  // measure 39
0100
0000
0010
0000
,  // measure 40
1000
0000
0100
0000
,  // measure 41
0001
0000
0100
0000
,  // measure 42
1000
0000
0010
0000
,  // measure 43
0001
0000
0000
0000
,  // measure 44
2002
0000
0000
0000
,  // measure 45
3003
0000
1001
0000
,  // measure 46
1000
0000
0001
0000
,  // measure 47
1000
0000
0001
0000
,  // measure 48
1000
0000
0100
0000
,  // measure 49
0010
0000
0001
0000
,  // measure 50
0001
0000
1000
0000
,  // measure 51
0001
0000
1000
0000
,  // measure 52
0001
0000
0010
0000
,  // measure 53
0100
0000
1000
0000
,  // measure 54
0010
0000
0010
0000
,  // measure 55
0100
0000
0100
0000
,  // measure 56
0001
0000
1000
0000
,  // measure 57
0100
0000
0010
0000
,  // measure 58
0001
0000
0001
0000
,  // measure 59
1000
0000
1000
0000
,  // measure 60
0010
0000
0100
0000
,  // measure 61
0020
0000
0030
0000
,  // measure 62
1001
0000
1001
0000
,  // measure 63
1001
0000
0000
0000
,  // measure 64
0110
0000
0110
0000
,  // measure 65
0110
0000
0000
0000
,  // measure 66
0001
0000
1000
0000
,  // measure 67
0001
0000
0001
0000
,  // measure 68
1000
0000
0001
0000
,  // measure 69
1000
0001
1000
0000
,  // measure 70
0010
0000
0010
0000
,  // measure 71
0001
0000
0100
0000
,  // measure 72
0010
0000
0010
0000
,  // measure 73
1000
0000
0100
0000
,  // measure 74
0001
1000
0001
0000
,  // measure 75
1000
0001
1000
0000
,  // measure 76
0010
0000
0010
0000
,  // measure 77
1001
0000
0000
1001
0000
0000
0000
0000
,  // measure 78
1001
0000
0000
0000
,  // measure 79
0000
0220
0000
0000
,  // measure 80
0330
0000
0000
0000
;
